  0
SECTION
  2
HEADER
  9
$ACADVER
  1
AC1018
  9
$ACADMAINTVER
 70
     0
  9
$DWGCODEPAGE
  3
ANSI_932
  9
$INSBASE
 10
0.0
 20
0.0
 30
0.0
  9
$EXTMIN
 10
0.0
 20
0.0
 30
0.0
  9
$EXTMAX
 10
1188.0
 20
840.0
 30
0.0
  9
$LIMMIN
 10
0.0
 20
0.0
  9
$LIMMAX
 10
1188.0
 20
840.0
  9
$ORTHOMODE
 70
     0
  9
$REGENMODE
 70
     1
  9
$FILLMODE
 70
     1
  9
$QTEXTMODE
 70
     0
  9
$MIRRTEXT
 70
     0
  9
$LTSCALE
 40
1.0
  9
$ATTMODE
 70
     1
  9
$TEXTSIZE
 40
2.5
  9
$TRACEWID
 40
1.0
  9
$TEXTSTYLE
  7
Std
  9
$CLAYER
  8
hojo
  9
$CELTYPE
  6
ByLayer
  9
$CECOLOR
 62
   256
  9
$CELTSCALE
 40
1.0
  9
$DISPSILH
 70
     0
  9
$DIMSCALE
 40
2.0
  9
$DIMASZ
 40
3.0
  9
$DIMEXO
 40
2.0
  9
$DIMDLI
 40
8.0
  9
$DIMRND
 40
0.0
  9
$DIMDLE
 40
0.0
  9
$DIMEXE
 40
1.0
  9
$DIMTP
 40
0.0
  9
$DIMTM
 40
0.0
  9
$DIMTXT
 40
3.0
  9
$DIMCEN
 40
0.0
  9
$DIMTSZ
 40
0.0
  9
$DIMTOL
 70
     0
  9
$DIMLIM
 70
     0
  9
$DIMTIH
 70
     0
  9
$DIMTOH
 70
     0
  9
$DIMSE1
 70
     0
  9
$DIMSE2
 70
     0
  9
$DIMTAD
 70
     1
  9
$DIMZIN
 70
     8
  9
$DIMBLK
  1
DotSmall
  9
$DIMASO
 70
     1
  9
$DIMSHO
 70
     1
  9
$DIMPOST
  1

  9
$DIMAPOST
  1

  9
$DIMALT
 70
     0
  9
$DIMALTD
 70
     3
  9
$DIMALTF
 40
0.03937007874016
  9
$DIMLFAC
 40
10.0
  9
$DIMTOFL
 70
     1
  9
$DIMTVP
 40
0.0
  9
$DIMTIX
 70
     0
  9
$DIMSOXD
 70
     0
  9
$DIMSAH
 70
     0
  9
$DIMBLK1
  1

  9
$DIMBLK2
  1

  9
$DIMSTYLE
  2
dim2_20
  9
$DIMCLRD
 70
     3
  9
$DIMCLRE
 70
     3
  9
$DIMCLRT
 70
     2
  9
$DIMTFAC
 40
1.0
  9
$DIMGAP
 40
0.5
  9
$DIMJUST
 70
     0
  9
$DIMSD1
 70
     0
  9
$DIMSD2
 70
     0
  9
$DIMTOLJ
 70
     0
  9
$DIMTZIN
 70
     8
  9
$DIMALTZ
 70
     0
  9
$DIMALTTZ
 70
     0
  9
$DIMUPT
 70
     0
  9
$DIMDEC
 70
     1
  9
$DIMTDEC
 70
     1
  9
$DIMALTU
 70
     2
  9
$DIMALTTD
 70
     3
  9
$DIMTXSTY
  7
Std
  9
$DIMAUNIT
 70
     0
  9
$DIMADEC
 70
     0
  9
$DIMALTRND
 40
0.0
  9
$DIMAZIN
 70
     0
  9
$DIMDSEP
 70
    46
  9
$DIMATFIT
 70
     3
  9
$DIMFRAC
 70
     0
  9
$DIMLDRBLK
  1
Open30
  9
$DIMLUNIT
 70
     6
  9
$DIMLWD
 70
     9
  9
$DIMLWE
 70
     9
  9
$DIMTMOVE
 70
     2
  9
$LUNITS
 70
     2
  9
$LUPREC
 70
     2
  9
$SKETCHINC
 40
1.0
  9
$FILLETRAD
 40
0.0
  9
$AUNITS
 70
     0
  9
$AUPREC
 70
     2
  9
$MENU
  1
.
  9
$ELEVATION
 40
0.0
  9
$PELEVATION
 40
0.0
  9
$THICKNESS
 40
0.0
  9
$LIMCHECK
 70
     0
  9
$CHAMFERA
 40
10.0
  9
$CHAMFERB
 40
10.0
  9
$CHAMFERC
 40
20.0
  9
$CHAMFERD
 40
0.0
  9
$SKPOLY
 70
     0
  9
$TDCREATE
 40
2451935.570731713
  9
$TDUCREATE
 40
2451935.195731713
  9
$TDUPDATE
 40
2455741.460801505
  9
$TDUUPDATE
 40
2455741.085801505
  9
$TDINDWG
 40
0.8990810069
  9
$TDUSRTIMER
 40
0.8990810069
  9
$USRTIMER
 70
     1
  9
$ANGBASE
 50
0.0
  9
$ANGDIR
 70
     0
  9
$PDMODE
 70
     0
  9
$PDSIZE
 40
0.0
  9
$PLINEWID
 40
0.0
  9
$SPLFRAME
 70
     0
  9
$SPLINETYPE
 70
     6
  9
$SPLINESEGS
 70
     8
  9
$HANDSEED
  5
A3A7
  9
$SURFTAB1
 70
     6
  9
$SURFTAB2
 70
     6
  9
$SURFTYPE
 70
     6
  9
$SURFU
 70
     6
  9
$SURFV
 70
     6
  9
$UCSBASE
  2

  9
$UCSNAME
  2

  9
$UCSORG
 10
0.0
 20
0.0
 30
0.0
  9
$UCSXDIR
 10
1.0
 20
0.0
 30
0.0
  9
$UCSYDIR
 10
0.0
 20
1.0
 30
0.0
  9
$UCSORTHOREF
  2

  9
$UCSORTHOVIEW
 70
     0
  9
$UCSORGTOP
 10
0.0
 20
0.0
 30
0.0
  9
$UCSORGBOTTOM
 10
0.0
 20
0.0
 30
0.0
  9
$UCSORGLEFT
 10
0.0
 20
0.0
 30
0.0
  9
$UCSORGRIGHT
 10
0.0
 20
0.0
 30
0.0
  9
$UCSORGFRONT
 10
0.0
 20
0.0
 30
0.0
  9
$UCSORGBACK
 10
0.0
 20
0.0
 30
0.0
  9
$PUCSBASE
  2

  9
$PUCSNAME
  2

  9
$PUCSORG
 10
0.0
 20
0.0
 30
0.0
  9
$PUCSXDIR
 10
1.0
 20
0.0
 30
0.0
  9
$PUCSYDIR
 10
0.0
 20
1.0
 30
0.0
  9
$PUCSORTHOREF
  2

  9
$PUCSORTHOVIEW
 70
     0
  9
$PUCSORGTOP
 10
0.0
 20
0.0
 30
0.0
  9
$PUCSORGBOTTOM
 10
0.0
 20
0.0
 30
0.0
  9
$PUCSORGLEFT
 10
0.0
 20
0.0
 30
0.0
  9
$PUCSORGRIGHT
 10
0.0
 20
0.0
 30
0.0
  9
$PUCSORGFRONT
 10
0.0
 20
0.0
 30
0.0
  9
$PUCSORGBACK
 10
0.0
 20
0.0
 30
0.0
  9
$USERI1
 70
     0
  9
$USERI2
 70
     0
  9
$USERI3
 70
     0
  9
$USERI4
 70
     0
  9
$USERI5
 70
     0
  9
$USERR1
 40
0.0
  9
$USERR2
 40
0.0
  9
$USERR3
 40
0.0
  9
$USERR4
 40
0.0
  9
$USERR5
 40
0.0
  9
$WORLDVIEW
 70
     1
  9
$SHADEDGE
 70
     3
  9
$SHADEDIF
 70
    70
  9
$TILEMODE
 70
     1
  9
$MAXACTVP
 70
    64
  9
$PINSBASE
 10
0.0
 20
0.0
 30
0.0
  9
$PLIMCHECK
 70
     0
  9
$PEXTMIN
 10
-25.93123167385193
 20
-53.05770098799053
 30
-0.000000000000013
  9
$PEXTMAX
 10
1184.147841776788
 20
820.157747913802
 30
0.0000000000000023
  9
$PLIMMIN
 10
-9.9906005859375
 20
-33.95135498046875
  9
$PLIMMAX
 10
1177.967407226562
 20
805.9419555664062
  9
$UNITMODE
 70
     0
  9
$VISRETAIN
 70
     1
  9
$PLINEGEN
 70
     0
  9
$PSLTSCALE
 70
     1
  9
$TREEDEPTH
 70
  3020
  9
$CMLSTYLE
  2
Standard
  9
$CMLJUST
 70
     0
  9
$CMLSCALE
 40
20.0
  9
$PROXYGRAPHICS
 70
     1
  9
$MEASUREMENT
 70
     1
  9
$CELWEIGHT
370
    -1
  9
$ENDCAPS
280
     0
  9
$JOINSTYLE
280
     0
  9
$LWDISPLAY
290
     0
  9
$INSUNITS
 70
     4
  9
$HYPERLINKBASE
  1

  9
$STYLESHEET
  1
monochrome.ctb
  9
$XEDIT
290
     1
  9
$CEPSNTYPE
380
     0
  9
$PSTYLEMODE
290
     1
  9
$FINGERPRINTGUID
  2
{1128C918-EA32-49CA-A447-4FB40908B966}
  9
$VERSIONGUID
  2
{82A0C548-76F5-4951-91A9-8B71EAE19742}
  9
$EXTNAMES
290
     1
  9
$PSVPSCALE
 40
0.0
  9
$OLESTARTUP
290
     0
  9
$SORTENTS
280
   127
  9
$INDEXCTL
280
     0
  9
$HIDETEXT
280
     0
  9
$XCLIPFRAME
290
     0
  9
$HALOGAP
280
     0
  9
$OBSCOLOR
 70
   257
  9
$OBSLTYPE
280
     0
  9
$INTERSECTIONDISPLAY
280
     0
  9
$INTERSECTIONCOLOR
 70
   257
  9
$DIMASSOC
280
     1
  9
$PROJECTNAME
  1

  0
ENDSEC
  0
SECTION
  2
CLASSES
  0
CLASS
  1
ACDBDICTIONARYWDFLT
  2
AcDbDictionaryWithDefault
  3
ObjectDBX Classes
 90
        0
 91
        1
280
     0
281
     0
  0
CLASS
  1
SORTENTSTABLE
  2
AcDbSortentsTable
  3
ObjectDBX Classes
 90
        0
 91
        0
280
     0
281
     0
  0
CLASS
  1
MATERIAL
  2
AcDbMaterial
  3
ObjectDBX Classes
 90
        0
 91
        1
280
     0
281
     0
  0
CLASS
  1
DIMASSOC
  2
AcDbDimAssoc
  3
"AcDbDimAssoc|Product Desc:     AcDim ARX App For Dimension|Company:          Autodesk, Inc.|WEB Address:      www.autodesk.com"
 90
        0
 91
        1
280
     0
281
     0
  0
ENDSEC
  0
SECTION
  2
TABLES
  0
TABLE
  2
VPORT
  5
8
330
0
100
AcDbSymbolTable
 70
     2
  0
VPORT
  5
A3A6
330
8
100
AcDbSymbolTableRecord
100
AcDbViewportTableRecord
  2
*Active
 70
     0
 10
0.0
 20
0.0
 11
1.0
 21
1.0
 12
594.000116311937
 22
419.971561475257
 13
0.0
 23
0.0
 14
10.0
 24
10.0
 15
10.0
 25
10.0
 16
0.0
 26
0.0
 36
1.0
 17
0.0
 27
0.0
 37
0.0
 40
846.4260765171413
 41
1.458912768647282
 42
50.0
 43
0.0
 44
0.0
 50
0.0
 51
0.0
 71
     0
 72
   100
 73
     1
 74
     3
 75
     0
 76
     0
 77
     0
 78
     0
281
     0
 65
     1
110
0.0
120
0.0
130
0.0
111
1.0
121
0.0
131
0.0
112
0.0
122
1.0
132
0.0
 79
     0
146
0.0
  0
ENDTAB
  0
TABLE
  2
LTYPE
  5
5
330
0
100
AcDbSymbolTable
 70
     5
  0
LTYPE
  5
14
330
5
100
AcDbSymbolTableRecord
100
AcDbLinetypeTableRecord
  2
ByBlock
 70
     0
  3

 72
    65
 73
     0
 40
0.0
  0
LTYPE
  5
15
330
5
100
AcDbSymbolTableRecord
100
AcDbLinetypeTableRecord
  2
ByLayer
 70
     0
  3

 72
    65
 73
     0
 40
0.0
  0
LTYPE
  5
16
330
5
100
AcDbSymbolTableRecord
100
AcDbLinetypeTableRecord
  2
Continuous
 70
     0
  3
Solid line
 72
    65
 73
     0
 40
0.0
  0
LTYPE
  5
2F
330
5
100
AcDbSymbolTableRecord
100
AcDbLinetypeTableRecord
  2
ACAD_ISO04W100
 70
     0
  3
ISO long-dash dot ____ . ____ . ____ . ____ . _
 72
    65
 73
     4
 40
30.0
 49
24.0
 74
     0
 49
-3.0
 74
     0
 49
0.0
 74
     0
 49
-3.0
 74
     0
  0
LTYPE
  5
31
330
5
100
AcDbSymbolTableRecord
100
AcDbLinetypeTableRecord
  2
HIDDEN2
 70
     0
  3
Hidden (.5x) _ _ _ _ _ _ _ _ _ _ _ _ _ _ _ _ _
 72
    65
 73
     2
 40
4.762499999999999
 49
3.174999999999999
 74
     0
 49
-1.587499999999999
 74
     0
  0
LTYPE
  5
2D8
330
5
100
AcDbSymbolTableRecord
100
AcDbLinetypeTableRecord
  2
ACAD_ISO05W100
 70
     0
  3
ISO long-dash double-dot ____ .. ____ .. ____ .
 72
    65
 73
     6
 40
33.0
 49
24.0
 74
     0
 49
-3.0
 74
     0
 49
0.0
 74
     0
 49
-3.0
 74
     0
 49
0.0
 74
     0
 49
-3.0
 74
     0
  0
LTYPE
  5
6B3
330
5
100
AcDbSymbolTableRecord
100
AcDbLinetypeTableRecord
  2
HIDS
 70
     0
  3
(破線１)- - - - - - - - - - - - - - - - - - - -
 72
    65
 73
     2
 40
2.5
 49
1.5
 74
     0
 49
-1.0
 74
     0
  0
ENDTAB
  0
TABLE
  2
LAYER
  5
2
102
{ACAD_XDICTIONARY
360
307
102
}
330
0
100
AcDbSymbolTable
 70
    18
  0
LAYER
  5
10
330
2
100
AcDbSymbolTableRecord
100
AcDbLayerTableRecord
  2
0
 70
     0
 62
     7
  6
Continuous
370
    20
390
F
  0
LAYER
  5
2C
330
2
100
AcDbSymbolTableRecord
100
AcDbLayerTableRecord
  2
kijun
 70
     0
 62
     1
  6
ACAD_ISO04W100
370
     9
390
F
  0
LAYER
  5
32
330
2
100
AcDbSymbolTableRecord
100
AcDbLayerTableRecord
  2
Defpoints
 70
     0
 62
     7
  6
Continuous
290
     0
370
    20
390
F
  0
LAYER
  5
33
330
2
100
AcDbSymbolTableRecord
100
AcDbLayerTableRecord
  2
hojo
 70
     0
 62
     6
  6
Continuous
290
     0
370
     9
390
F
  0
LAYER
  5
34
330
2
100
AcDbSymbolTableRecord
100
AcDbLayerTableRecord
  2
hatch
 70
     0
 62
     8
  6
Continuous
370
     9
390
F
  0
LAYER
  5
35
330
2
100
AcDbSymbolTableRecord
100
AcDbLayerTableRecord
  2
moji
 70
     0
 62
     7
  6
Continuous
370
    18
390
F
  0
LAYER
  5
36
330
2
100
AcDbSymbolTableRecord
100
AcDbLayerTableRecord
  2
size
 70
     0
 62
     7
  6
Continuous
370
    20
390
F
  0
LAYER
  5
37
330
2
100
AcDbSymbolTableRecord
100
AcDbLayerTableRecord
  2
sunpo
 70
     0
 62
     3
  6
Continuous
370
    15
390
F
  0
LAYER
  5
2D9
330
2
100
AcDbSymbolTableRecord
100
AcDbLayerTableRecord
  2
2tensasen
 70
     0
 62
   131
  6
ACAD_ISO05W100
370
     9
390
F
  0
LAYER
  5
2DA
330
2
100
AcDbSymbolTableRecord
100
AcDbLayerTableRecord
  2
hasen
 70
     0
 62
    41
  6
HIDDEN2
370
     9
390
F
  0
LAYER
  5
2ED
330
2
100
AcDbSymbolTableRecord
100
AcDbLayerTableRecord
  2
saisen
 70
     0
 62
   134
  6
Continuous
370
     9
390
F
  0
LAYER
  5
40F
330
2
100
AcDbSymbolTableRecord
100
AcDbLayerTableRecord
  2
wakumoji
 70
     0
 62
     7
  6
Continuous
370
    20
390
F
  0
LAYER
  5
1A62
330
2
100
AcDbSymbolTableRecord
100
AcDbLayerTableRecord
  2
sunpo2
 70
     0
 62
   111
  6
Continuous
370
    15
390
F
  0
LAYER
  5
1A64
330
2
100
AcDbSymbolTableRecord
100
AcDbLayerTableRecord
  2
KUTAI
 70
     0
 62
     9
  6
Continuous
370
    15
390
F
  0
LAYER
  5
30E2
330
2
100
AcDbSymbolTableRecord
100
AcDbLayerTableRecord
  2
塗板・掲示板
 70
     0
 62
     7
  6
Continuous
370
    -3
390
F
  0
LAYER
  5
6AEA
102
{ACAD_XDICTIONARY
360
6AEB
102
}
330
2
100
AcDbSymbolTableRecord
100
AcDbLayerTableRecord
  2
1
 70
     0
 62
     7
  6
Continuous
370
     9
390
F
  0
LAYER
  5
6AEE
330
2
100
AcDbSymbolTableRecord
100
AcDbLayerTableRecord
  2
2
 70
     0
 62
   252
  6
Continuous
370
     5
390
F
  0
LAYER
  5
6AF0
330
2
100
AcDbSymbolTableRecord
100
AcDbLayerTableRecord
  2
saisen-2
 70
     0
 62
     5
  6
Continuous
370
     9
390
F
  0
ENDTAB
  0
TABLE
  2
STYLE
  5
3
330
0
100
AcDbSymbolTable
 70
     5
  0
STYLE
  5
11
330
3
100
AcDbSymbolTableRecord
100
AcDbTextStyleTableRecord
  2
Standard
 70
     0
 40
0.0
 41
1.0
 50
0.0
 71
     0
 42
2.5
  3
txt.shx
  4
bigfont.shx
  0
STYLE
  5
3D
330
3
100
AcDbSymbolTableRecord
100
AcDbTextStyleTableRecord
  2
kanji
 70
     0
 40
0.0
 41
1.0
 50
0.0
 71
     0
 42
2.5
  3
romans.shx
  4
extfont.shx
  0
STYLE
  5
41
330
3
100
AcDbSymbolTableRecord
100
AcDbTextStyleTableRecord
  2
gothic
 70
     0
 40
0.0
 41
1.0
 50
0.0
 71
     0
 42
2.5
  3
MS PGothic.ttf
  4

1001
ACAD
1000
MS PGothic
1071
    32818
  0
STYLE
  5
305
330
3
100
AcDbSymbolTableRecord
100
AcDbTextStyleTableRecord
  2
Std
 70
     0
 40
0.0
 41
0.8
 50
0.0
 71
     0
 42
2.5
  3
romans.shx
  4
bigfont.shx
  0
STYLE
  5
1A6C
330
3
100
AcDbSymbolTableRecord
100
AcDbTextStyleTableRecord
  2
StdW
 70
     0
 40
0.0
 41
1.0
 50
0.0
 71
     0
 42
2.5
  3
romans.shx
  4
bigfont.shx
  0
ENDTAB
  0
TABLE
  2
VIEW
  5
6
330
0
100
AcDbSymbolTable
 70
     0
  0
ENDTAB
  0
TABLE
  2
UCS
  5
7
330
0
100
AcDbSymbolTable
 70
     0
  0
ENDTAB
  0
TABLE
  2
APPID
  5
9
330
0
100
AcDbSymbolTable
 70
     1
  0
APPID
  5
12
330
9
100
AcDbSymbolTableRecord
100
AcDbRegAppTableRecord
  2
ACAD
 70
     0
  0
ENDTAB
  0
TABLE
  2
DIMSTYLE
  5
A
330
0
100
AcDbSymbolTable
 70
     2
100
AcDbDimStyleTable
 71
     2
340
30E5
340
306
  0
DIMSTYLE
105
306
102
{ACAD_REACTORS
330
831A
330
8319
330
844B
330
8481
330
8434
330
8433
330
831E
330
831D
330
842E
330
8400
330
841A
330
8327
330
83F1
330
83F0
330
8329
330
832A
330
8328
330
831C
330
9BA2
102
}
330
A
100
AcDbSymbolTableRecord
100
AcDbDimStyleTableRecord
  2
dim2
 70
     0
 40
2.0
 41
3.0
 42
2.0
 43
8.0
 44
1.0
 73
     0
 74
     0
 77
     1
 78
     8
140
3.0
141
0.0
143
0.03937007874016
147
0.6
171
     3
172
     1
176
     3
177
     3
178
     2
271
     1
272
     1
274
     3
277
     6
279
     2
283
     0
284
     8
340
305
341
2D1A
342
46
371
     9
372
     9
  0
DIMSTYLE
105
30E5
102
{ACAD_REACTORS
330
7AFA
330
7B48
330
7AF4
330
7AED
330
7AFB
330
7AE7
330
7AF9
330
7AF8
330
7AF7
330
7AF3
330
7AE8
330
92BA
330
942D
330
95ED
330
95F2
330
95F1
330
95F0
330
95F3
102
}
330
A
100
AcDbSymbolTableRecord
100
AcDbDimStyleTableRecord
  2
dim2_20
 70
     0
 40
2.0
 41
3.0
 42
2.0
 43
8.0
 44
1.0
 73
     0
 74
     0
 77
     1
 78
     8
140
3.0
141
0.0
143
0.03937007874016
144
10.0
147
0.5
171
     3
172
     1
176
     3
177
     3
178
     2
271
     1
272
     1
274
     3
277
     6
279
     2
283
     0
284
     8
340
305
341
2D1A
342
46
371
     9
372
     9
  0
ENDTAB
  0
TABLE
  2
BLOCK_RECORD
  5
1
330
0
100
AcDbSymbolTable
 70
    41
  0
BLOCK_RECORD
  5
1F
330
1
100
AcDbSymbolTableRecord
100
AcDbBlockTableRecord
  2
*Model_Space
340
22
  0
BLOCK_RECORD
  5
1B
330
1
100
AcDbSymbolTableRecord
100
AcDbBlockTableRecord
  2
*Paper_Space
340
1E
  0
BLOCK_RECORD
  5
23
330
1
100
AcDbSymbolTableRecord
100
AcDbBlockTableRecord
  2
*Paper_Space0
340
26
  0
BLOCK_RECORD
  5
46
330
1
100
AcDbSymbolTableRecord
100
AcDbBlockTableRecord
  2
_DotSmall
340
0
102
{BLKREFS
331
999D
331
999E
331
99A5
331
99A6
331
99AE
331
99AF
331
99B8
331
99B9
331
99C0
331
99C1
331
99C9
331
99CA
331
99D2
331
99D3
331
99DB
331
99DC
331
99E4
331
99E5
331
99ED
331
99EE
331
99F7
331
99F8
331
99FF
331
9A00
331
9A09
331
9A0A
331
9A11
331
9A12
331
9A1B
331
9A1C
331
9A23
331
9A24
331
9AEF
331
9AF0
331
9AF8
331
9AF9
331
9B01
331
9B02
331
9B0A
331
9B0B
331
9B13
331
9B14
331
9B26
331
9B27
331
9B2F
331
9B30
331
9B38
331
9B39
331
9B41
331
9B42
331
9B4A
331
9B4B
331
9B5D
331
9B5E
331
9B65
331
9B66
331
9B6E
331
9B6F
331
9B77
331
9B78
331
9B80
331
9B81
331
9B89
331
9B8A
331
9B9D
331
9B9E
331
9BDE
331
A395
102
}
  0
BLOCK_RECORD
  5
409
330
1
100
AcDbSymbolTableRecord
100
AcDbBlockTableRecord
  2
ARRI
340
0
102
{BLKREFS
331
8318
331
8314
331
854B
331
8547
331
8540
331
8536
102
}
  0
BLOCK_RECORD
  5
16A8
330
1
100
AcDbSymbolTableRecord
100
AcDbBlockTableRecord
  2
二葉ﾛｺﾞ
340
0
310
2800000020000000200000000100080000000000000400000000000000000000000000000000000000000000000080000080000000808000800000008000800080800000C0C0C000C0DCC000F0CAA6000020400000206000002080000020A0000020C0000020E00000400000004020000040400000406000004080000040A0
310
000040C0000040E00000600000006020000060400000606000006080000060A0000060C0000060E00000800000008020000080400000806000008080000080A0000080C0000080E00000A0000000A0200000A0400000A0600000A0800000A0A00000A0C00000A0E00000C0000000C0200000C0400000C0600000C0800000C0
310
A00000C0C00000C0E00000E0000000E0200000E0400000E0600000E0800000E0A00000E0C00000E0E00040000000400020004000400040006000400080004000A0004000C0004000E00040200000402020004020400040206000402080004020A0004020C0004020E000404000004040200040404000404060004040800040
310
40A0004040C0004040E00040600000406020004060400040606000406080004060A0004060C0004060E00040800000408020004080400040806000408080004080A0004080C0004080E00040A0000040A0200040A0400040A0600040A0800040A0A00040A0C00040A0E00040C0000040C0200040C0400040C0600040C08000
310
40C0A00040C0C00040C0E00040E0000040E0200040E0400040E0600040E0800040E0A00040E0C00040E0E00080000000800020008000400080006000800080008000A0008000C0008000E00080200000802020008020400080206000802080008020A0008020C0008020E00080400000804020008040400080406000804080
310
008040A0008040C0008040E00080600000806020008060400080606000806080008060A0008060C0008060E00080800000808020008080400080806000808080008080A0008080C0008080E00080A0000080A0200080A0400080A0600080A0800080A0A00080A0C00080A0E00080C0000080C0200080C0400080C0600080C0
310
800080C0A00080C0C00080C0E00080E0000080E0200080E0400080E0600080E0800080E0A00080E0C00080E0E000C0000000C0002000C0004000C0006000C0008000C000A000C000C000C000E000C0200000C0202000C0204000C0206000C0208000C020A000C020C000C020E000C0400000C0402000C0404000C0406000C0
310
408000C040A000C040C000C040E000C0600000C0602000C0604000C0606000C0608000C060A000C060C000C060E000C0800000C0802000C0804000C0806000C0808000C080A000C080C000C080E000C0A00000C0A02000C0A04000C0A06000C0A08000C0A0A000C0A0C000C0A0E000C0C00000C0C02000C0C04000C0C06000
310
C0C08000C0C0A000F0FBFF00A4A0A000808080000000FF0000FF000000FFFF00FF000000FF00FF00FFFF0000FFFFFF000000000000000000000000000000000000000000000000000000000000000000000000000000000000000000000000FFFFFF000000000000000000000000000000000000000000000000FFFFFFFFFF
310
000000FFFFFF0000000000000000000000000000000000000000FF0000FFFF000000FFFFFF00FFFF0000000000000000000000000000000000FF000000FFFF000000FFFFFFFF0000FFFF00000000000000000000000000FFFFFFFF000000FFFF0000FFFFFFFF00FFFF00FF0000000000000000000000FF00FFFFFFFF0000FF
310
FFFF00FFFFFF00FFFFFFFFFFFF000000000000000000FF0000FFFFFFFFFFFFFFFFFF00FFFF00FFFFFFFFFFFF00FF00000000000000FF000000FFFF00FFFF0000000000000000FFFFFFFFFFFF00FF00000000000000FF000000FFFFFF0000000000000000000000FFFFFF000000FFFF0000000000FF000000FFFFFFFF000000
310
000000000000000000000000FFFFFFFF0000000000FF00FFFFFFFFFF000000000000000000000000000000FFFFFFFFFFFF00000000FFFFFFFFFFFFFF000000000000000000000000000000FFFFFFFFFFFF000000FF00000000FFFF000000000000000000000000000000000000000000FF000000FF00000000000000000000
310
000000000000000000000000000000000000FF0000FF0000FFFFFFFFFFFFFFFFFFFFFFFFFFFFFFFFFFFFFFFFFFFFFFFFFF00FF0000FF00FFFFFFFFFFFFFFFFFFFFFFFFFFFFFFFFFFFFFFFFFFFFFFFFFFFF00FF0000FF00FFFFFFFFFFFFFFFFFFFFFFFFFFFFFFFFFFFFFFFFFFFFFFFFFFFF00FF0000FF00FFFFFFFFFFFFFFFF
310
FFFFFFFF0000FFFFFFFFFFFFFFFFFFFFFFFFFF00000000FF00FFFFFFFFFFFFFFFFFFFFFF000000FFFFFFFFFFFFFFFFFFFF00FF00000000FF00FFFFFFFFFFFFFFFFFFFF0000000000FFFFFFFFFFFFFFFFFF00FF00000000FF00FFFFFFFFFFFFFFFFFFFF0000000000FFFFFFFFFFFFFFFFFFFF000000000000FF00FFFFFFFFFF
310
FFFFFF000000000000FFFFFFFFFFFFFFFF00FF000000000000FF00FFFFFFFFFFFFFFFF00000000000000FFFFFFFFFFFFFFFF0000000000000000FF00FFFFFFFFFFFF000000000000000000FFFFFFFFFF00FF000000000000000000FF00FFFFFFFFFF000000000000000000FFFFFFFF00FF0000000000000000000000FFFFFF
310
FFFF0000000000000000000000FFFF00FF0000000000000000000000000000FF0000000000000000000000000000FFFF00000000000000000000000000000000FF0000000000000000000000FFFF00000000000000000000000000000000000000FFFFFFFFFF000000FFFFFF00000000000000000000000000000000000000
310
00000000000000FFFFFF00000000000000000000000000000000000000000000000000000000000000000000000000000000000000000000
102
{BLKREFS
331
1CF0
102
}
1001
ACAD
1000
DesignCenter Data
1002
{
1070
     1
1070
     4
1002
}
  0
BLOCK_RECORD
  5
2D1A
330
1
100
AcDbSymbolTableRecord
100
AcDbBlockTableRecord
  2
_Open30
340
0
  0
BLOCK_RECORD
  5
2D20
330
1
100
AcDbSymbolTableRecord
100
AcDbBlockTableRecord
  2
_None
340
0
  0
BLOCK_RECORD
  5
7DC7
330
1
100
AcDbSymbolTableRecord
100
AcDbBlockTableRecord
  2
*D6
340
0
  0
BLOCK_RECORD
  5
7DD3
330
1
100
AcDbSymbolTableRecord
100
AcDbBlockTableRecord
  2
*D7
340
0
  0
BLOCK_RECORD
  5
7DDF
330
1
100
AcDbSymbolTableRecord
100
AcDbBlockTableRecord
  2
*D8
340
0
  0
BLOCK_RECORD
  5
7DEB
330
1
100
AcDbSymbolTableRecord
100
AcDbBlockTableRecord
  2
*D9
340
0
  0
BLOCK_RECORD
  5
7DF7
330
1
100
AcDbSymbolTableRecord
100
AcDbBlockTableRecord
  2
*D10
340
0
  0
BLOCK_RECORD
  5
7E03
330
1
100
AcDbSymbolTableRecord
100
AcDbBlockTableRecord
  2
*D11
340
0
  0
BLOCK_RECORD
  5
7E0F
330
1
100
AcDbSymbolTableRecord
100
AcDbBlockTableRecord
  2
*D12
340
0
  0
BLOCK_RECORD
  5
7E1B
330
1
100
AcDbSymbolTableRecord
100
AcDbBlockTableRecord
  2
*D13
340
0
  0
BLOCK_RECORD
  5
7E27
330
1
100
AcDbSymbolTableRecord
100
AcDbBlockTableRecord
  2
*D14
340
0
  0
BLOCK_RECORD
  5
7E33
330
1
100
AcDbSymbolTableRecord
100
AcDbBlockTableRecord
  2
*D15
340
0
  0
BLOCK_RECORD
  5
7E3F
330
1
100
AcDbSymbolTableRecord
100
AcDbBlockTableRecord
  2
*D16
340
0
  0
BLOCK_RECORD
  5
855B
330
1
100
AcDbSymbolTableRecord
100
AcDbBlockTableRecord
  2
*D17
340
0
  0
BLOCK_RECORD
  5
8567
330
1
100
AcDbSymbolTableRecord
100
AcDbBlockTableRecord
  2
*D18
340
0
  0
BLOCK_RECORD
  5
8573
330
1
100
AcDbSymbolTableRecord
100
AcDbBlockTableRecord
  2
*D19
340
0
  0
BLOCK_RECORD
  5
857F
330
1
100
AcDbSymbolTableRecord
100
AcDbBlockTableRecord
  2
*D20
340
0
  0
BLOCK_RECORD
  5
858B
330
1
100
AcDbSymbolTableRecord
100
AcDbBlockTableRecord
  2
*D21
340
0
  0
BLOCK_RECORD
  5
8597
330
1
100
AcDbSymbolTableRecord
100
AcDbBlockTableRecord
  2
*D22
340
0
  0
BLOCK_RECORD
  5
85A3
330
1
100
AcDbSymbolTableRecord
100
AcDbBlockTableRecord
  2
*D23
340
0
  0
BLOCK_RECORD
  5
85AF
330
1
100
AcDbSymbolTableRecord
100
AcDbBlockTableRecord
  2
*D24
340
0
  0
BLOCK_RECORD
  5
85BB
330
1
100
AcDbSymbolTableRecord
100
AcDbBlockTableRecord
  2
*D25
340
0
  0
BLOCK_RECORD
  5
85C7
330
1
100
AcDbSymbolTableRecord
100
AcDbBlockTableRecord
  2
*D26
340
0
  0
BLOCK_RECORD
  5
85D3
330
1
100
AcDbSymbolTableRecord
100
AcDbBlockTableRecord
  2
*D27
340
0
  0
BLOCK_RECORD
  5
85DF
330
1
100
AcDbSymbolTableRecord
100
AcDbBlockTableRecord
  2
*D28
340
0
  0
BLOCK_RECORD
  5
85EB
330
1
100
AcDbSymbolTableRecord
100
AcDbBlockTableRecord
  2
*D29
340
0
  0
BLOCK_RECORD
  5
85F6
330
1
100
AcDbSymbolTableRecord
100
AcDbBlockTableRecord
  2
*D30
340
0
  0
BLOCK_RECORD
  5
8602
330
1
100
AcDbSymbolTableRecord
100
AcDbBlockTableRecord
  2
*D31
340
0
  0
BLOCK_RECORD
  5
860E
330
1
100
AcDbSymbolTableRecord
100
AcDbBlockTableRecord
  2
*D32
340
0
  0
BLOCK_RECORD
  5
8625
330
1
100
AcDbSymbolTableRecord
100
AcDbBlockTableRecord
  2
*D33
340
0
  0
BLOCK_RECORD
  5
8631
330
1
100
AcDbSymbolTableRecord
100
AcDbBlockTableRecord
  2
*D34
340
0
  0
BLOCK_RECORD
  5
95FD
330
1
100
AcDbSymbolTableRecord
100
AcDbBlockTableRecord
  2
*D35
340
0
  0
BLOCK_RECORD
  5
960A
330
1
100
AcDbSymbolTableRecord
100
AcDbBlockTableRecord
  2
*D36
340
0
  0
BLOCK_RECORD
  5
9616
330
1
100
AcDbSymbolTableRecord
100
AcDbBlockTableRecord
  2
*D37
340
0
  0
BLOCK_RECORD
  5
9622
330
1
100
AcDbSymbolTableRecord
100
AcDbBlockTableRecord
  2
*D38
340
0
  0
BLOCK_RECORD
  5
9655
330
1
100
AcDbSymbolTableRecord
100
AcDbBlockTableRecord
  2
*D39
340
0
  0
BLOCK_RECORD
  5
9BA3
330
1
100
AcDbSymbolTableRecord
100
AcDbBlockTableRecord
  2
*D40
340
0
  0
ENDTAB
  0
ENDSEC
  0
SECTION
  2
BLOCKS
  0
BLOCK
  5
20
330
1F
100
AcDbEntity
  8
0
100
AcDbBlockBegin
  2
*Model_Space
 70
     0
 10
0.0
 20
0.0
 30
0.0
  3
*Model_Space
  1

  0
ENDBLK
  5
21
330
1F
100
AcDbEntity
  8
0
100
AcDbBlockEnd
  0
BLOCK
  5
1C
330
1B
100
AcDbEntity
 67
     1
  8
0
100
AcDbBlockBegin
  2
*Paper_Space
 70
     0
 10
0.0
 20
0.0
 30
0.0
  3
*Paper_Space
  1

  0
ENDBLK
  5
1D
330
1B
100
AcDbEntity
 67
     1
  8
0
100
AcDbBlockEnd
  0
BLOCK
  5
24
330
23
100
AcDbEntity
  8
0
100
AcDbBlockBegin
  2
*Paper_Space0
 70
     0
 10
0.0
 20
0.0
 30
0.0
  3
*Paper_Space0
  1

  0
ENDBLK
  5
25
330
23
100
AcDbEntity
  8
0
100
AcDbBlockEnd
  0
BLOCK
  5
48
330
46
100
AcDbEntity
  8
0
100
AcDbBlockBegin
  2
_DotSmall
 70
     0
 10
0.0
 20
0.0
 30
0.0
  3
_DotSmall
  1

  0
LWPOLYLINE
  5
47
330
46
100
AcDbEntity
  8
0
  6
ByBlock
 62
     0
100
AcDbPolyline
 90
        2
 70
     1
 43
0.5
 10
-0.0625
 20
0.0
 42
1.0
 10
0.0625
 20
0.0
 42
1.0
  0
ENDBLK
  5
49
330
46
100
AcDbEntity
  8
0
100
AcDbBlockEnd
  0
BLOCK
  5
40A
330
409
100
AcDbEntity
  8
0
100
AcDbBlockBegin
  2
ARRI
 70
     0
 10
0.0
 20
0.0
 30
0.0
  3
ARRI
  1

  0
LINE
  5
40B
330
409
100
AcDbEntity
  8
0
  6
ByBlock
 62
     0
100
AcDbLine
 10
-0.9999999999995168
 20
-0.2125565616699987
 30
0.0
 11
0.0000000000005826
 21
0.0000000000000142
 31
0.0
  0
LINE
  5
40C
330
409
100
AcDbEntity
  8
0
  6
ByBlock
 62
     0
100
AcDbLine
 10
0.0000000000005826
 20
0.0000000000000142
 30
0.0
 11
-0.9999999999995168
 21
0.2125565616699276
 31
0.0
  0
LINE
  5
40D
330
409
100
AcDbEntity
  8
0
  6
ByBlock
 62
     0
100
AcDbLine
 10
0.0000000000004832
 20
0.0
 30
0.0
 11
-0.9999999999995168
 21
0.0000000000000284
 31
0.0
  0
ENDBLK
  5
40E
330
409
100
AcDbEntity
  8
0
100
AcDbBlockEnd
  0
BLOCK
  5
16A9
330
16A8
100
AcDbEntity
  8
0
100
AcDbBlockBegin
  2
二葉ﾛｺﾞ
 70
     0
 10
0.0
 20
0.0
 30
0.0
  3
二葉ﾛｺﾞ
  1

  0
HATCH
  5
16AA
330
16A8
100
AcDbEntity
  8
0
  6
ByBlock
 62
     0
370
     0
100
AcDbHatch
 10
0.0
 20
0.0
 30
0.0
210
0.0
220
0.0
230
1.0
  2
SOLID
 70
     1
 71
     0
 91
        2
 92
       16
 93
        3
 72
     1
 10
76.73769930424715
 20
-36.71304457298436
 11
79.78414802696352
 21
-29.1412168510102
 72
     1
 10
79.78414802696534
 20
-29.14121685100997
 11
66.50084414551566
 21
-28.19627637481938
 72
     1
 10
66.50084414551748
 20
-28.19627637481915
 11
76.73769930424715
 21
-36.71304457298379
 97
        0
 92
        1
 93
        8
 72
     1
 10
84.6811051822242
 20
-43.32270634133806
 11
82.15388156491099
 21
-49.6075448210006
 72
     1
 10
82.15388156491099
 20
-49.60754482100004
 11
59.39410431416582
 21
-29.26425597551384
 72
     1
 10
59.39410431417127
 20
-29.2642559755144
 11
62.12557287816162
 21
-22.47249630289525
 72
     1
 10
62.12557287815798
 20
-22.47249630289502
 11
92.63189340767349
 21
-23.55277981603967
 72
     1
 10
92.63189340767349
 20
-23.55277981604013
 11
90.10466979036028
 21
-29.83761829570267
 72
     1
 10
90.10466979035482
 20
-29.83761829570301
 11
84.56544840518654
 21
-29.45619700974067
 72
     1
 10
84.56544840519018
 20
-29.45619700973987
 11
80.41902990940617
 21
-39.76441486068234
 72
     1
 10
80.41902990940434
 20
-39.76441486068291
 11
84.6811051822242
 21
-43.32270634133749
 97
        0
 75
     0
 76
     1
 98
        1
 10
-710.8849522954551
 20
-714.907159621347
450
        0
451
        0
460
0.0
461
0.0
452
        1
462
1.0
453
        2
463
0.0
 63
     5
421
      255
463
1.0
 63
    51
421
 16777113
470
LINEAR
  0
HATCH
  5
16AB
330
16A8
100
AcDbEntity
  8
0
  6
ByBlock
 62
     0
370
     0
100
AcDbHatch
 10
0.0
 20
0.0
 30
0.0
210
0.0
220
0.0
230
1.0
  2
SOLID
 70
     1
 71
     0
 91
        3
 92
        1
 93
        1
 72
     4
 94
        3
 73
     0
 74
     0
 95
       29
 96
       25
 40
0.0
 40
0.0
 40
0.0
 40
0.0
 40
1.0
 40
1.0
 40
1.0
 40
2.0
 40
2.0
 40
2.0
 40
3.0
 40
3.0
 40
3.0
 40
4.0
 40
4.0
 40
4.0
 40
5.0
 40
5.0
 40
5.0
 40
6.0
 40
6.0
 40
6.0
 40
7.0
 40
7.0
 40
7.0
 40
8.0
 40
8.0
 40
8.0
 40
8.0
 10
64.57897302076526
 20
-69.57925551048436
 10
64.57897302076526
 20
-69.57925551048436
 10
52.10280579606297
 20
-79.93422822873879
 10
52.10280579606297
 20
-79.93422822873879
 10
52.10280579606297
 20
-79.93422822873879
 10
33.77243702746091
 20
-57.84132303280569
 10
33.77243702746091
 20
-57.84132303280569
 10
33.77243702746091
 20
-57.84132303280569
 10
45.66047723703195
 20
-47.97850681256806
 10
45.66047723703195
 20
-47.97850681256806
 10
49.97668972463362
 20
-44.39806828950224
 10
54.5660490686314
 20
-44.565401498828
 10
57.30982154507183
 20
-47.87269316549429
 10
59.98469211178417
 20
-51.09631822749872
 10
58.48607557533068
 20
-53.85485539887724
 10
57.76752708822641
 20
-55.20828576842075
 10
59.02990850563583
 20
-54.68167831554456
 10
59.66971195305632
 20
-54.48235493384709
 10
60.7327699887719
 20
-54.45282554396658
 10
62.78752336798607
 20
-54.35931580934379
 10
64.88411004953741
 20
-55.17383481356012
 10
66.53529510037697
 20
-57.16460784803349
 10
69.67525355771977
 20
-60.94929131777576
 10
68.86811690097056
 20
-66.02342481231914
 10
64.57897302076526
 20
-69.57925551048436
 97
        0
 92
       16
 93
        1
 72
     4
 94
        3
 73
     0
 74
     0
 95
       20
 96
       16
 40
0.0
 40
0.0
 40
0.0
 40
0.0
 40
1.0
 40
1.0
 40
1.0
 40
2.0
 40
2.0
 40
2.0
 40
3.0
 40
3.0
 40
3.0
 40
4.0
 40
4.0
 40
4.0
 40
5.0
 40
5.0
 40
5.0
 40
5.0
 10
54.74568619040656
 20
-61.26919304148657
 10
54.74568619040656
 20
-61.26919304148657
 10
49.0538962908522
 20
-65.98897385745863
 10
49.0538962908522
 20
-65.98897385745863
 10
49.0538962908522
 20
-65.98897385745863
 10
53.96069657607404
 20
-71.90469496360936
 10
53.96069657607404
 20
-71.90469496360936
 10
53.96069657607404
 20
-71.90469496360936
 10
59.6549472581155
 20
-67.18245336514724
 10
59.6549472581155
 20
-67.18245336514724
 10
61.44639691089469
 20
-65.69367995864945
 10
62.56605294387918
 20
-63.39038754793512
 10
60.70570138137918
 20
-61.14861469947323
 10
58.65833034963362
 20
-58.68291064441291
 10
56.14833220975197
 20
-60.10524292367847
 10
54.74568619040656
 20
-61.26919304148657
 97
        0
 92
       16
 93
        1
 72
     4
 94
        3
 73
     0
 74
     0
 95
       20
 96
       16
 40
0.0
 40
0.0
 40
0.0
 40
0.0
 40
1.0
 40
1.0
 40
1.0
 40
2.0
 40
2.0
 40
2.0
 40
3.0
 40
3.0
 40
3.0
 40
4.0
 40
4.0
 40
4.0
 40
5.0
 40
5.0
 40
5.0
 40
5.0
 10
52.53344273182847
 20
-53.0674050020524
 10
51.74353155250719
 20
-52.11262139590167
 10
49.99637598455411
 20
-50.86500467343069
 10
47.72507374621091
 20
-52.74996406083142
 10
47.72507374621091
 20
-52.74996406083142
 10
42.00621523926383
 20
-57.49435270170522
 10
42.00621523926383
 20
-57.49435270170522
 10
42.00621523926383
 20
-57.49435270170522
 10
46.44792763385703
 20
-62.84901540011708
 10
46.44792763385703
 20
-62.84901540011708
 10
46.44792763385703
 20
-62.84901540011708
 10
52.16924692329303
 20
-58.1046267592443
 10
52.16924692329303
 20
-58.1046267592443
 10
54.24368656243132
 20
-56.38207901618864
 10
53.53498120528638
 20
-54.27318842219086
 10
52.53344273182847
 20
-53.0674050020524
 97
        0
 75
     0
 76
     1
 98
        1
 10
-710.8849522954551
 20
-714.907159621347
450
        0
451
        0
460
0.0
461
0.0
452
        0
462
0.0
453
        2
463
0.0
 63
     5
421
      255
463
1.0
 63
    51
421
 16777113
470

  0
HATCH
  5
16AC
330
16A8
100
AcDbEntity
  8
0
  6
ByBlock
 62
     0
370
     0
100
AcDbHatch
 10
0.0
 20
0.0
 30
0.0
210
0.0
220
0.0
230
1.0
  2
SOLID
 70
     1
 71
     0
 91
        2
 92
        1
 93
        8
 72
     1
 10
29.27658741808591
 20
-89.607564197241
 11
26.4663738144136
 21
-84.81642068905648
 72
     1
 10
26.46637381441542
 20
-84.8164206890557
 11
15.61678381565434
 21
-87.21322283439292
 72
     1
 10
15.61678381565434
 20
-87.21322283439281
 11
15.08279401530671
 21
-92.73767952462106
 72
     1
 10
15.08279401530854
 20
-92.73767952462151
 11
8.465749899487491
 21
-94.19938432372862
 72
     1
 10
8.465749899482034
 20
-94.19938432372873
 11
12.41776657855007
 21
-63.92929891326241
 72
     1
 10
12.41776657855371
 20
-63.92929891326218
 11
19.5688004947242
 21
-62.35193733712117
 72
     1
 10
19.5688004947242
 20
-62.35193733712151
 11
35.89363153391059
 21
-88.14585939813332
 72
     1
 10
35.89363153391242
 20
-88.14585939813275
 11
29.27658741809137
 21
-89.60756419723987
 97
        0
 92
       16
 93
        3
 72
     1
 10
16.05726388137918
 20
-82.45160871608936
 11
24.02773836674715
 21
-80.69214923568257
 72
     1
 10
24.02773836674533
 20
-80.6921492356829
 11
17.30980216882744
 21
-69.19291265954223
 72
     1
 10
17.3098021688329
 20
-69.19291265954234
 11
16.05726388138282
 21
-82.45160871608993
 97
        0
 75
     0
 76
     1
 98
        1
 10
-710.8849522954551
 20
-714.907159621347
450
        0
451
        0
460
0.0
461
0.0
452
        0
462
0.0
453
        2
463
0.0
 63
     5
421
      255
463
1.0
 63
    51
421
 16777113
470

  0
HATCH
  5
16AD
330
16A8
100
AcDbEntity
  8
0
  6
ByBlock
 62
     0
370
     0
100
AcDbHatch
 10
0.0
 20
0.0
 30
0.0
210
0.0
220
0.0
230
1.0
  2
SOLID
 70
     1
 71
     0
 91
        1
 92
        3
 72
     0
 73
     1
 93
        8
 10
-27.98459073481536
 20
-65.15722937581142
 10
-18.55610262407572
 20
-67.39408065929456
 10
-23.94767705984123
 20
-90.11202460770642
 10
-17.53118671696029
 20
-91.63524896906585
 10
-12.14084267243743
 20
-68.91730502065297
 10
-2.712354561701431
 20
-71.15169552164502
 10
-1.477041751681099
 20
-65.93975820765741
 10
-26.74927792479503
 20
-59.94529206182358
 97
        0
 75
     2
 76
     1
 98
        1
 10
0.5032729572103563
 20
0.4066288986183509
450
        0
451
        0
460
0.0
461
0.0
452
        0
462
0.0
453
        0
470

  0
HATCH
  5
16AE
330
16A8
100
AcDbEntity
  8
0
  6
ByBlock
 62
     0
370
     0
100
AcDbHatch
 10
0.0
 20
0.0
 30
0.0
210
0.0
220
0.0
230
1.0
  2
SOLID
 70
     1
 71
     0
 91
        1
 92
        1
 93
        1
 72
     4
 94
        3
 73
     0
 74
     0
 95
       35
 96
       31
 40
0.0
 40
0.0
 40
0.0
 40
0.0
 40
1.0
 40
1.0
 40
1.0
 40
2.0
 40
2.0
 40
2.0
 40
3.0
 40
3.0
 40
3.0
 40
4.0
 40
4.0
 40
4.0
 40
5.0
 40
5.0
 40
5.0
 40
6.0
 40
6.0
 40
6.0
 40
7.0
 40
7.0
 40
7.0
 40
8.0
 40
8.0
 40
8.0
 40
9.0
 40
9.0
 40
9.0
 40
10.0
 40
10.0
 40
10.0
 40
10.0
 10
-47.53304683600435
 20
-67.45560022154575
 10
-49.14485936701203
 20
-69.33809882645642
 10
-52.52351372588782
 20
-71.09509752437372
 10
-56.78189782497248
 20
-67.44575709158585
 10
-59.10610688684937
 20
-65.45252327462151
 10
-61.03412996782572
 20
-61.87946709902667
 10
-58.07011745852651
 20
-58.42206770046437
 10
-58.07011745852651
 20
-58.42206770046437
 10
-46.33464576333972
 20
-44.73273470815297
 10
-46.33464576333972
 20
-44.73273470815297
 10
-46.33464576333972
 20
-44.73273470815297
 10
-51.31280874076947
 20
-40.46573787035595
 10
-51.31280874076947
 20
-40.46573787035595
 10
-51.31280874076947
 20
-40.46573787035595
 10
-62.78743749200839
 20
-53.85239461638718
 10
-62.78743749200839
 20
-53.85239461638718
 10
-68.92832019600246
 20
-61.01573244500776
 10
-64.98491625565112
 20
-67.60816873593069
 10
-60.17285609629652
 20
-71.73490097179456
 10
-54.11687038821401
 20
-76.92715202586157
 10
-47.48998314242817
 20
-77.42669087134823
 10
-42.32110952201765
 20
-71.39777377065297
 10
-42.32110952201765
 20
-71.39777377065297
 10
-30.84771116202137
 20
-58.00865624213168
 10
-30.84771116202137
 20
-58.00865624213168
 10
-30.84771116202137
 20
-58.00865624213168
 10
-35.79757514081939
 20
-53.7638064467443
 10
-35.79757514081939
 20
-53.7638064467443
 10
-35.79757514081939
 20
-53.7638064467443
 10
-47.53304683600435
 20
-67.45560022154575
 10
-47.53304683600435
 20
-67.45560022154575
 97
        0
 75
     2
 76
     1
 98
        1
 10
0.5032729572103563
 20
0.4066288986183509
450
        0
451
        0
460
0.0
461
0.0
452
        0
462
0.0
453
        0
470

  0
HATCH
  5
16AF
330
16A8
100
AcDbEntity
  8
0
  6
ByBlock
 62
     0
370
     0
100
AcDbHatch
 10
0.0
 20
0.0
 30
0.0
210
0.0
220
0.0
230
1.0
  2
SOLID
 70
     1
 71
     0
 91
        1
 92
        3
 72
     0
 73
     1
 93
       10
 10
-65.75760195753173
 20
-23.80377963002798
 10
-59.46538113040151
 20
-37.10923055388719
 10
-54.62502197241701
 20
-34.82070283811367
 10
-63.71884366450467
 20
-15.58722689565297
 10
-89.67025580488188
 20
-27.85914917367847
 10
-86.86742454868181
 20
-33.78717419228019
 10
-76.69085856095444
 20
-28.97388364168512
 10
-71.27098512655539
 20
-40.43620848047431
 10
-66.59549839540523
 20
-38.22642580438389
 10
-72.01414143855981
 20
-26.7641009655938
 97
        0
 75
     2
 76
     1
 98
        1
 10
0.5032729572103563
 20
0.4066288986183509
450
        0
451
        0
460
0.0
461
0.0
452
        0
462
0.0
453
        0
470

  0
HATCH
  5
16B0
330
16A8
100
AcDbEntity
  8
0
  6
ByBlock
 62
     0
370
     0
100
AcDbHatch
 10
0.0
 20
0.0
 30
0.0
210
0.0
220
0.0
230
1.0
  2
SOLID
 70
     1
 71
     0
 91
        1
 92
        1
 93
        1
 72
     4
 94
        3
 73
     0
 74
     0
 95
       41
 96
       37
 40
0.0
 40
0.0
 40
0.0
 40
0.0
 40
1.0
 40
1.0
 40
1.0
 40
2.0
 40
2.0
 40
2.0
 40
3.0
 40
3.0
 40
3.0
 40
4.0
 40
4.0
 40
4.0
 40
5.0
 40
5.0
 40
5.0
 40
6.0
 40
6.0
 40
6.0
 40
7.0
 40
7.0
 40
7.0
 40
8.0
 40
8.0
 40
8.0
 40
9.0
 40
9.0
 40
9.0
 40
10.0
 40
10.0
 40
10.0
 40
11.0
 40
11.0
 40
11.0
 40
12.0
 40
12.0
 40
12.0
 40
12.0
 10
92.32675637890134
 20
2.068887470666368
 10
92.54330523802854
 20
7.006447537010217
 10
89.35905269586147
 20
26.5672075506518
 10
84.30214467875158
 20
36.93694496384592
 10
76.89026781863322
 20
52.12858566635055
 10
62.69155285087435
 20
70.84283650340399
 10
52.19385474819318
 20
75.56753888435719
 10
48.08926955474089
 20
77.41312575191637
 10
46.59803536575418
 20
75.9440386053393
 10
45.61618315221676
 20
74.22395164477348
 10
19.70168274918797
 20
28.8926470037768
 10
7.653691677754977
 20
10.01967569611281
 10
4.907458418832902
 20
6.840344718929713
 10
2.550028793333694
 20
4.111336937431929
 10
0.0105012635740423
 20
3.701616652833763
 10
-2.743114342827539
 20
6.584423339962086
 10
-6.052866791986161
 20
10.05043547723892
 10
-41.08456632075467
 20
76.38697945355364
 10
-41.08456632075467
 20
76.38697945355364
 10
-42.52904564242817
 20
78.57584547847887
 10
-44.38693642243925
 20
79.73118285757152
 10
-47.64993400429012
 20
78.32730644698108
 10
-57.16701028466559
 20
74.23256438348892
 10
-70.9449314466201
 20
59.53431057024443
 10
-78.35311713300507
 20
47.83328982991747
 10
-80.90248779272588
 20
43.80621928490177
 10
-91.01876460944367
 20
21.83266203973892
 10
-90.9178725273523
 20
8.621951241747751
 10
-90.89326470245032
 20
5.213767492987813
 10
-90.38757390073625
 20
1.616103492491106
 10
-82.51183954123916
 20
-0.4386498867243063
 10
-82.51183954123916
 20
-0.4386498867243063
 10
87.31168166411771
 20
-2.195648584640593
 10
87.31168166411771
 20
-2.195648584640593
 10
89.73309163435443
 20
-1.89297233836146
 10
92.17418786451526
 20
-1.453722663881649
 10
92.32675637890134
 20
2.068887470666368
 97
        0
 75
     2
 76
     1
 98
        1
 10
0.5032729572103563
 20
0.4066288986183509
450
        0
451
        0
460
0.0
461
0.0
452
        0
462
0.0
453
        0
470

  0
CIRCLE
  5
16B1
330
16A8
100
AcDbEntity
  8
0
  6
ByBlock
 62
     0
370
    -2
100
AcDbCircle
 10
0.0
 20
0.0
 30
0.0
 40
103.5714285714286
  0
ENDBLK
  5
16B2
330
16A8
100
AcDbEntity
  8
0
100
AcDbBlockEnd
  0
BLOCK
  5
2D1B
330
2D1A
100
AcDbEntity
  8
0
100
AcDbBlockBegin
  2
_Open30
 70
     0
 10
0.0
 20
0.0
 30
0.0
  3
_Open30
  1

  0
LINE
  5
2D1C
330
2D1A
100
AcDbEntity
  8
0
  6
ByBlock
 62
     0
370
    -2
100
AcDbLine
 10
-1.0
 20
0.26794919
 30
0.0
 11
0.0
 21
0.0
 31
0.0
  0
LINE
  5
2D1D
330
2D1A
100
AcDbEntity
  8
0
  6
ByBlock
 62
     0
370
    -2
100
AcDbLine
 10
0.0
 20
0.0
 30
0.0
 11
-1.0
 21
-0.26794919
 31
0.0
  0
LINE
  5
2D1E
330
2D1A
100
AcDbEntity
  8
0
  6
ByBlock
 62
     0
370
    -2
100
AcDbLine
 10
0.0
 20
0.0
 30
0.0
 11
-1.0
 21
0.0
 31
0.0
  0
ENDBLK
  5
2D1F
330
2D1A
100
AcDbEntity
  8
0
100
AcDbBlockEnd
  0
BLOCK
  5
2D21
330
2D20
100
AcDbEntity
  8
0
100
AcDbBlockBegin
  2
_None
 70
     0
 10
0.0
 20
0.0
 30
0.0
  3
_None
  1

  0
ENDBLK
  5
2D22
330
2D20
100
AcDbEntity
  8
0
100
AcDbBlockEnd
  0
BLOCK
  5
7DD1
330
7DC7
100
AcDbEntity
  8
0
100
AcDbBlockBegin
  2
*D6
 70
     1
 10
0.0
 20
0.0
 30
0.0
  3
*D6
  1

  0
LINE
  5
9A20
330
7DC7
100
AcDbEntity
  8
sunpo
 62
     3
370
     9
100
AcDbLine
 10
492.9493123026168
 20
241.3798380113919
 30
0.0
 11
512.4493123026159
 21
241.3798380113919
 31
0.0
  0
LINE
  5
9A21
330
7DC7
100
AcDbEntity
  8
sunpo
 62
     3
370
     9
100
AcDbLine
 10
492.9493123026141
 20
276.3798380114038
 30
0.0
 11
512.449312302616
 21
276.3798380114038
 31
0.0
  0
LINE
  5
9A22
330
7DC7
100
AcDbEntity
  8
sunpo
 62
     3
370
     9
100
AcDbLine
 10
510.4493123026158
 20
241.3798380113919
 30
0.0
 11
510.4493123026158
 21
276.3798380114038
 31
0.0
  0
INSERT
  5
9A23
330
7DC7
100
AcDbEntity
  8
sunpo
 62
     3
370
     9
100
AcDbBlockReference
  2
_DotSmall
 10
510.4493123026158
 20
241.3798380113919
 30
0.0
 41
6.0
 42
6.0
 43
6.0
 50
270.0
  0
INSERT
  5
9A24
330
7DC7
100
AcDbEntity
  8
sunpo
 62
     3
370
     9
100
AcDbBlockReference
  2
_DotSmall
 10
510.4493123026158
 20
276.3798380114038
 30
0.0
 41
6.0
 42
6.0
 43
6.0
 50
90.0
  0
MTEXT
  5
9A25
330
7DC7
100
AcDbEntity
  8
sunpo
 62
     2
100
AcDbMText
 10
506.4493123026158
 20
258.8798380113979
 30
0.0
 40
6.0
 41
0.0
 71
     5
 72
     1
  1
350
  7
Std
 11
0.0000000000000001
 21
1.0
 31
0.0
 73
     1
 44
1.0
  0
POINT
  5
9A26
330
7DC7
100
AcDbEntity
  8
Defpoints
 62
     0
100
AcDbPoint
 10
488.9493123026168
 20
241.3798380113919
 30
0.0
  0
POINT
  5
9A27
330
7DC7
100
AcDbEntity
  8
Defpoints
 62
     0
100
AcDbPoint
 10
488.9493123026141
 20
276.3798380114038
 30
0.0
  0
POINT
  5
9A28
330
7DC7
100
AcDbEntity
  8
Defpoints
 62
     0
100
AcDbPoint
 10
510.4493123026158
 20
276.3798380114038
 30
0.0
  0
ENDBLK
  5
7DD2
330
7DC7
100
AcDbEntity
  8
0
100
AcDbBlockEnd
  0
BLOCK
  5
7DDD
330
7DD3
100
AcDbEntity
  8
0
100
AcDbBlockBegin
  2
*D7
 70
     1
 10
0.0
 20
0.0
 30
0.0
  3
*D7
  1

  0
LINE
  5
9A17
330
7DD3
100
AcDbEntity
  8
sunpo
 62
     3
370
     9
100
AcDbLine
 10
484.4493123026141
 20
330.3798380114035
 30
0.0
 11
484.4493123026141
 21
337.5316942424642
 31
0.0
  0
LINE
  5
9A18
330
7DD3
100
AcDbEntity
  8
sunpo
 62
     3
370
     9
100
AcDbLine
 10
487.9493123026145
 20
330.3798380114035
 30
0.0
 11
487.9493123026145
 21
337.5316942424642
 31
0.0
  0
LINE
  5
9A19
330
7DD3
100
AcDbEntity
  8
sunpo
 62
     3
370
     9
100
AcDbLine
 10
484.4493123026141
 20
335.5316942424642
 30
0.0
 11
487.9493123026145
 21
335.5316942424642
 31
0.0
  0
MTEXT
  5
9A1A
330
7DD3
100
AcDbEntity
  8
sunpo
 62
     2
100
AcDbMText
 10
486.1993123026143
 20
342.0316942424642
 30
0.0
 40
6.0
 41
0.0
 71
     5
 72
     1
  1
35
  7
Std
 73
     1
 44
1.0
  0
INSERT
  5
9A1B
330
7DD3
100
AcDbEntity
  8
sunpo
 62
     3
370
     9
100
AcDbBlockReference
  2
_DotSmall
 10
484.4493123026141
 20
335.5316942424642
 30
0.0
 41
6.0
 42
6.0
 43
6.0
 50
180.0
  0
INSERT
  5
9A1C
330
7DD3
100
AcDbEntity
  8
sunpo
 62
     3
370
     9
100
AcDbBlockReference
  2
_DotSmall
 10
487.9493123026145
 20
335.5316942424642
 30
0.0
 41
6.0
 42
6.0
 43
6.0
  0
POINT
  5
9A1D
330
7DD3
100
AcDbEntity
  8
Defpoints
 62
     0
100
AcDbPoint
 10
484.4493123026141
 20
326.3798380114035
 30
0.0
  0
POINT
  5
9A1E
330
7DD3
100
AcDbEntity
  8
Defpoints
 62
     0
100
AcDbPoint
 10
487.9493123026145
 20
326.3798380114035
 30
0.0
  0
POINT
  5
9A1F
330
7DD3
100
AcDbEntity
  8
Defpoints
 62
     0
100
AcDbPoint
 10
487.9493123026145
 20
335.5316942424642
 30
0.0
  0
ENDBLK
  5
7DDE
330
7DD3
100
AcDbEntity
  8
0
100
AcDbBlockEnd
  0
BLOCK
  5
7DE9
330
7DDF
100
AcDbEntity
  8
0
100
AcDbBlockBegin
  2
*D8
 70
     1
 10
0.0
 20
0.0
 30
0.0
  3
*D8
  1

  0
LINE
  5
9A0E
330
7DDF
100
AcDbEntity
  8
sunpo
 62
     3
370
     9
100
AcDbLine
 10
226.95509896046
 20
241.3798380113849
 30
0.0
 11
222.95509896046
 21
241.3798380113849
 31
0.0
  0
LINE
  5
9A0F
330
7DDF
100
AcDbEntity
  8
sunpo
 62
     3
370
     9
100
AcDbLine
 10
226.9128883005378
 20
211.3798380113849
 30
0.0
 11
222.95509896046
 21
211.3798380113849
 31
0.0
  0
LINE
  5
9A10
330
7DDF
100
AcDbEntity
  8
sunpo
 62
     3
370
     9
100
AcDbLine
 10
224.95509896046
 20
241.3798380113849
 30
0.0
 11
224.95509896046
 21
211.3798380113849
 31
0.0
  0
INSERT
  5
9A11
330
7DDF
100
AcDbEntity
  8
sunpo
 62
     3
370
     9
100
AcDbBlockReference
  2
_DotSmall
 10
224.95509896046
 20
241.3798380113849
 30
0.0
 41
6.0
 42
6.0
 43
6.0
 50
90.0
  0
INSERT
  5
9A12
330
7DDF
100
AcDbEntity
  8
sunpo
 62
     3
370
     9
100
AcDbBlockReference
  2
_DotSmall
 10
224.95509896046
 20
211.3798380113849
 30
0.0
 41
6.0
 42
6.0
 43
6.0
 50
270.0
  0
MTEXT
  5
9A13
330
7DDF
100
AcDbEntity
  8
sunpo
 62
     2
100
AcDbMText
 10
220.9550989604599
 20
226.379838011385
 30
0.0
 40
6.0
 41
0.0
 71
     5
 72
     1
  1
300
  7
Std
 11
0.0000000000000001
 21
1.0
 31
0.0
 73
     1
 44
1.0
  0
POINT
  5
9A14
330
7DDF
100
AcDbEntity
  8
Defpoints
 62
     0
100
AcDbPoint
 10
230.95509896046
 20
241.3798380113849
 30
0.0
  0
POINT
  5
9A15
330
7DDF
100
AcDbEntity
  8
Defpoints
 62
     0
100
AcDbPoint
 10
230.9128883005378
 20
211.3798380113849
 30
0.0
  0
POINT
  5
9A16
330
7DDF
100
AcDbEntity
  8
Defpoints
 62
     0
100
AcDbPoint
 10
224.95509896046
 20
211.3798380113849
 30
0.0
  0
ENDBLK
  5
7DEA
330
7DDF
100
AcDbEntity
  8
0
100
AcDbBlockEnd
  0
BLOCK
  5
7DF5
330
7DEB
100
AcDbEntity
  8
0
100
AcDbBlockBegin
  2
*D9
 70
     1
 10
0.0
 20
0.0
 30
0.0
  3
*D9
  1

  0
LINE
  5
9A05
330
7DEB
100
AcDbEntity
  8
sunpo
 62
     3
370
     9
100
AcDbLine
 10
460.4493123026172
 20
281.3798380113981
 30
0.0
 11
462.4493123026172
 21
281.3798380113981
 31
0.0
  0
LINE
  5
9A06
330
7DEB
100
AcDbEntity
  8
sunpo
 62
     3
370
     9
100
AcDbLine
 10
460.4493123026172
 20
276.3798380114006
 30
0.0
 11
462.4493123026172
 21
276.3798380114006
 31
0.0
  0
LINE
  5
9A07
330
7DEB
100
AcDbEntity
  8
sunpo
 62
     3
370
     9
100
AcDbLine
 10
464.4493123026173
 20
281.3798380113981
 30
0.0
 11
464.4493123026173
 21
276.3798380114006
 31
0.0
  0
MTEXT
  5
9A08
330
7DEB
100
AcDbEntity
  8
sunpo
 62
     2
100
AcDbMText
 10
459.6483899099808
 20
269.9009186471715
 30
0.0
 40
6.0
 41
0.0
 71
     5
 72
     1
  1
50
  7
Std
 11
0.0000000000000001
 21
1.0
 31
0.0
 73
     1
 44
1.0
  0
INSERT
  5
9A09
330
7DEB
100
AcDbEntity
  8
sunpo
 62
     3
370
     9
100
AcDbBlockReference
  2
_DotSmall
 10
464.4493123026173
 20
281.3798380113981
 30
0.0
 41
6.0
 42
6.0
 43
6.0
 50
90.0
  0
INSERT
  5
9A0A
330
7DEB
100
AcDbEntity
  8
sunpo
 62
     3
370
     9
100
AcDbBlockReference
  2
_DotSmall
 10
464.4493123026173
 20
276.3798380114006
 30
0.0
 41
6.0
 42
6.0
 43
6.0
 50
270.0
  0
POINT
  5
9A0B
330
7DEB
100
AcDbEntity
  8
Defpoints
 62
     0
100
AcDbPoint
 10
464.4493123026173
 20
281.3798380113981
 30
0.0
  0
POINT
  5
9A0C
330
7DEB
100
AcDbEntity
  8
Defpoints
 62
     0
100
AcDbPoint
 10
464.4493123026173
 20
276.3798380114006
 30
0.0
  0
POINT
  5
9A0D
330
7DEB
100
AcDbEntity
  8
Defpoints
 62
     0
100
AcDbPoint
 10
464.4493123026173
 20
276.3798380114006
 30
0.0
  0
ENDBLK
  5
7DF6
330
7DEB
100
AcDbEntity
  8
0
100
AcDbBlockEnd
  0
BLOCK
  5
7E01
330
7DF7
100
AcDbEntity
  8
0
100
AcDbBlockBegin
  2
*D10
 70
     1
 10
0.0
 20
0.0
 30
0.0
  3
*D10
  1

  0
LINE
  5
99FC
330
7DF7
100
AcDbEntity
  8
sunpo
 62
     3
370
     9
100
AcDbLine
 10
206.9550989604613
 20
241.3798380113849
 30
0.0
 11
202.95509896046
 21
241.3798380113849
 31
0.0
  0
LINE
  5
99FD
330
7DF7
100
AcDbEntity
  8
sunpo
 62
     3
370
     9
100
AcDbLine
 10
206.9550989604622
 20
361.3798380113947
 30
0.0
 11
202.95509896046
 21
361.3798380113947
 31
0.0
  0
LINE
  5
99FE
330
7DF7
100
AcDbEntity
  8
sunpo
 62
     3
370
     9
100
AcDbLine
 10
204.95509896046
 20
241.3798380113849
 30
0.0
 11
204.95509896046
 21
361.3798380113947
 31
0.0
  0
INSERT
  5
99FF
330
7DF7
100
AcDbEntity
  8
sunpo
 62
     3
370
     9
100
AcDbBlockReference
  2
_DotSmall
 10
204.95509896046
 20
241.3798380113849
 30
0.0
 41
6.0
 42
6.0
 43
6.0
 50
270.0
  0
INSERT
  5
9A00
330
7DF7
100
AcDbEntity
  8
sunpo
 62
     3
370
     9
100
AcDbBlockReference
  2
_DotSmall
 10
204.95509896046
 20
361.3798380113947
 30
0.0
 41
6.0
 42
6.0
 43
6.0
 50
90.0
  0
MTEXT
  5
9A01
330
7DF7
100
AcDbEntity
  8
sunpo
 62
     2
100
AcDbMText
 10
200.9550989604599
 20
301.3798380113899
 30
0.0
 40
6.0
 41
0.0
 71
     5
 72
     1
  1
H
  7
Std
 11
0.0000000000000001
 21
1.0
 31
0.0
 73
     1
 44
1.0
  0
POINT
  5
9A02
330
7DF7
100
AcDbEntity
  8
Defpoints
 62
     0
100
AcDbPoint
 10
210.9550989604613
 20
241.3798380113849
 30
0.0
  0
POINT
  5
9A03
330
7DF7
100
AcDbEntity
  8
Defpoints
 62
     0
100
AcDbPoint
 10
210.9550989604622
 20
361.3798380113947
 30
0.0
  0
POINT
  5
9A04
330
7DF7
100
AcDbEntity
  8
Defpoints
 62
     0
100
AcDbPoint
 10
204.95509896046
 20
361.3798380113947
 30
0.0
  0
ENDBLK
  5
7E02
330
7DF7
100
AcDbEntity
  8
0
100
AcDbBlockEnd
  0
BLOCK
  5
7E0D
330
7E03
100
AcDbEntity
  8
0
100
AcDbBlockBegin
  2
*D11
 70
     1
 10
0.0
 20
0.0
 30
0.0
  3
*D11
  1

  0
LINE
  5
99F3
330
7E03
100
AcDbEntity
  8
sunpo
 62
     3
370
     9
100
AcDbLine
 10
460.4493123026172
 20
321.3798380114006
 30
0.0
 11
462.4493123026172
 21
321.3798380114006
 31
0.0
  0
LINE
  5
99F4
330
7E03
100
AcDbEntity
  8
sunpo
 62
     3
370
     9
100
AcDbLine
 10
460.4493123026172
 20
326.3798380114006
 30
0.0
 11
462.4493123026172
 21
326.3798380114006
 31
0.0
  0
LINE
  5
99F5
330
7E03
100
AcDbEntity
  8
sunpo
 62
     3
370
     9
100
AcDbLine
 10
464.4493123026173
 20
321.3798380114006
 30
0.0
 11
464.4493123026173
 21
326.3798380114006
 31
0.0
  0
MTEXT
  5
99F6
330
7E03
100
AcDbEntity
  8
sunpo
 62
     2
100
AcDbMText
 10
459.6202552691557
 20
333.4115230073341
 30
0.0
 40
6.0
 41
0.0
 71
     5
 72
     1
  1
50
  7
Std
 11
0.0000000000000001
 21
1.0
 31
0.0
 73
     1
 44
1.0
  0
INSERT
  5
99F7
330
7E03
100
AcDbEntity
  8
sunpo
 62
     3
370
     9
100
AcDbBlockReference
  2
_DotSmall
 10
464.4493123026173
 20
321.3798380114006
 30
0.0
 41
6.0
 42
6.0
 43
6.0
 50
270.0
  0
INSERT
  5
99F8
330
7E03
100
AcDbEntity
  8
sunpo
 62
     3
370
     9
100
AcDbBlockReference
  2
_DotSmall
 10
464.4493123026173
 20
326.3798380114006
 30
0.0
 41
6.0
 42
6.0
 43
6.0
 50
90.0
  0
POINT
  5
99F9
330
7E03
100
AcDbEntity
  8
Defpoints
 62
     0
100
AcDbPoint
 10
464.4493123026173
 20
321.3798380114006
 30
0.0
  0
POINT
  5
99FA
330
7E03
100
AcDbEntity
  8
Defpoints
 62
     0
100
AcDbPoint
 10
464.4493123026173
 20
326.3798380114006
 30
0.0
  0
POINT
  5
99FB
330
7E03
100
AcDbEntity
  8
Defpoints
 62
     0
100
AcDbPoint
 10
464.4493123026173
 20
326.3798380114006
 30
0.0
  0
ENDBLK
  5
7E0E
330
7E03
100
AcDbEntity
  8
0
100
AcDbBlockEnd
  0
BLOCK
  5
7E19
330
7E0F
100
AcDbEntity
  8
0
100
AcDbBlockBegin
  2
*D12
 70
     1
 10
0.0
 20
0.0
 30
0.0
  3
*D12
  1

  0
LINE
  5
99EA
330
7E0F
100
AcDbEntity
  8
sunpo
 62
     3
370
     9
100
AcDbLine
 10
479.9993123026165
 20
306.3798380114038
 30
0.0
 11
462.4493123026172
 21
306.3798380114038
 31
0.0
  0
LINE
  5
99EB
330
7E0F
100
AcDbEntity
  8
sunpo
 62
     3
370
     9
100
AcDbLine
 10
479.9993123026165
 20
281.3798380114036
 30
0.0
 11
462.4493123026172
 21
281.3798380114036
 31
0.0
  0
LINE
  5
99EC
330
7E0F
100
AcDbEntity
  8
sunpo
 62
     3
370
     9
100
AcDbLine
 10
464.4493123026173
 20
306.3798380114038
 30
0.0
 11
464.4493123026173
 21
281.3798380114036
 31
0.0
  0
INSERT
  5
99ED
330
7E0F
100
AcDbEntity
  8
sunpo
 62
     3
370
     9
100
AcDbBlockReference
  2
_DotSmall
 10
464.4493123026173
 20
306.3798380114038
 30
0.0
 41
6.0
 42
6.0
 43
6.0
 50
90.0
  0
INSERT
  5
99EE
330
7E0F
100
AcDbEntity
  8
sunpo
 62
     3
370
     9
100
AcDbBlockReference
  2
_DotSmall
 10
464.4493123026173
 20
281.3798380114036
 30
0.0
 41
6.0
 42
6.0
 43
6.0
 50
270.0
  0
MTEXT
  5
99EF
330
7E0F
100
AcDbEntity
  8
sunpo
 62
     2
100
AcDbMText
 10
460.4493123026172
 20
293.8798380114038
 30
0.0
 40
6.0
 41
0.0
 71
     5
 72
     1
  1
250
  7
Std
 11
0.0000000000000001
 21
1.0
 31
0.0
 73
     1
 44
1.0
  0
POINT
  5
99F0
330
7E0F
100
AcDbEntity
  8
Defpoints
 62
     0
100
AcDbPoint
 10
483.9993123026165
 20
306.3798380114038
 30
0.0
  0
POINT
  5
99F1
330
7E0F
100
AcDbEntity
  8
Defpoints
 62
     0
100
AcDbPoint
 10
483.9993123026165
 20
281.3798380114036
 30
0.0
  0
POINT
  5
99F2
330
7E0F
100
AcDbEntity
  8
Defpoints
 62
     0
100
AcDbPoint
 10
464.4493123026173
 20
281.3798380114036
 30
0.0
  0
ENDBLK
  5
7E1A
330
7E0F
100
AcDbEntity
  8
0
100
AcDbBlockEnd
  0
BLOCK
  5
7E25
330
7E1B
100
AcDbEntity
  8
0
100
AcDbBlockBegin
  2
*D13
 70
     1
 10
0.0
 20
0.0
 30
0.0
  3
*D13
  1

  0
LINE
  5
99E1
330
7E1B
100
AcDbEntity
  8
sunpo
 62
     3
370
     9
100
AcDbLine
 10
460.4493123026172
 20
306.379838011402
 30
0.0
 11
462.4493123026172
 21
306.379838011402
 31
0.0
  0
LINE
  5
99E2
330
7E1B
100
AcDbEntity
  8
sunpo
 62
     3
370
     9
100
AcDbLine
 10
479.9993123026165
 20
321.3798380114038
 30
0.0
 11
462.4493123026172
 21
321.3798380114038
 31
0.0
  0
LINE
  5
99E3
330
7E1B
100
AcDbEntity
  8
sunpo
 62
     3
370
     9
100
AcDbLine
 10
464.4493123026173
 20
306.379838011402
 30
0.0
 11
464.4493123026173
 21
321.3798380114038
 31
0.0
  0
INSERT
  5
99E4
330
7E1B
100
AcDbEntity
  8
sunpo
 62
     3
370
     9
100
AcDbBlockReference
  2
_DotSmall
 10
464.4493123026173
 20
306.379838011402
 30
0.0
 41
6.0
 42
6.0
 43
6.0
 50
270.0
  0
INSERT
  5
99E5
330
7E1B
100
AcDbEntity
  8
sunpo
 62
     3
370
     9
100
AcDbBlockReference
  2
_DotSmall
 10
464.4493123026173
 20
321.3798380114038
 30
0.0
 41
6.0
 42
6.0
 43
6.0
 50
90.0
  0
MTEXT
  5
99E6
330
7E1B
100
AcDbEntity
  8
sunpo
 62
     2
100
AcDbMText
 10
460.4493123026172
 20
313.879838011403
 30
0.0
 40
6.0
 41
0.0
 71
     5
 72
     1
  1
150
  7
Std
 11
0.0000000000000001
 21
1.0
 31
0.0
 73
     1
 44
1.0
  0
POINT
  5
99E7
330
7E1B
100
AcDbEntity
  8
Defpoints
 62
     0
100
AcDbPoint
 10
464.4493123026173
 20
306.379838011402
 30
0.0
  0
POINT
  5
99E8
330
7E1B
100
AcDbEntity
  8
Defpoints
 62
     0
100
AcDbPoint
 10
483.9993123026165
 20
321.3798380114038
 30
0.0
  0
POINT
  5
99E9
330
7E1B
100
AcDbEntity
  8
Defpoints
 62
     0
100
AcDbPoint
 10
464.4493123026173
 20
321.3798380114038
 30
0.0
  0
ENDBLK
  5
7E26
330
7E1B
100
AcDbEntity
  8
0
100
AcDbBlockEnd
  0
BLOCK
  5
7E31
330
7E27
100
AcDbEntity
  8
0
100
AcDbBlockBegin
  2
*D14
 70
     1
 10
0.0
 20
0.0
 30
0.0
  3
*D14
  1

  0
LINE
  5
99D8
330
7E27
100
AcDbEntity
  8
sunpo
 62
     3
370
     9
100
AcDbLine
 10
206.95509896046
 20
361.3798380113947
 30
0.0
 11
202.95509896046
 21
361.3798380113947
 31
0.0
  0
LINE
  5
99D9
330
7E27
100
AcDbEntity
  8
sunpo
 62
     3
370
     9
100
AcDbLine
 10
206.9128883005374
 20
391.3798380113947
 30
0.0
 11
202.95509896046
 21
391.3798380113947
 31
0.0
  0
LINE
  5
99DA
330
7E27
100
AcDbEntity
  8
sunpo
 62
     3
370
     9
100
AcDbLine
 10
204.95509896046
 20
361.3798380113947
 30
0.0
 11
204.95509896046
 21
391.3798380113947
 31
0.0
  0
INSERT
  5
99DB
330
7E27
100
AcDbEntity
  8
sunpo
 62
     3
370
     9
100
AcDbBlockReference
  2
_DotSmall
 10
204.95509896046
 20
361.3798380113947
 30
0.0
 41
6.0
 42
6.0
 43
6.0
 50
270.0
  0
INSERT
  5
99DC
330
7E27
100
AcDbEntity
  8
sunpo
 62
     3
370
     9
100
AcDbBlockReference
  2
_DotSmall
 10
204.95509896046
 20
391.3798380113947
 30
0.0
 41
6.0
 42
6.0
 43
6.0
 50
90.0
  0
MTEXT
  5
99DD
330
7E27
100
AcDbEntity
  8
sunpo
 62
     2
100
AcDbMText
 10
200.9550989604599
 20
376.3798380113947
 30
0.0
 40
6.0
 41
0.0
 71
     5
 72
     1
  1
300
  7
Std
 11
0.0000000000000001
 21
1.0
 31
0.0
 73
     1
 44
1.0
  0
POINT
  5
99DE
330
7E27
100
AcDbEntity
  8
Defpoints
 62
     0
100
AcDbPoint
 10
210.95509896046
 20
361.3798380113947
 30
0.0
  0
POINT
  5
99DF
330
7E27
100
AcDbEntity
  8
Defpoints
 62
     0
100
AcDbPoint
 10
210.9128883005374
 20
391.3798380113947
 30
0.0
  0
POINT
  5
99E0
330
7E27
100
AcDbEntity
  8
Defpoints
 62
     0
100
AcDbPoint
 10
204.95509896046
 20
391.3798380113947
 30
0.0
  0
ENDBLK
  5
7E32
330
7E27
100
AcDbEntity
  8
0
100
AcDbBlockEnd
  0
BLOCK
  5
7E3D
330
7E33
100
AcDbEntity
  8
0
100
AcDbBlockBegin
  2
*D15
 70
     1
 10
0.0
 20
0.0
 30
0.0
  3
*D15
  1

  0
LINE
  5
99CF
330
7E33
100
AcDbEntity
  8
sunpo
 62
     3
370
     9
100
AcDbLine
 10
492.9493123026168
 20
326.3798380114035
 30
0.0
 11
512.449312302616
 21
326.3798380114035
 31
0.0
  0
LINE
  5
99D0
330
7E33
100
AcDbEntity
  8
sunpo
 62
     3
370
     9
100
AcDbLine
 10
492.9493123026141
 20
276.3798380114038
 30
0.0
 11
512.449312302616
 21
276.3798380114038
 31
0.0
  0
LINE
  5
99D1
330
7E33
100
AcDbEntity
  8
sunpo
 62
     3
370
     9
100
AcDbLine
 10
510.4493123026158
 20
326.3798380114035
 30
0.0
 11
510.4493123026158
 21
276.3798380114038
 31
0.0
  0
INSERT
  5
99D2
330
7E33
100
AcDbEntity
  8
sunpo
 62
     3
370
     9
100
AcDbBlockReference
  2
_DotSmall
 10
510.4493123026158
 20
326.3798380114035
 30
0.0
 41
6.0
 42
6.0
 43
6.0
 50
90.0
  0
INSERT
  5
99D3
330
7E33
100
AcDbEntity
  8
sunpo
 62
     3
370
     9
100
AcDbBlockReference
  2
_DotSmall
 10
510.4493123026158
 20
276.3798380114038
 30
0.0
 41
6.0
 42
6.0
 43
6.0
 50
270.0
  0
MTEXT
  5
99D4
330
7E33
100
AcDbEntity
  8
sunpo
 62
     2
100
AcDbMText
 10
506.4493123026158
 20
301.3798380114037
 30
0.0
 40
6.0
 41
0.0
 71
     5
 72
     1
  1
500
  7
Std
 11
0.0000000000000001
 21
1.0
 31
0.0
 73
     1
 44
1.0
  0
POINT
  5
99D5
330
7E33
100
AcDbEntity
  8
Defpoints
 62
     0
100
AcDbPoint
 10
488.9493123026168
 20
326.3798380114035
 30
0.0
  0
POINT
  5
99D6
330
7E33
100
AcDbEntity
  8
Defpoints
 62
     0
100
AcDbPoint
 10
488.9493123026141
 20
276.3798380114038
 30
0.0
  0
POINT
  5
99D7
330
7E33
100
AcDbEntity
  8
Defpoints
 62
     0
100
AcDbPoint
 10
510.4493123026158
 20
276.3798380114038
 30
0.0
  0
ENDBLK
  5
7E3E
330
7E33
100
AcDbEntity
  8
0
100
AcDbBlockEnd
  0
BLOCK
  5
7E49
330
7E3F
100
AcDbEntity
  8
0
100
AcDbBlockBegin
  2
*D16
 70
     1
 10
0.0
 20
0.0
 30
0.0
  3
*D16
  1

  0
LINE
  5
99C6
330
7E3F
100
AcDbEntity
  8
sunpo
 62
     3
370
     9
100
AcDbLine
 10
544.4494521604747
 20
391.3800915193815
 30
0.0
 11
544.4494521604747
 21
415.101915176604
 31
0.0
  0
LINE
  5
99C7
330
7E3F
100
AcDbEntity
  8
sunpo
 62
     3
370
     9
100
AcDbLine
 10
184.4494521604747
 20
391.380091519379
 30
0.0
 11
184.4494521604747
 21
415.101915176604
 31
0.0
  0
LINE
  5
99C8
330
7E3F
100
AcDbEntity
  8
sunpo
 62
     3
370
     9
100
AcDbLine
 10
544.4494521604747
 20
413.101915176604
 30
0.0
 11
184.4494521604747
 21
413.101915176604
 31
0.0
  0
INSERT
  5
99C9
330
7E3F
100
AcDbEntity
  8
sunpo
 62
     3
370
     9
100
AcDbBlockReference
  2
_DotSmall
 10
544.4494521604747
 20
413.101915176604
 30
0.0
 41
6.0
 42
6.0
 43
6.0
  0
INSERT
  5
99CA
330
7E3F
100
AcDbEntity
  8
sunpo
 62
     3
370
     9
100
AcDbBlockReference
  2
_DotSmall
 10
184.4494521604747
 20
413.101915176604
 30
0.0
 41
6.0
 42
6.0
 43
6.0
 50
180.0
  0
MTEXT
  5
99CB
330
7E3F
100
AcDbEntity
  8
sunpo
 62
     2
100
AcDbMText
 10
364.4494521604747
 20
417.101915176604
 30
0.0
 40
6.0
 41
0.0
 71
     5
 72
     1
  1
W
  7
Std
 73
     1
 44
1.0
  0
POINT
  5
99CC
330
7E3F
100
AcDbEntity
  8
Defpoints
 62
     0
100
AcDbPoint
 10
544.4494521604747
 20
387.3800915193815
 30
0.0
  0
POINT
  5
99CD
330
7E3F
100
AcDbEntity
  8
Defpoints
 62
     0
100
AcDbPoint
 10
184.4494521604747
 20
387.380091519379
 30
0.0
  0
POINT
  5
99CE
330
7E3F
100
AcDbEntity
  8
Defpoints
 62
     0
100
AcDbPoint
 10
184.4494521604747
 20
413.101915176604
 30
0.0
  0
ENDBLK
  5
7E4A
330
7E3F
100
AcDbEntity
  8
0
100
AcDbBlockEnd
  0
BLOCK
  5
8565
330
855B
100
AcDbEntity
  8
0
100
AcDbBlockBegin
  2
*D17
 70
     1
 10
0.0
 20
0.0
 30
0.0
  3
*D17
  1

  0
LINE
  5
9B07
330
855B
100
AcDbEntity
  8
sunpo
 62
     3
370
     9
100
AcDbLine
 10
1015.551104952029
 20
707.3227731108497
 30
0.0
 11
1015.551104952029
 21
692.3675862372781
 31
0.0
  0
LINE
  5
9B08
330
855B
100
AcDbEntity
  8
sunpo
 62
     3
370
     9
100
AcDbLine
 10
1057.551104947831
 20
697.3388703920152
 30
0.0
 11
1057.551104947831
 21
692.3675862372781
 31
0.0
  0
LINE
  5
9B09
330
855B
100
AcDbEntity
  8
sunpo
 62
     3
370
     9
100
AcDbLine
 10
1015.551104952029
 20
694.3675862372781
 30
0.0
 11
1057.551104947831
 21
694.3675862372781
 31
0.0
  0
INSERT
  5
9B0A
330
855B
100
AcDbEntity
  8
sunpo
 62
     3
370
     9
100
AcDbBlockReference
  2
_DotSmall
 10
1015.551104952029
 20
694.3675862372781
 30
0.0
 41
6.0
 42
6.0
 43
6.0
 50
180.0
  0
INSERT
  5
9B0B
330
855B
100
AcDbEntity
  8
sunpo
 62
     3
370
     9
100
AcDbBlockReference
  2
_DotSmall
 10
1057.551104947831
 20
694.3675862372781
 30
0.0
 41
6.0
 42
6.0
 43
6.0
  0
MTEXT
  5
9B0C
330
855B
100
AcDbEntity
  8
sunpo
 62
     2
100
AcDbMText
 10
1036.55110494993
 20
698.5675862372781
 30
0.0
 40
6.0
 41
0.0
 71
     5
 72
     1
  1
42
  7
Std
 73
     1
 44
1.0
  0
POINT
  5
9B0D
330
855B
100
AcDbEntity
  8
Defpoints
 62
     0
100
AcDbPoint
 10
1015.551104952029
 20
711.3227731108497
 30
0.0
  0
POINT
  5
9B0E
330
855B
100
AcDbEntity
  8
Defpoints
 62
     0
100
AcDbPoint
 10
1057.551104947831
 20
701.3388703920152
 30
0.0
  0
POINT
  5
9B0F
330
855B
100
AcDbEntity
  8
Defpoints
 62
     0
100
AcDbPoint
 10
1057.551104947831
 20
694.3675862372781
 30
0.0
  0
ENDBLK
  5
8566
330
855B
100
AcDbEntity
  8
0
100
AcDbBlockEnd
  0
BLOCK
  5
8571
330
8567
100
AcDbEntity
  8
0
100
AcDbBlockBegin
  2
*D18
 70
     1
 10
0.0
 20
0.0
 30
0.0
  3
*D18
  1

  0
LINE
  5
9AFE
330
8567
100
AcDbEntity
  8
sunpo
 62
     3
370
     9
100
AcDbLine
 10
905.5511049778811
 20
667.7922179998165
 30
0.0
 11
905.5511049778811
 21
649.2545543178582
 31
0.0
  0
LINE
  5
9AFF
330
8567
100
AcDbEntity
  8
sunpo
 62
     3
370
     9
100
AcDbLine
 10
935.5511049509745
 20
655.2545543178582
 30
0.0
 11
935.5511049509745
 21
653.2545543178582
 31
0.0
  0
LINE
  5
9B00
330
8567
100
AcDbEntity
  8
sunpo
 62
     3
370
     9
100
AcDbLine
 10
905.5511049778811
 20
651.2545543178582
 30
0.0
 11
935.5511049509745
 21
651.2545543178582
 31
0.0
  0
INSERT
  5
9B01
330
8567
100
AcDbEntity
  8
sunpo
 62
     3
370
     9
100
AcDbBlockReference
  2
_DotSmall
 10
905.5511049778811
 20
651.2545543178582
 30
0.0
 41
6.0
 42
6.0
 43
6.0
 50
180.0
  0
INSERT
  5
9B02
330
8567
100
AcDbEntity
  8
sunpo
 62
     3
370
     9
100
AcDbBlockReference
  2
_DotSmall
 10
935.5511049509745
 20
651.2545543178582
 30
0.0
 41
6.0
 42
6.0
 43
6.0
  0
MTEXT
  5
9B03
330
8567
100
AcDbEntity
  8
sunpo
 62
     2
100
AcDbMText
 10
920.5511049644279
 20
655.4545543178583
 30
0.0
 40
6.0
 41
0.0
 71
     5
 72
     1
  1
30
  7
Std
 73
     1
 44
1.0
  0
POINT
  5
9B04
330
8567
100
AcDbEntity
  8
Defpoints
 62
     0
100
AcDbPoint
 10
905.5511049778811
 20
671.7922179998165
 30
0.0
  0
POINT
  5
9B05
330
8567
100
AcDbEntity
  8
Defpoints
 62
     0
100
AcDbPoint
 10
935.5511049509745
 20
651.2545543178582
 30
0.0
  0
POINT
  5
9B06
330
8567
100
AcDbEntity
  8
Defpoints
 62
     0
100
AcDbPoint
 10
935.5511049509745
 20
651.2545543178582
 30
0.0
  0
ENDBLK
  5
8572
330
8567
100
AcDbEntity
  8
0
100
AcDbBlockEnd
  0
BLOCK
  5
857D
330
8573
100
AcDbEntity
  8
0
100
AcDbBlockBegin
  2
*D19
 70
     1
 10
0.0
 20
0.0
 30
0.0
  3
*D19
  1

  0
LINE
  5
9B10
330
8573
100
AcDbEntity
  8
sunpo
 62
     3
370
     9
100
AcDbLine
 10
935.5511049535648
 20
707.3227731083486
 30
0.0
 11
935.5511049535648
 21
692.3675862372781
 31
0.0
  0
LINE
  5
9B11
330
8573
100
AcDbEntity
  8
sunpo
 62
     3
370
     9
100
AcDbLine
 10
1015.551104952029
 20
707.3227731108497
 30
0.0
 11
1015.551104952029
 21
692.3675862372781
 31
0.0
  0
LINE
  5
9B12
330
8573
100
AcDbEntity
  8
sunpo
 62
     3
370
     9
100
AcDbLine
 10
935.5511049535648
 20
694.3675862372781
 30
0.0
 11
1015.551104952029
 21
694.3675862372781
 31
0.0
  0
INSERT
  5
9B13
330
8573
100
AcDbEntity
  8
sunpo
 62
     3
370
     9
100
AcDbBlockReference
  2
_DotSmall
 10
935.5511049535648
 20
694.3675862372781
 30
0.0
 41
6.0
 42
6.0
 43
6.0
 50
180.0
  0
INSERT
  5
9B14
330
8573
100
AcDbEntity
  8
sunpo
 62
     3
370
     9
100
AcDbBlockReference
  2
_DotSmall
 10
1015.551104952029
 20
694.3675862372781
 30
0.0
 41
6.0
 42
6.0
 43
6.0
  0
MTEXT
  5
9B15
330
8573
100
AcDbEntity
  8
sunpo
 62
     2
100
AcDbMText
 10
975.5511049527973
 20
698.5675862372781
 30
0.0
 40
6.0
 41
0.0
 71
     5
 72
     1
  1
80
  7
Std
 73
     1
 44
1.0
  0
POINT
  5
9B16
330
8573
100
AcDbEntity
  8
Defpoints
 62
     0
100
AcDbPoint
 10
935.5511049535648
 20
711.3227731083486
 30
0.0
  0
POINT
  5
9B17
330
8573
100
AcDbEntity
  8
Defpoints
 62
     0
100
AcDbPoint
 10
1015.551104952029
 20
711.3227731108497
 30
0.0
  0
POINT
  5
9B18
330
8573
100
AcDbEntity
  8
Defpoints
 62
     0
100
AcDbPoint
 10
1015.551104952029
 20
694.3675862372781
 30
0.0
  0
ENDBLK
  5
857E
330
8573
100
AcDbEntity
  8
0
100
AcDbBlockEnd
  0
BLOCK
  5
8589
330
857F
100
AcDbEntity
  8
0
100
AcDbBlockBegin
  2
*D20
 70
     1
 10
0.0
 20
0.0
 30
0.0
  3
*D20
  1

  0
LINE
  5
9B99
330
857F
100
AcDbEntity
  8
sunpo
 62
     3
370
     9
100
AcDbLine
 10
935.5511049509745
 20
652.2545543178583
 30
0.0
 11
935.5511049509745
 21
649.2545543178582
 31
0.0
  0
LINE
  5
9B9A
330
857F
100
AcDbEntity
  8
sunpo
 62
     3
370
     9
100
AcDbLine
 10
1057.551104947832
 20
588.194098663919
 30
0.0
 11
1057.551104947832
 21
653.2545543178582
 31
0.0
  0
LINE
  5
9B9B
330
857F
100
AcDbEntity
  8
sunpo
 62
     3
370
     9
100
AcDbLine
 10
935.5511049509745
 20
651.2545543178582
 30
0.0
 11
1057.551104947832
 21
651.2545543178582
 31
0.0
  0
MTEXT
  5
9B9C
330
857F
100
AcDbEntity
  8
sunpo
 62
     2
100
AcDbMText
 10
1006.038200224644
 20
655.8322550878947
 30
0.0
 40
6.0
 41
0.0
 71
     5
 72
     1
  1
122
  7
Std
 73
     1
 44
1.0
  0
INSERT
  5
9B9D
330
857F
100
AcDbEntity
  8
sunpo
 62
     3
370
     9
100
AcDbBlockReference
  2
_DotSmall
 10
935.5511049509745
 20
651.2545543178582
 30
0.0
 41
6.0
 42
6.0
 43
6.0
 50
180.0
  0
INSERT
  5
9B9E
330
857F
100
AcDbEntity
  8
sunpo
 62
     3
370
     9
100
AcDbBlockReference
  2
_DotSmall
 10
1057.551104947832
 20
651.2545543178582
 30
0.0
 41
6.0
 42
6.0
 43
6.0
  0
POINT
  5
9B9F
330
857F
100
AcDbEntity
  8
Defpoints
 62
     0
100
AcDbPoint
 10
935.5511049509745
 20
656.2545543178583
 30
0.0
  0
POINT
  5
9BA0
330
857F
100
AcDbEntity
  8
Defpoints
 62
     0
100
AcDbPoint
 10
1057.551104947832
 20
584.194098663919
 30
0.0
  0
POINT
  5
9BA1
330
857F
100
AcDbEntity
  8
Defpoints
 62
     0
100
AcDbPoint
 10
1057.551104947832
 20
651.2545543178582
 30
0.0
  0
ENDBLK
  5
858A
330
857F
100
AcDbEntity
  8
0
100
AcDbBlockEnd
  0
BLOCK
  5
8595
330
858B
100
AcDbEntity
  8
0
100
AcDbBlockBegin
  2
*D21
 70
     1
 10
0.0
 20
0.0
 30
0.0
  3
*D21
  1

  0
LINE
  5
9B35
330
858B
100
AcDbEntity
  8
sunpo
 62
     3
370
     9
100
AcDbLine
 10
1107.417070196558
 20
534.1940986739189
 30
0.0
 11
1109.417070196536
 21
534.1940986739189
 31
0.0
  0
LINE
  5
9B36
330
858B
100
AcDbEntity
  8
sunpo
 62
     3
370
     9
100
AcDbLine
 10
1107.417070196536
 20
468.7395532364377
 30
0.0
 11
1109.417070196535
 21
468.7395532364377
 31
0.0
  0
LINE
  5
9B37
330
858B
100
AcDbEntity
  8
sunpo
 62
     3
370
     9
100
AcDbLine
 10
1111.417070196536
 20
534.1940986739189
 30
0.0
 11
1111.417070196535
 21
468.7395532364377
 31
0.0
  0
INSERT
  5
9B38
330
858B
100
AcDbEntity
  8
sunpo
 62
     3
370
     9
100
AcDbBlockReference
  2
_DotSmall
 10
1111.417070196536
 20
534.1940986739189
 30
0.0
 41
6.0
 42
6.0
 43
6.0
 50
90.0
  0
INSERT
  5
9B39
330
858B
100
AcDbEntity
  8
sunpo
 62
     3
370
     9
100
AcDbBlockReference
  2
_DotSmall
 10
1111.417070196535
 20
468.7395532364377
 30
0.0
 41
6.0
 42
6.0
 43
6.0
 50
270.0
  0
MTEXT
  5
9B3A
330
858B
100
AcDbEntity
  8
sunpo
 62
     2
100
AcDbMText
 10
1107.217070196535
 20
501.4668259551785
 30
0.0
 40
6.0
 41
0.0
 71
     5
 72
     1
  1
150
  7
Std
 11
0.0000000000000001
 21
1.0
 31
0.0
 73
     1
 44
1.0
  0
POINT
  5
9B3B
330
858B
100
AcDbEntity
  8
Defpoints
 62
     0
100
AcDbPoint
 10
1111.417070196558
 20
534.1940986739189
 30
0.0
  0
POINT
  5
9B3C
330
858B
100
AcDbEntity
  8
Defpoints
 62
     0
100
AcDbPoint
 10
1111.417070196536
 20
468.7395532364377
 30
0.0
  0
POINT
  5
9B3D
330
858B
100
AcDbEntity
  8
Defpoints
 62
     0
100
AcDbPoint
 10
1111.417070196535
 20
468.7395532364377
 30
0.0
  0
ENDBLK
  5
8596
330
858B
100
AcDbEntity
  8
0
100
AcDbBlockEnd
  0
BLOCK
  5
85A1
330
8597
100
AcDbEntity
  8
0
100
AcDbBlockBegin
  2
*D22
 70
     1
 10
0.0
 20
0.0
 30
0.0
  3
*D22
  1

  0
LINE
  5
9B47
330
8597
100
AcDbEntity
  8
sunpo
 62
     3
370
     9
100
AcDbLine
 10
1107.417070196535
 20
403.2850077989194
 30
0.0
 11
1109.417070196535
 21
403.2850077989194
 31
0.0
  0
LINE
  5
9B48
330
8597
100
AcDbEntity
  8
sunpo
 62
     3
370
     9
100
AcDbLine
 10
1061.551104947857
 20
353.2850077989185
 30
0.0
 11
1113.417070196535
 21
353.2850077989185
 31
0.0
  0
LINE
  5
9B49
330
8597
100
AcDbEntity
  8
sunpo
 62
     3
370
     9
100
AcDbLine
 10
1111.417070196535
 20
403.2850077989194
 30
0.0
 11
1111.417070196535
 21
353.2850077989185
 31
0.0
  0
INSERT
  5
9B4A
330
8597
100
AcDbEntity
  8
sunpo
 62
     3
370
     9
100
AcDbBlockReference
  2
_DotSmall
 10
1111.417070196535
 20
403.2850077989194
 30
0.0
 41
6.0
 42
6.0
 43
6.0
 50
90.0
  0
INSERT
  5
9B4B
330
8597
100
AcDbEntity
  8
sunpo
 62
     3
370
     9
100
AcDbBlockReference
  2
_DotSmall
 10
1111.417070196535
 20
353.2850077989185
 30
0.0
 41
6.0
 42
6.0
 43
6.0
 50
270.0
  0
MTEXT
  5
9B4C
330
8597
100
AcDbEntity
  8
sunpo
 62
     2
100
AcDbMText
 10
1107.217070196535
 20
378.2850077989191
 30
0.0
 40
6.0
 41
0.0
 71
     5
 72
     1
  1
50
  7
Std
 11
0.0000000000000001
 21
1.0
 31
0.0
 73
     1
 44
1.0
  0
POINT
  5
9B4D
330
8597
100
AcDbEntity
  8
Defpoints
 62
     0
100
AcDbPoint
 10
1111.417070196535
 20
403.2850077989194
 30
0.0
  0
POINT
  5
9B4E
330
8597
100
AcDbEntity
  8
Defpoints
 62
     0
100
AcDbPoint
 10
1057.551104947857
 20
353.2850077989185
 30
0.0
  0
POINT
  5
9B4F
330
8597
100
AcDbEntity
  8
Defpoints
 62
     0
100
AcDbPoint
 10
1111.417070196535
 20
353.2850077989185
 30
0.0
  0
ENDBLK
  5
85A2
330
8597
100
AcDbEntity
  8
0
100
AcDbBlockEnd
  0
BLOCK
  5
85AD
330
85A3
100
AcDbEntity
  8
0
100
AcDbBlockBegin
  2
*D23
 70
     1
 10
0.0
 20
0.0
 30
0.0
  3
*D23
  1

  0
LINE
  5
9B3E
330
85A3
100
AcDbEntity
  8
sunpo
 62
     3
370
     9
100
AcDbLine
 10
1107.417070196536
 20
468.7395532364377
 30
0.0
 11
1109.417070196535
 21
468.7395532364377
 31
0.0
  0
LINE
  5
9B3F
330
85A3
100
AcDbEntity
  8
sunpo
 62
     3
370
     9
100
AcDbLine
 10
1107.417070196535
 20
403.2850077989194
 30
0.0
 11
1109.417070196535
 21
403.2850077989194
 31
0.0
  0
LINE
  5
9B40
330
85A3
100
AcDbEntity
  8
sunpo
 62
     3
370
     9
100
AcDbLine
 10
1111.417070196535
 20
468.7395532364377
 30
0.0
 11
1111.417070196535
 21
403.2850077989194
 31
0.0
  0
INSERT
  5
9B41
330
85A3
100
AcDbEntity
  8
sunpo
 62
     3
370
     9
100
AcDbBlockReference
  2
_DotSmall
 10
1111.417070196535
 20
468.7395532364377
 30
0.0
 41
6.0
 42
6.0
 43
6.0
 50
90.0
  0
INSERT
  5
9B42
330
85A3
100
AcDbEntity
  8
sunpo
 62
     3
370
     9
100
AcDbBlockReference
  2
_DotSmall
 10
1111.417070196535
 20
403.2850077989194
 30
0.0
 41
6.0
 42
6.0
 43
6.0
 50
270.0
  0
MTEXT
  5
9B43
330
85A3
100
AcDbEntity
  8
sunpo
 62
     2
100
AcDbMText
 10
1107.217070196535
 20
436.0122805176787
 30
0.0
 40
6.0
 41
0.0
 71
     5
 72
     1
  1
250
  7
Std
 11
0.0000000000000001
 21
1.0
 31
0.0
 73
     1
 44
1.0
  0
POINT
  5
9B44
330
85A3
100
AcDbEntity
  8
Defpoints
 62
     0
100
AcDbPoint
 10
1111.417070196536
 20
468.7395532364377
 30
0.0
  0
POINT
  5
9B45
330
85A3
100
AcDbEntity
  8
Defpoints
 62
     0
100
AcDbPoint
 10
1111.417070196535
 20
403.2850077989194
 30
0.0
  0
POINT
  5
9B46
330
85A3
100
AcDbEntity
  8
Defpoints
 62
     0
100
AcDbPoint
 10
1111.417070196535
 20
403.2850077989194
 30
0.0
  0
ENDBLK
  5
85AE
330
85A3
100
AcDbEntity
  8
0
100
AcDbBlockEnd
  0
BLOCK
  5
85B9
330
85AF
100
AcDbEntity
  8
0
100
AcDbBlockBegin
  2
*D24
 70
     1
 10
0.0
 20
0.0
 30
0.0
  3
*D24
  1

  0
LINE
  5
9B59
330
85AF
100
AcDbEntity
  8
sunpo
 62
     3
370
     9
100
AcDbLine
 10
935.551104959473
 20
291.8334778804617
 30
0.0
 11
935.551104959473
 21
315.7709778804617
 31
0.0
  0
LINE
  5
9B5A
330
85AF
100
AcDbEntity
  8
sunpo
 62
     3
370
     9
100
AcDbLine
 10
1057.551104947832
 20
349.2850077989185
 30
0.0
 11
1057.551104947832
 21
311.7709778804617
 31
0.0
  0
LINE
  5
9B5B
330
85AF
100
AcDbEntity
  8
sunpo
 62
     3
370
     9
100
AcDbLine
 10
935.551104959473
 20
313.7709778804617
 30
0.0
 11
1057.551104947832
 21
313.7709778804617
 31
0.0
  0
MTEXT
  5
9B5C
330
85AF
100
AcDbEntity
  8
sunpo
 62
     2
100
AcDbMText
 10
1007.030434416811
 20
319.0407985142047
 30
0.0
 40
6.0
 41
0.0
 71
     5
 72
     1
  1
122
  7
Std
 73
     1
 44
1.0
  0
INSERT
  5
9B5D
330
85AF
100
AcDbEntity
  8
sunpo
 62
     3
370
     9
100
AcDbBlockReference
  2
_DotSmall
 10
935.551104959473
 20
313.7709778804617
 30
0.0
 41
6.0
 42
6.0
 43
6.0
 50
180.0
  0
INSERT
  5
9B5E
330
85AF
100
AcDbEntity
  8
sunpo
 62
     3
370
     9
100
AcDbBlockReference
  2
_DotSmall
 10
1057.551104947832
 20
313.7709778804617
 30
0.0
 41
6.0
 42
6.0
 43
6.0
  0
POINT
  5
9B5F
330
85AF
100
AcDbEntity
  8
Defpoints
 62
     0
100
AcDbPoint
 10
935.551104959473
 20
287.8334778804617
 30
0.0
  0
POINT
  5
9B60
330
85AF
100
AcDbEntity
  8
Defpoints
 62
     0
100
AcDbPoint
 10
1057.551104947832
 20
353.2850077989185
 30
0.0
  0
POINT
  5
9B61
330
85AF
100
AcDbEntity
  8
Defpoints
 62
     0
100
AcDbPoint
 10
1057.551104947832
 20
313.7709778804617
 30
0.0
  0
ENDBLK
  5
85BA
330
85AF
100
AcDbEntity
  8
0
100
AcDbBlockEnd
  0
BLOCK
  5
85C5
330
85BB
100
AcDbEntity
  8
0
100
AcDbBlockBegin
  2
*D25
 70
     1
 10
0.0
 20
0.0
 30
0.0
  3
*D25
  1

  0
LINE
  5
9B62
330
85BB
100
AcDbEntity
  8
sunpo
 62
     3
370
     9
100
AcDbLine
 10
942.5511049593355
 20
381.8884773318512
 30
0.0
 11
942.5511049593355
 21
383.4074136938868
 31
0.0
  0
LINE
  5
9B63
330
85BB
100
AcDbEntity
  8
sunpo
 62
     3
370
     9
100
AcDbLine
 10
1057.551104947831
 20
381.8884773318512
 30
0.0
 11
1057.551104947831
 21
383.4074136938868
 31
0.0
  0
LINE
  5
9B64
330
85BB
100
AcDbEntity
  8
sunpo
 62
     3
370
     9
100
AcDbLine
 10
942.5511049593355
 20
381.4074136938868
 30
0.0
 11
1057.551104947831
 21
381.4074136938868
 31
0.0
  0
INSERT
  5
9B65
330
85BB
100
AcDbEntity
  8
sunpo
 62
     3
370
     9
100
AcDbBlockReference
  2
_DotSmall
 10
942.5511049593355
 20
381.4074136938868
 30
0.0
 41
6.0
 42
6.0
 43
6.0
 50
180.0
  0
INSERT
  5
9B66
330
85BB
100
AcDbEntity
  8
sunpo
 62
     3
370
     9
100
AcDbBlockReference
  2
_DotSmall
 10
1057.551104947831
 20
381.4074136938868
 30
0.0
 41
6.0
 42
6.0
 43
6.0
  0
MTEXT
  5
9B67
330
85BB
100
AcDbEntity
  8
sunpo
 62
     2
100
AcDbMText
 10
1000.051104953583
 20
385.6074136938868
 30
0.0
 40
6.0
 41
0.0
 71
     5
 72
     1
  1
115
  7
Std
 73
     1
 44
1.0
  0
POINT
  5
9B68
330
85BB
100
AcDbEntity
  8
Defpoints
 62
     0
100
AcDbPoint
 10
942.5511049593355
 20
377.8884773318512
 30
0.0
  0
POINT
  5
9B69
330
85BB
100
AcDbEntity
  8
Defpoints
 62
     0
100
AcDbPoint
 10
1057.551104947831
 20
377.8884773318512
 30
0.0
  0
POINT
  5
9B6A
330
85BB
100
AcDbEntity
  8
Defpoints
 62
     0
100
AcDbPoint
 10
1057.551104947831
 20
381.4074136938868
 30
0.0
  0
ENDBLK
  5
85C6
330
85BB
100
AcDbEntity
  8
0
100
AcDbBlockEnd
  0
BLOCK
  5
85D1
330
85C7
100
AcDbEntity
  8
0
100
AcDbBlockBegin
  2
*D26
 70
     1
 10
0.0
 20
0.0
 30
0.0
  3
*D26
  1

  0
LINE
  5
9B74
330
85C7
100
AcDbEntity
  8
sunpo
 62
     3
370
     9
100
AcDbLine
 10
820.5511049600367
 20
248.3859551845224
 30
0.0
 11
820.5511049600367
 21
290.7709778804617
 31
0.0
  0
LINE
  5
9B75
330
85C7
100
AcDbEntity
  8
sunpo
 62
     3
370
     9
100
AcDbLine
 10
905.5511049596411
 20
248.3859551855828
 30
0.0
 11
905.5511049596411
 21
290.7709778804617
 31
0.0
  0
LINE
  5
9B76
330
85C7
100
AcDbEntity
  8
sunpo
 62
     3
370
     9
100
AcDbLine
 10
820.5511049600367
 20
288.7709778804617
 30
0.0
 11
905.5511049596411
 21
288.7709778804617
 31
0.0
  0
INSERT
  5
9B77
330
85C7
100
AcDbEntity
  8
sunpo
 62
     3
370
     9
100
AcDbBlockReference
  2
_DotSmall
 10
820.5511049600367
 20
288.7709778804617
 30
0.0
 41
6.0
 42
6.0
 43
6.0
 50
180.0
  0
INSERT
  5
9B78
330
85C7
100
AcDbEntity
  8
sunpo
 62
     3
370
     9
100
AcDbBlockReference
  2
_DotSmall
 10
905.5511049596411
 20
288.7709778804617
 30
0.0
 41
6.0
 42
6.0
 43
6.0
  0
MTEXT
  5
9B79
330
85C7
100
AcDbEntity
  8
sunpo
 62
     2
100
AcDbMText
 10
863.0511049598389
 20
292.9709778804617
 30
0.0
 40
6.0
 41
0.0
 71
     5
 72
     1
  1
85
  7
Std
 73
     1
 44
1.0
  0
POINT
  5
9B7A
330
85C7
100
AcDbEntity
  8
Defpoints
 62
     0
100
AcDbPoint
 10
820.5511049600367
 20
244.3859551845223
 30
0.0
  0
POINT
  5
9B7B
330
85C7
100
AcDbEntity
  8
Defpoints
 62
     0
100
AcDbPoint
 10
905.5511049596411
 20
244.3859551855828
 30
0.0
  0
POINT
  5
9B7C
330
85C7
100
AcDbEntity
  8
Defpoints
 62
     0
100
AcDbPoint
 10
905.5511049596411
 20
288.7709778804617
 30
0.0
  0
ENDBLK
  5
85D2
330
85C7
100
AcDbEntity
  8
0
100
AcDbBlockEnd
  0
BLOCK
  5
85DD
330
85D3
100
AcDbEntity
  8
0
100
AcDbBlockBegin
  2
*D27
 70
     1
 10
0.0
 20
0.0
 30
0.0
  3
*D27
  1

  0
LINE
  5
9B6B
330
85D3
100
AcDbEntity
  8
sunpo
 62
     3
370
     9
100
AcDbLine
 10
905.5511049596411
 20
248.3859551855828
 30
0.0
 11
905.5511049596411
 21
290.7709778804617
 31
0.0
  0
LINE
  5
9B6C
330
85D3
100
AcDbEntity
  8
sunpo
 62
     3
370
     9
100
AcDbLine
 10
935.551104959473
 20
292.7709778804617
 30
0.0
 11
935.551104959473
 21
290.7709778804617
 31
0.0
  0
LINE
  5
9B6D
330
85D3
100
AcDbEntity
  8
sunpo
 62
     3
370
     9
100
AcDbLine
 10
905.5511049596411
 20
288.7709778804617
 30
0.0
 11
935.551104959473
 21
288.7709778804617
 31
0.0
  0
INSERT
  5
9B6E
330
85D3
100
AcDbEntity
  8
sunpo
 62
     3
370
     9
100
AcDbBlockReference
  2
_DotSmall
 10
905.5511049596411
 20
288.7709778804617
 30
0.0
 41
6.0
 42
6.0
 43
6.0
 50
180.0
  0
INSERT
  5
9B6F
330
85D3
100
AcDbEntity
  8
sunpo
 62
     3
370
     9
100
AcDbBlockReference
  2
_DotSmall
 10
935.551104959473
 20
288.7709778804617
 30
0.0
 41
6.0
 42
6.0
 43
6.0
  0
MTEXT
  5
9B70
330
85D3
100
AcDbEntity
  8
sunpo
 62
     2
100
AcDbMText
 10
920.5511049595569
 20
292.9709778804617
 30
0.0
 40
6.0
 41
0.0
 71
     5
 72
     1
  1
30
  7
Std
 73
     1
 44
1.0
  0
POINT
  5
9B71
330
85D3
100
AcDbEntity
  8
Defpoints
 62
     0
100
AcDbPoint
 10
905.5511049596411
 20
244.3859551855828
 30
0.0
  0
POINT
  5
9B72
330
85D3
100
AcDbEntity
  8
Defpoints
 62
     0
100
AcDbPoint
 10
935.551104959473
 20
288.7709778804617
 30
0.0
  0
POINT
  5
9B73
330
85D3
100
AcDbEntity
  8
Defpoints
 62
     0
100
AcDbPoint
 10
935.551104959473
 20
288.7709778804617
 30
0.0
  0
ENDBLK
  5
85DE
330
85D3
100
AcDbEntity
  8
0
100
AcDbBlockEnd
  0
BLOCK
  5
85E9
330
85DF
100
AcDbEntity
  8
0
100
AcDbBlockBegin
  2
*D28
 70
     1
 10
0.0
 20
0.0
 30
0.0
  3
*D28
  1

  0
LINE
  5
9B7D
330
85DF
100
AcDbEntity
  8
sunpo
 62
     3
370
     9
100
AcDbLine
 10
820.5511049600367
 20
248.3859551845224
 30
0.0
 11
820.5511049600367
 21
315.7709778804617
 31
0.0
  0
LINE
  5
9B7E
330
85DF
100
AcDbEntity
  8
sunpo
 62
     3
370
     9
100
AcDbLine
 10
935.551104959473
 20
291.8334778804617
 30
0.0
 11
935.551104959473
 21
315.7709778804617
 31
0.0
  0
LINE
  5
9B7F
330
85DF
100
AcDbEntity
  8
sunpo
 62
     3
370
     9
100
AcDbLine
 10
820.5511049600367
 20
313.7709778804617
 30
0.0
 11
935.551104959473
 21
313.7709778804617
 31
0.0
  0
INSERT
  5
9B80
330
85DF
100
AcDbEntity
  8
sunpo
 62
     3
370
     9
100
AcDbBlockReference
  2
_DotSmall
 10
820.5511049600367
 20
313.7709778804617
 30
0.0
 41
6.0
 42
6.0
 43
6.0
 50
180.0
  0
INSERT
  5
9B81
330
85DF
100
AcDbEntity
  8
sunpo
 62
     3
370
     9
100
AcDbBlockReference
  2
_DotSmall
 10
935.551104959473
 20
313.7709778804617
 30
0.0
 41
6.0
 42
6.0
 43
6.0
  0
MTEXT
  5
9B82
330
85DF
100
AcDbEntity
  8
sunpo
 62
     2
100
AcDbMText
 10
878.0511049597548
 20
317.9709778804617
 30
0.0
 40
6.0
 41
0.0
 71
     5
 72
     1
  1
115
  7
Std
 73
     1
 44
1.0
  0
POINT
  5
9B83
330
85DF
100
AcDbEntity
  8
Defpoints
 62
     0
100
AcDbPoint
 10
820.5511049600367
 20
244.3859551845223
 30
0.0
  0
POINT
  5
9B84
330
85DF
100
AcDbEntity
  8
Defpoints
 62
     0
100
AcDbPoint
 10
935.551104959473
 20
287.8334778804617
 30
0.0
  0
POINT
  5
9B85
330
85DF
100
AcDbEntity
  8
Defpoints
 62
     0
100
AcDbPoint
 10
935.551104959473
 20
313.7709778804617
 30
0.0
  0
ENDBLK
  5
85EA
330
85DF
100
AcDbEntity
  8
0
100
AcDbBlockEnd
  0
BLOCK
  5
85F4
330
85EB
100
AcDbEntity
  8
0
100
AcDbBlockBegin
  2
*D29
 70
     1
 10
0.0
 20
0.0
 30
0.0
  3
*D29
  1

  0
LINE
  5
9BDC
330
85EB
100
AcDbEntity
  8
sunpo
 62
     3
370
     9
100
AcDbLine
 10
1061.551104947857
 20
353.2850077989185
 30
0.0
 11
1142.125330420605
 21
353.2850077989185
 31
0.0
  0
LINE
  5
9BDD
330
85EB
100
AcDbEntity
  8
sunpo
 62
     3
370
     9
100
AcDbLine
 10
1140.125330420605
 20
353.2850077989185
 30
0.0
 11
1140.125330420605
 21
106.5000000049997
 31
0.0
  0
INSERT
  5
9BDE
330
85EB
100
AcDbEntity
  8
sunpo
 62
     3
370
     9
100
AcDbBlockReference
  2
_DotSmall
 10
1140.125330420605
 20
353.2850077989185
 30
0.0
 41
6.0
 42
6.0
 43
6.0
 50
90.0
  0
MTEXT
  5
9BDF
330
85EB
100
AcDbEntity
  8
sunpo
 62
     2
100
AcDbMText
 10
1135.925330420605
 20
229.8925039019593
 30
0.0
 40
6.0
 41
0.0
 71
     5
 72
     1
  1
ＦＬ＋1150
  7
Std
 11
0.0000000000000001
 21
1.0
 31
0.0
 73
     1
 44
1.0
  0
POINT
  5
9BE0
330
85EB
100
AcDbEntity
  8
Defpoints
 62
     0
100
AcDbPoint
 10
1057.551104947857
 20
353.2850077989185
 30
0.0
  0
POINT
  5
9BE1
330
85EB
100
AcDbEntity
  8
Defpoints
 62
     0
100
AcDbPoint
 10
1121.915104293033
 20
106.5000000049997
 30
0.0
  0
POINT
  5
9BE2
330
85EB
100
AcDbEntity
  8
Defpoints
 62
     0
100
AcDbPoint
 10
1140.125330420605
 20
106.5000000049997
 30
0.0
  0
ENDBLK
  5
85F5
330
85EB
100
AcDbEntity
  8
0
100
AcDbBlockEnd
  0
BLOCK
  5
8600
330
85F6
100
AcDbEntity
  8
0
100
AcDbBlockBegin
  2
*D30
 70
     1
 10
0.0
 20
0.0
 30
0.0
  3
*D30
  1

  0
LINE
  5
9B23
330
85F6
100
AcDbEntity
  8
sunpo
 62
     3
370
     9
100
AcDbLine
 10
1061.551104947857
 20
584.194098673918
 30
0.0
 11
1113.417070196535
 21
584.194098673918
 31
0.0
  0
LINE
  5
9B24
330
85F6
100
AcDbEntity
  8
sunpo
 62
     3
370
     9
100
AcDbLine
 10
1107.417070196558
 20
534.1940986739189
 30
0.0
 11
1109.417070196535
 21
534.1940986739189
 31
0.0
  0
LINE
  5
9B25
330
85F6
100
AcDbEntity
  8
sunpo
 62
     3
370
     9
100
AcDbLine
 10
1111.417070196535
 20
584.194098673918
 30
0.0
 11
1111.417070196535
 21
534.1940986739189
 31
0.0
  0
INSERT
  5
9B26
330
85F6
100
AcDbEntity
  8
sunpo
 62
     3
370
     9
100
AcDbBlockReference
  2
_DotSmall
 10
1111.417070196535
 20
584.194098673918
 30
0.0
 41
6.0
 42
6.0
 43
6.0
 50
90.0
  0
INSERT
  5
9B27
330
85F6
100
AcDbEntity
  8
sunpo
 62
     3
370
     9
100
AcDbBlockReference
  2
_DotSmall
 10
1111.417070196535
 20
534.1940986739189
 30
0.0
 41
6.0
 42
6.0
 43
6.0
 50
270.0
  0
MTEXT
  5
9B28
330
85F6
100
AcDbEntity
  8
sunpo
 62
     2
100
AcDbMText
 10
1107.217070196535
 20
559.1940986739185
 30
0.0
 40
6.0
 41
0.0
 71
     5
 72
     1
  1
50
  7
Std
 11
0.0000000000000001
 21
1.0
 31
0.0
 73
     1
 44
1.0
  0
POINT
  5
9B29
330
85F6
100
AcDbEntity
  8
Defpoints
 62
     0
100
AcDbPoint
 10
1057.551104947857
 20
584.194098673918
 30
0.0
  0
POINT
  5
9B2A
330
85F6
100
AcDbEntity
  8
Defpoints
 62
     0
100
AcDbPoint
 10
1111.417070196558
 20
534.1940986739189
 30
0.0
  0
POINT
  5
9B2B
330
85F6
100
AcDbEntity
  8
Defpoints
 62
     0
100
AcDbPoint
 10
1111.417070196535
 20
534.1940986739189
 30
0.0
  0
ENDBLK
  5
8601
330
85F6
100
AcDbEntity
  8
0
100
AcDbBlockEnd
  0
BLOCK
  5
860C
330
8602
100
AcDbEntity
  8
0
100
AcDbBlockBegin
  2
*D31
 70
     1
 10
0.0
 20
0.0
 30
0.0
  3
*D31
  1

  0
LINE
  5
9B2C
330
8602
100
AcDbEntity
  8
sunpo
 62
     3
370
     9
100
AcDbLine
 10
1061.551104947857
 20
584.194098673918
 30
0.0
 11
1142.125330420605
 21
584.194098673918
 31
0.0
  0
LINE
  5
9B2D
330
8602
100
AcDbEntity
  8
sunpo
 62
     3
370
     9
100
AcDbLine
 10
1061.551104947831
 20
353.2850077989185
 30
0.0
 11
1142.125330420605
 21
353.2850077989185
 31
0.0
  0
LINE
  5
9B2E
330
8602
100
AcDbEntity
  8
sunpo
 62
     3
370
     9
100
AcDbLine
 10
1140.125330420605
 20
584.194098673918
 30
0.0
 11
1140.125330420605
 21
353.2850077989185
 31
0.0
  0
INSERT
  5
9B2F
330
8602
100
AcDbEntity
  8
sunpo
 62
     3
370
     9
100
AcDbBlockReference
  2
_DotSmall
 10
1140.125330420605
 20
584.194098673918
 30
0.0
 41
6.0
 42
6.0
 43
6.0
 50
90.0
  0
INSERT
  5
9B30
330
8602
100
AcDbEntity
  8
sunpo
 62
     3
370
     9
100
AcDbBlockReference
  2
_DotSmall
 10
1140.125330420605
 20
353.2850077989185
 30
0.0
 41
6.0
 42
6.0
 43
6.0
 50
270.0
  0
MTEXT
  5
9B31
330
8602
100
AcDbEntity
  8
sunpo
 62
     2
100
AcDbMText
 10
1135.925330420605
 20
468.7395532364184
 30
0.0
 40
6.0
 41
0.0
 71
     5
 72
     1
  1
H＝500 （UDスライダー装置外寸 H を示す）
  7
Std
 11
0.0000000000000001
 21
1.0
 31
0.0
 73
     1
 44
1.0
  0
POINT
  5
9B32
330
8602
100
AcDbEntity
  8
Defpoints
 62
     0
100
AcDbPoint
 10
1057.551104947857
 20
584.194098673918
 30
0.0
  0
POINT
  5
9B33
330
8602
100
AcDbEntity
  8
Defpoints
 62
     0
100
AcDbPoint
 10
1057.551104947831
 20
353.2850077989185
 30
0.0
  0
POINT
  5
9B34
330
8602
100
AcDbEntity
  8
Defpoints
 62
     0
100
AcDbPoint
 10
1140.125330420605
 20
353.2850077989185
 30
0.0
  0
ENDBLK
  5
860D
330
8602
100
AcDbEntity
  8
0
100
AcDbBlockEnd
  0
BLOCK
  5
8618
330
860E
100
AcDbEntity
  8
0
100
AcDbBlockBegin
  2
*D32
 70
     1
 10
0.0
 20
0.0
 30
0.0
  3
*D32
  1

  0
LINE
  5
9B86
330
860E
100
AcDbEntity
  8
sunpo
 62
     3
370
     9
100
AcDbLine
 10
720.6270944665761
 20
231.8859551845223
 30
0.0
 11
695.8806969477596
 21
231.8859551845224
 31
0.0
  0
LINE
  5
9B87
330
860E
100
AcDbEntity
  8
sunpo
 62
     3
370
     9
100
AcDbLine
 10
720.6270944665752
 20
211.8859551845223
 30
0.0
 11
695.8806969477596
 21
211.8859551845224
 31
0.0
  0
LINE
  5
9B88
330
860E
100
AcDbEntity
  8
sunpo
 62
     3
370
     9
100
AcDbLine
 10
697.8806969477595
 20
231.8859551845224
 30
0.0
 11
697.8806969477595
 21
211.8859551845224
 31
0.0
  0
INSERT
  5
9B89
330
860E
100
AcDbEntity
  8
sunpo
 62
     3
370
     9
100
AcDbBlockReference
  2
_DotSmall
 10
697.8806969477595
 20
231.8859551845224
 30
0.0
 41
6.0
 42
6.0
 43
6.0
 50
90.0
  0
INSERT
  5
9B8A
330
860E
100
AcDbEntity
  8
sunpo
 62
     3
370
     9
100
AcDbBlockReference
  2
_DotSmall
 10
697.8806969477595
 20
211.8859551845224
 30
0.0
 41
6.0
 42
6.0
 43
6.0
 50
270.0
  0
MTEXT
  5
9B8B
330
860E
100
AcDbEntity
  8
sunpo
 62
     2
100
AcDbMText
 10
693.6806969477595
 20
221.8859551845225
 30
0.0
 40
6.0
 41
0.0
 71
     5
 72
     1
  1
20
  7
Std
 11
0.0000000000000001
 21
1.0
 31
0.0
 73
     1
 44
1.0
  0
POINT
  5
9B8C
330
860E
100
AcDbEntity
  8
Defpoints
 62
     0
100
AcDbPoint
 10
724.6270944665761
 20
231.8859551845223
 30
0.0
  0
POINT
  5
9B8D
330
860E
100
AcDbEntity
  8
Defpoints
 62
     0
100
AcDbPoint
 10
724.6270944665752
 20
211.8859551845223
 30
0.0
  0
POINT
  5
9B8E
330
860E
100
AcDbEntity
  8
Defpoints
 62
     0
100
AcDbPoint
 10
697.8806969477595
 20
211.8859551845224
 30
0.0
  0
ENDBLK
  5
8619
330
860E
100
AcDbEntity
  8
0
100
AcDbBlockEnd
  0
BLOCK
  5
862F
330
8625
100
AcDbEntity
  8
0
100
AcDbBlockBegin
  2
*D33
 70
     1
 10
0.0
 20
0.0
 30
0.0
  3
*D33
  1

  0
LINE
  5
9AEC
330
8625
100
AcDbEntity
  8
sunpo
 62
     3
370
     9
100
AcDbLine
 10
753.2395594930171
 20
736.3227731083496
 30
0.0
 11
680.8806969477597
 21
736.3227731083496
 31
0.0
  0
LINE
  5
9AED
330
8625
100
AcDbEntity
  8
sunpo
 62
     3
370
     9
100
AcDbLine
 10
720.6270944665752
 20
211.8859551845223
 30
0.0
 11
680.8806969477595
 21
211.8859551845224
 31
0.0
  0
LINE
  5
9AEE
330
8625
100
AcDbEntity
  8
sunpo
 62
     3
370
     9
100
AcDbLine
 10
682.8806969477597
 20
736.3227731083496
 30
0.0
 11
682.8806969477596
 21
211.8859551845224
 31
0.0
  0
INSERT
  5
9AEF
330
8625
100
AcDbEntity
  8
sunpo
 62
     3
370
     9
100
AcDbBlockReference
  2
_DotSmall
 10
682.8806969477597
 20
736.3227731083496
 30
0.0
 41
6.0
 42
6.0
 43
6.0
 50
90.0
  0
INSERT
  5
9AF0
330
8625
100
AcDbEntity
  8
sunpo
 62
     3
370
     9
100
AcDbBlockReference
  2
_DotSmall
 10
682.8806969477596
 20
211.8859551845224
 30
0.0
 41
6.0
 42
6.0
 43
6.0
 50
270.0
  0
MTEXT
  5
9AF1
330
8625
100
AcDbEntity
  8
sunpo
 62
     2
100
AcDbMText
 10
678.6806969477595
 20
474.104364146436
 30
0.0
 40
6.0
 41
0.0
 71
     5
 72
     1
  1
H
  7
Std
 11
0.0000000000000001
 21
1.0
 31
0.0
 73
     1
 44
1.0
  0
POINT
  5
9AF2
330
8625
100
AcDbEntity
  8
Defpoints
 62
     0
100
AcDbPoint
 10
757.2395594930172
 20
736.3227731083496
 30
0.0
  0
POINT
  5
9AF3
330
8625
100
AcDbEntity
  8
Defpoints
 62
     0
100
AcDbPoint
 10
724.6270944665752
 20
211.8859551845223
 30
0.0
  0
POINT
  5
9AF4
330
8625
100
AcDbEntity
  8
Defpoints
 62
     0
100
AcDbPoint
 10
682.8806969477596
 20
211.8859551845224
 30
0.0
  0
ENDBLK
  5
8630
330
8625
100
AcDbEntity
  8
0
100
AcDbBlockEnd
  0
BLOCK
  5
863B
330
8631
100
AcDbEntity
  8
0
100
AcDbBlockBegin
  2
*D34
 70
     1
 10
0.0
 20
0.0
 30
0.0
  3
*D34
  1

  0
LINE
  5
9AF5
330
8631
100
AcDbEntity
  8
sunpo
 62
     3
370
     9
100
AcDbLine
 10
753.2395594930163
 20
705.3227731083495
 30
0.0
 11
698.4931619742014
 21
705.3227731083495
 31
0.0
  0
LINE
  5
9AF6
330
8631
100
AcDbEntity
  8
sunpo
 62
     3
370
     9
100
AcDbLine
 10
753.2395594930163
 20
736.3227731083496
 30
0.0
 11
698.4931619742014
 21
736.3227731083496
 31
0.0
  0
LINE
  5
9AF7
330
8631
100
AcDbEntity
  8
sunpo
 62
     3
370
     9
100
AcDbLine
 10
700.4931619742015
 20
705.3227731083495
 30
0.0
 11
700.4931619742015
 21
736.3227731083496
 31
0.0
  0
INSERT
  5
9AF8
330
8631
100
AcDbEntity
  8
sunpo
 62
     3
370
     9
100
AcDbBlockReference
  2
_DotSmall
 10
700.4931619742015
 20
705.3227731083495
 30
0.0
 41
6.0
 42
6.0
 43
6.0
 50
270.0
  0
INSERT
  5
9AF9
330
8631
100
AcDbEntity
  8
sunpo
 62
     3
370
     9
100
AcDbBlockReference
  2
_DotSmall
 10
700.4931619742015
 20
736.3227731083496
 30
0.0
 41
6.0
 42
6.0
 43
6.0
 50
90.0
  0
MTEXT
  5
9AFA
330
8631
100
AcDbEntity
  8
sunpo
 62
     2
100
AcDbMText
 10
696.2931619742013
 20
720.8227731083496
 30
0.0
 40
6.0
 41
0.0
 71
     5
 72
     1
  1
31
  7
Std
 11
0.0000000000000001
 21
1.0
 31
0.0
 73
     1
 44
1.0
  0
POINT
  5
9AFB
330
8631
100
AcDbEntity
  8
Defpoints
 62
     0
100
AcDbPoint
 10
757.2395594930163
 20
705.3227731083495
 30
0.0
  0
POINT
  5
9AFC
330
8631
100
AcDbEntity
  8
Defpoints
 62
     0
100
AcDbPoint
 10
757.2395594930163
 20
736.3227731083496
 30
0.0
  0
POINT
  5
9AFD
330
8631
100
AcDbEntity
  8
Defpoints
 62
     0
100
AcDbPoint
 10
700.4931619742015
 20
736.3227731083496
 30
0.0
  0
ENDBLK
  5
863C
330
8631
100
AcDbEntity
  8
0
100
AcDbBlockEnd
  0
BLOCK
  5
9608
330
95FD
100
AcDbEntity
  8
0
100
AcDbBlockBegin
  2
*D35
 70
     1
 10
0.0
 20
0.0
 30
0.0
  3
*D35
  1

  0
LINE
  5
9999
330
95FD
100
AcDbEntity
  8
sunpo
 62
     3
370
     9
100
AcDbLine
 10
487.9494521605631
 20
626.7135532127572
 30
0.0
 11
487.9494521605631
 21
595.0342263168447
 31
0.0
  0
LINE
  5
999A
330
95FD
100
AcDbEntity
  8
sunpo
 62
     3
370
     9
100
AcDbLine
 10
484.449452160566
 20
626.7135532127572
 30
0.0
 11
484.449452160566
 21
595.0342263168447
 31
0.0
  0
LINE
  5
999B
330
95FD
100
AcDbEntity
  8
sunpo
 62
     3
370
     9
100
AcDbLine
 10
487.9494521605631
 20
597.0342263168447
 30
0.0
 11
484.449452160566
 21
597.0342263168447
 31
0.0
  0
MTEXT
  5
999C
330
95FD
100
AcDbEntity
  8
sunpo
 62
     2
100
AcDbMText
 10
494.6022202222938
 20
596.9654142986223
 30
0.0
 40
6.0
 41
0.0
 71
     5
 72
     1
  1
35
  7
Std
 73
     1
 44
1.0
  0
INSERT
  5
999D
330
95FD
100
AcDbEntity
  8
sunpo
 62
     3
370
     9
100
AcDbBlockReference
  2
_DotSmall
 10
487.9494521605631
 20
597.0342263168447
 30
0.0
 41
6.0
 42
6.0
 43
6.0
  0
INSERT
  5
999E
330
95FD
100
AcDbEntity
  8
sunpo
 62
     3
370
     9
100
AcDbBlockReference
  2
_DotSmall
 10
484.449452160566
 20
597.0342263168447
 30
0.0
 41
6.0
 42
6.0
 43
6.0
 50
180.0
  0
POINT
  5
999F
330
95FD
100
AcDbEntity
  8
Defpoints
 62
     0
100
AcDbPoint
 10
487.9494521605631
 20
630.7135532127572
 30
0.0
  0
POINT
  5
99A0
330
95FD
100
AcDbEntity
  8
Defpoints
 62
     0
100
AcDbPoint
 10
484.449452160566
 20
630.7135532127572
 30
0.0
  0
POINT
  5
99A1
330
95FD
100
AcDbEntity
  8
Defpoints
 62
     0
100
AcDbPoint
 10
484.449452160566
 20
597.0342263168447
 30
0.0
  0
ENDBLK
  5
9609
330
95FD
100
AcDbEntity
  8
0
100
AcDbBlockEnd
  0
BLOCK
  5
9614
330
960A
100
AcDbEntity
  8
0
100
AcDbBlockBegin
  2
*D36
 70
     1
 10
0.0
 20
0.0
 30
0.0
  3
*D36
  1

  0
LINE
  5
99A2
330
960A
100
AcDbEntity
  8
sunpo
 62
     3
370
     9
100
AcDbLine
 10
184.449452160471
 20
626.7135532127572
 30
0.0
 11
184.449452160471
 21
579.5249465410477
 31
0.0
  0
LINE
  5
99A3
330
960A
100
AcDbEntity
  8
sunpo
 62
     3
370
     9
100
AcDbLine
 10
544.44945218602
 20
626.7135532127572
 30
0.0
 11
544.44945218602
 21
579.5249465410477
 31
0.0
  0
LINE
  5
99A4
330
960A
100
AcDbEntity
  8
sunpo
 62
     3
370
     9
100
AcDbLine
 10
184.449452160471
 20
581.5249465410476
 30
0.0
 11
544.44945218602
 21
581.5249465410476
 31
0.0
  0
INSERT
  5
99A5
330
960A
100
AcDbEntity
  8
sunpo
 62
     3
370
     9
100
AcDbBlockReference
  2
_DotSmall
 10
184.449452160471
 20
581.5249465410476
 30
0.0
 41
6.0
 42
6.0
 43
6.0
 50
180.0
  0
INSERT
  5
99A6
330
960A
100
AcDbEntity
  8
sunpo
 62
     3
370
     9
100
AcDbBlockReference
  2
_DotSmall
 10
544.44945218602
 20
581.5249465410476
 30
0.0
 41
6.0
 42
6.0
 43
6.0
  0
MTEXT
  5
99A7
330
960A
100
AcDbEntity
  8
sunpo
 62
     2
100
AcDbMText
 10
364.4494521732456
 20
585.5249465410476
 30
0.0
 40
6.0
 41
0.0
 71
     5
 72
     1
  1
W
  7
Std
 73
     1
 44
1.0
  0
POINT
  5
99A8
330
960A
100
AcDbEntity
  8
Defpoints
 62
     0
100
AcDbPoint
 10
184.449452160471
 20
630.7135532127572
 30
0.0
  0
POINT
  5
99A9
330
960A
100
AcDbEntity
  8
Defpoints
 62
     0
100
AcDbPoint
 10
544.44945218602
 20
630.7135532127572
 30
0.0
  0
POINT
  5
99AA
330
960A
100
AcDbEntity
  8
Defpoints
 62
     0
100
AcDbPoint
 10
544.44945218602
 20
581.5249465410476
 30
0.0
  0
ENDBLK
  5
9615
330
960A
100
AcDbEntity
  8
0
100
AcDbBlockEnd
  0
BLOCK
  5
9620
330
9616
100
AcDbEntity
  8
0
100
AcDbBlockBegin
  2
*D37
 70
     1
 10
0.0
 20
0.0
 30
0.0
  3
*D37
  1

  0
LINE
  5
99AB
330
9616
100
AcDbEntity
  8
sunpo
 62
     3
370
     9
100
AcDbLine
 10
244.4494521605671
 20
626.7135532127572
 30
0.0
 11
244.4494521605671
 21
595.0342263168447
 31
0.0
  0
LINE
  5
99AC
330
9616
100
AcDbEntity
  8
sunpo
 62
     3
370
     9
100
AcDbLine
 10
484.4494521605666
 20
626.7135532127572
 30
0.0
 11
484.4494521605666
 21
595.0342263168447
 31
0.0
  0
LINE
  5
99AD
330
9616
100
AcDbEntity
  8
sunpo
 62
     3
370
     9
100
AcDbLine
 10
244.4494521605671
 20
597.0342263168447
 30
0.0
 11
484.4494521605666
 21
597.0342263168447
 31
0.0
  0
INSERT
  5
99AE
330
9616
100
AcDbEntity
  8
sunpo
 62
     3
370
     9
100
AcDbBlockReference
  2
_DotSmall
 10
244.4494521605671
 20
597.0342263168447
 30
0.0
 41
6.0
 42
6.0
 43
6.0
 50
180.0
  0
INSERT
  5
99AF
330
9616
100
AcDbEntity
  8
sunpo
 62
     3
370
     9
100
AcDbBlockReference
  2
_DotSmall
 10
484.4494521605666
 20
597.0342263168447
 30
0.0
 41
6.0
 42
6.0
 43
6.0
  0
MTEXT
  5
99B0
330
9616
100
AcDbEntity
  8
sunpo
 62
     2
100
AcDbMText
 10
364.4494521605669
 20
601.6056548882732
 30
0.0
 40
6.0
 41
0.0
 71
     5
 72
     1
  1
UDスライダー装置W＝2,400
  7
Std
 73
     1
 44
1.0
  0
POINT
  5
99B1
330
9616
100
AcDbEntity
  8
Defpoints
 62
     0
100
AcDbPoint
 10
244.4494521605671
 20
630.7135532127572
 30
0.0
  0
POINT
  5
99B2
330
9616
100
AcDbEntity
  8
Defpoints
 62
     0
100
AcDbPoint
 10
484.4494521605666
 20
630.7135532127572
 30
0.0
  0
POINT
  5
99B3
330
9616
100
AcDbEntity
  8
Defpoints
 62
     0
100
AcDbPoint
 10
484.4494521605666
 20
597.0342263168447
 30
0.0
  0
ENDBLK
  5
9621
330
9616
100
AcDbEntity
  8
0
100
AcDbBlockEnd
  0
BLOCK
  5
962D
330
9622
100
AcDbEntity
  8
0
100
AcDbBlockBegin
  2
*D38
 70
     1
 10
0.0
 20
0.0
 30
0.0
  3
*D38
  1

  0
LINE
  5
99B4
330
9622
100
AcDbEntity
  8
sunpo
 62
     3
370
     9
100
AcDbLine
 10
240.94945216057
 20
626.7135532127572
 30
0.0
 11
240.94945216057
 21
595.0342263168447
 31
0.0
  0
LINE
  5
99B5
330
9622
100
AcDbEntity
  8
sunpo
 62
     3
370
     9
100
AcDbLine
 10
244.4494521605671
 20
626.7135532127572
 30
0.0
 11
244.4494521605671
 21
595.0342263168447
 31
0.0
  0
LINE
  5
99B6
330
9622
100
AcDbEntity
  8
sunpo
 62
     3
370
     9
100
AcDbLine
 10
240.94945216057
 20
597.0342263168447
 30
0.0
 11
244.4494521605671
 21
597.0342263168447
 31
0.0
  0
MTEXT
  5
99B7
330
9622
100
AcDbEntity
  8
sunpo
 62
     2
100
AcDbMText
 10
234.2966840988392
 20
596.9654142986223
 30
0.0
 40
6.0
 41
0.0
 71
     5
 72
     1
  1
35
  7
Std
 73
     1
 44
1.0
  0
INSERT
  5
99B8
330
9622
100
AcDbEntity
  8
sunpo
 62
     3
370
     9
100
AcDbBlockReference
  2
_DotSmall
 10
240.94945216057
 20
597.0342263168447
 30
0.0
 41
6.0
 42
6.0
 43
6.0
 50
180.0
  0
INSERT
  5
99B9
330
9622
100
AcDbEntity
  8
sunpo
 62
     3
370
     9
100
AcDbBlockReference
  2
_DotSmall
 10
244.4494521605671
 20
597.0342263168447
 30
0.0
 41
6.0
 42
6.0
 43
6.0
  0
POINT
  5
99BA
330
9622
100
AcDbEntity
  8
Defpoints
 62
     0
100
AcDbPoint
 10
240.94945216057
 20
630.7135532127572
 30
0.0
  0
POINT
  5
99BB
330
9622
100
AcDbEntity
  8
Defpoints
 62
     0
100
AcDbPoint
 10
244.4494521605671
 20
630.7135532127572
 30
0.0
  0
POINT
  5
99BC
330
9622
100
AcDbEntity
  8
Defpoints
 62
     0
100
AcDbPoint
 10
244.4494521605671
 20
597.0342263168447
 30
0.0
  0
ENDBLK
  5
962E
330
9622
100
AcDbEntity
  8
0
100
AcDbBlockEnd
  0
BLOCK
  5
965F
330
9655
100
AcDbEntity
  8
0
100
AcDbBlockBegin
  2
*D39
 70
     1
 10
0.0
 20
0.0
 30
0.0
  3
*D39
  1

  0
LINE
  5
99BD
330
9655
100
AcDbEntity
  8
sunpo
 62
     3
370
     9
100
AcDbLine
 10
242.1994521605687
 20
675.6819643164712
 30
0.0
 11
242.1994521605687
 21
688.9123300736009
 31
0.0
  0
LINE
  5
99BE
330
9655
100
AcDbEntity
  8
sunpo
 62
     3
370
     9
100
AcDbLine
 10
486.6994521605666
 20
675.6819643164715
 30
0.0
 11
486.6994521605666
 21
688.9123300736009
 31
0.0
  0
LINE
  5
99BF
330
9655
100
AcDbEntity
  8
sunpo
 62
     3
370
     9
100
AcDbLine
 10
242.1994521605687
 20
686.9123300736009
 30
0.0
 11
486.6994521605666
 21
686.9123300736009
 31
0.0
  0
INSERT
  5
99C0
330
9655
100
AcDbEntity
  8
sunpo
 62
     3
370
     9
100
AcDbBlockReference
  2
_DotSmall
 10
242.1994521605687
 20
686.9123300736009
 30
0.0
 41
6.0
 42
6.0
 43
6.0
 50
180.0
  0
INSERT
  5
99C1
330
9655
100
AcDbEntity
  8
sunpo
 62
     3
370
     9
100
AcDbBlockReference
  2
_DotSmall
 10
486.6994521605666
 20
686.9123300736009
 30
0.0
 41
6.0
 42
6.0
 43
6.0
  0
MTEXT
  5
99C2
330
9655
100
AcDbEntity
  8
sunpo
 62
     2
100
AcDbMText
 10
364.4494521605677
 20
691.4837586450295
 30
0.0
 40
6.0
 41
0.0
 71
     5
 72
     1
  1
取付穴（補強芯）ピッチ＝2,445
  7
Std
 73
     1
 44
1.0
  0
POINT
  5
99C3
330
9655
100
AcDbEntity
  8
Defpoints
 62
     0
100
AcDbPoint
 10
242.1994521605687
 20
671.6819643164712
 30
0.0
  0
POINT
  5
99C4
330
9655
100
AcDbEntity
  8
Defpoints
 62
     0
100
AcDbPoint
 10
486.6994521605666
 20
671.6819643164715
 30
0.0
  0
POINT
  5
99C5
330
9655
100
AcDbEntity
  8
Defpoints
 62
     0
100
AcDbPoint
 10
486.6994521605666
 20
686.9123300736009
 30
0.0
  0
ENDBLK
  5
9660
330
9655
100
AcDbEntity
  8
0
100
AcDbBlockEnd
  0
BLOCK
  5
9BAD
330
9BA3
100
AcDbEntity
  8
0
100
AcDbBlockBegin
  2
*D40
 70
     1
 10
0.0
 20
0.0
 30
0.0
  3
*D40
  1

  0
LINE
  5
A393
330
9BA3
100
AcDbEntity
  8
sunpo
 62
     3
370
     9
100
AcDbLine
 10
720.6270944666007
 20
211.8859551845223
 30
0.0
 11
680.8806969477595
 21
211.8859551845224
 31
0.0
  0
LINE
  5
A394
330
9BA3
100
AcDbEntity
  8
sunpo
 62
     3
370
     9
100
AcDbLine
 10
682.8806969477596
 20
211.8859551845224
 30
0.0
 11
682.8806969477596
 21
106.4999999999993
 31
0.0
  0
INSERT
  5
A395
330
9BA3
100
AcDbEntity
  8
sunpo
 62
     3
370
     9
100
AcDbBlockReference
  2
_DotSmall
 10
682.8806969477596
 20
211.8859551845224
 30
0.0
 41
6.0
 42
6.0
 43
6.0
 50
90.0
  0
MTEXT
  5
A396
330
9BA3
100
AcDbEntity
  8
sunpo
 62
     2
100
AcDbMText
 10
678.6806969477595
 20
159.192977592261
 30
0.0
 40
6.0
 41
0.0
 71
     5
 72
     1
  1
FLﾏﾃﾞ800
  7
Std
 11
0.0000000000000001
 21
1.0
 31
0.0
 73
     1
 44
1.0
  0
POINT
  5
A397
330
9BA3
100
AcDbEntity
  8
Defpoints
 62
     0
100
AcDbPoint
 10
724.6270944666007
 20
211.8859551845223
 30
0.0
  0
POINT
  5
A398
330
9BA3
100
AcDbEntity
  8
Defpoints
 62
     0
100
AcDbPoint
 10
682.8806969477596
 20
106.4999999999993
 30
0.0
  0
POINT
  5
A399
330
9BA3
100
AcDbEntity
  8
Defpoints
 62
     0
100
AcDbPoint
 10
682.8806969477596
 20
106.4999999999993
 30
0.0
  0
ENDBLK
  5
9BAE
330
9BA3
100
AcDbEntity
  8
0
100
AcDbBlockEnd
  0
ENDSEC
  0
SECTION
  2
ENTITIES
  0
LWPOLYLINE
  5
CE
330
1F
100
AcDbEntity
  8
hojo
100
AcDbPolyline
 90
        4
 70
     1
 43
0.0
 10
0.0
 20
0.0
 10
1188.0
 20
0.0
 10
1188.0
 20
840.0
 10
0.0
 20
840.0
  0
MTEXT
  5
1C5F
330
1F
100
AcDbEntity
  8
wakumoji
100
AcDbMText
 10
998.5000000000004
 20
65.00000000000001
 30
0.0
 40
12.38095238095238
 41
196.0
 71
     5
 72
     5
  1
　　二葉工業株式会社
  7
gothic
 73
     1
 44
1.0
  0
SPLINE
  5
1C60
330
1F
100
AcDbEntity
  8
hojo
370
    -2
100
AcDbSpline
210
0.0
220
0.0
230
1.0
 70
    11
 71
     3
 72
    20
 73
    16
 74
     0
 42
0.0000000001
 43
0.0000000001
 40
0.0
 40
0.0
 40
0.0
 40
0.0
 40
1.0
 40
1.0
 40
1.0
 40
2.0
 40
2.0
 40
2.0
 40
3.0
 40
3.0
 40
3.0
 40
4.0
 40
4.0
 40
4.0
 40
5.0
 40
5.0
 40
5.0
 40
5.0
 10
928.831711476184
 20
58.87308069585124
 30
0.0
 10
928.831711476184
 20
58.87308069585124
 30
0.0
 10
928.2625324862284
 20
58.40110261425434
 30
0.0
 10
928.2625324862284
 20
58.40110261425434
 30
0.0
 10
928.2625324862284
 20
58.40110261425434
 30
0.0
 10
928.7532125147508
 20
57.80953050363897
 30
0.0
 10
928.7532125147508
 20
57.80953050363897
 30
0.0
 10
928.7532125147508
 20
57.80953050363897
 30
0.0
 10
929.3226375829549
 20
58.28175466348548
 30
0.0
 10
929.3226375829549
 20
58.28175466348548
 30
0.0
 10
929.5017825482327
 20
58.43063200413526
 30
0.0
 10
929.6137481515316
 20
58.66096124520628
 30
0.0
 10
929.4277129952815
 20
58.8851385300528
 30
0.0
 10
929.2229758921067
 20
59.13170893555871
 30
0.0
 10
928.9719760781185
 20
58.98947570763194
 30
0.0
 10
928.831711476184
 20
58.87308069585124
 30
0.0
  0
POLYLINE
  5
1C61
330
1F
100
AcDbEntity
  8
hojo
370
     0
100
AcDb2dPolyline
 66
     1
 10
0.0
 20
0.0
 30
0.0
 70
     1
  0
VERTEX
  5
1C62
330
1C61
100
AcDbEntity
  8
hojo
370
     0
100
AcDbVertex
100
AcDb2dVertex
 10
931.0309127875679
 20
61.32869554270147
 30
0.0
  0
VERTEX
  5
1C63
330
1C61
100
AcDbEntity
  8
hojo
370
     0
100
AcDbVertex
100
AcDb2dVertex
 10
931.3355576598391
 20
62.08587831489895
 30
0.0
  0
VERTEX
  5
1C64
330
1C61
100
AcDbEntity
  8
hojo
370
     0
100
AcDbVertex
100
AcDb2dVertex
 10
930.0072272716953
 20
62.18037236251802
 30
0.0
  0
SEQEND
  5
1C65
330
1C61
100
AcDbEntity
  8
hojo
370
     0
  0
POLYLINE
  5
1C66
330
1F
100
AcDbEntity
  8
hojo
370
    -2
100
AcDb2dPolyline
 66
     1
 10
0.0
 20
0.0
 30
0.0
 70
     1
  0
VERTEX
  5
1C67
330
1C66
100
AcDbEntity
  8
hojo
370
    -2
100
AcDbVertex
100
AcDb2dVertex
 10
924.9628692452807
 20
56.75483912839118
 30
0.0
  0
VERTEX
  5
1C68
330
1C66
100
AcDbEntity
  8
hojo
370
    -2
100
AcDbVertex
100
AcDb2dVertex
 10
925.7599166938179
 20
56.9307850764315
 30
0.0
  0
VERTEX
  5
1C69
330
1C66
100
AcDbEntity
  8
hojo
370
    -2
100
AcDbVertex
100
AcDb2dVertex
 10
925.088123074026
 20
58.08070873404577
 30
0.0
  0
SEQEND
  5
1C6A
330
1C66
100
AcDbEntity
  8
hojo
370
    -2
  0
SPLINE
  5
1C6B
330
1F
100
AcDbEntity
  8
hojo
370
    -2
100
AcDbSpline
210
0.0
220
0.0
230
1.0
 70
    11
 71
     3
 72
    20
 73
    16
 74
     0
 42
0.0000000001
 43
0.0000000001
 40
0.0
 40
0.0
 40
0.0
 40
0.0
 40
1.0
 40
1.0
 40
1.0
 40
2.0
 40
2.0
 40
2.0
 40
3.0
 40
3.0
 40
3.0
 40
4.0
 40
4.0
 40
4.0
 40
5.0
 40
5.0
 40
5.0
 40
5.0
 10
928.610487130326
 20
59.69325949979467
 30
0.0
 10
928.5314960123942
 20
59.78873786041003
 30
0.0
 10
928.3567804555987
 20
59.91349953265672
 30
0.0
 10
928.1296502317646
 20
59.72500359391706
 30
0.0
 10
928.1296502317646
 20
59.72500359391706
 30
0.0
 10
927.5577643810697
 20
59.25056472982942
 30
0.0
 10
927.5577643810697
 20
59.25056472982942
 30
0.0
 10
927.5577643810697
 20
59.25056472982942
 30
0.0
 10
928.0019356205293
 20
58.71509845998808
 30
0.0
 10
928.0019356205293
 20
58.71509845998808
 30
0.0
 10
928.0019356205293
 20
58.71509845998808
 30
0.0
 10
928.5740675494725
 20
59.18953732407536
 30
0.0
 10
928.5740675494725
 20
59.18953732407536
 30
0.0
 10
928.7815115133863
 20
59.3617920983812
 30
0.0
 10
928.710640977672
 20
59.57268115778098
 30
0.0
 10
928.610487130326
 20
59.69325949979467
 30
0.0
  0
POLYLINE
  5
1C6C
330
1F
100
AcDbEntity
  8
hojo
370
     0
100
AcDb2dPolyline
 66
     1
 10
0.0
 20
0.0
 30
0.0
 70
     1
  0
VERTEX
  5
1C6D
330
1C6C
100
AcDbEntity
  8
hojo
370
     0
100
AcDbVertex
100
AcDb2dVertex
 10
931.8252533753657
 20
60.66772936586639
 30
0.0
  0
VERTEX
  5
1C6E
330
1C6C
100
AcDbEntity
  8
hojo
370
     0
100
AcDbVertex
100
AcDb2dVertex
 10
931.5725310136345
 20
60.03924551790006
 30
0.0
  0
VERTEX
  5
1C6F
330
1C6C
100
AcDbEntity
  8
hojo
370
     0
100
AcDbVertex
100
AcDb2dVertex
 10
929.2965532885601
 20
62.07357440244852
 30
0.0
  0
VERTEX
  5
1C70
330
1C6C
100
AcDbEntity
  8
hojo
370
     0
100
AcDbVertex
100
AcDb2dVertex
 10
929.5697001449589
 20
62.7527503697107
 30
0.0
  0
VERTEX
  5
1C71
330
1C6C
100
AcDbEntity
  8
hojo
370
     0
100
AcDbVertex
100
AcDb2dVertex
 10
932.62033219791
 20
62.64472201839598
 30
0.0
  0
VERTEX
  5
1C72
330
1C6C
100
AcDbEntity
  8
hojo
370
     0
100
AcDbVertex
100
AcDb2dVertex
 10
932.3676098361788
 20
62.01623817042964
 30
0.0
  0
VERTEX
  5
1C73
330
1C6C
100
AcDbEntity
  8
hojo
370
     0
100
AcDbVertex
100
AcDb2dVertex
 10
931.8136876976623
 20
62.0543802990258
 30
0.0
  0
VERTEX
  5
1C74
330
1C6C
100
AcDbEntity
  8
hojo
370
     0
100
AcDbVertex
100
AcDb2dVertex
 10
931.3990458480834
 20
61.0235585139315
 30
0.0
  0
SEQEND
  5
1C75
330
1C6C
100
AcDbEntity
  8
hojo
370
     0
  0
SPLINE
  5
1C76
330
1F
100
AcDbEntity
  8
hojo
370
     0
100
AcDbSpline
210
0.0
220
0.0
230
1.0
 70
    11
 71
     3
 72
    29
 73
    25
 74
     0
 42
0.0000000001
 43
0.0000000001
 40
0.0
 40
0.0
 40
0.0
 40
0.0
 40
1.0
 40
1.0
 40
1.0
 40
2.0
 40
2.0
 40
2.0
 40
3.0
 40
3.0
 40
3.0
 40
4.0
 40
4.0
 40
4.0
 40
5.0
 40
5.0
 40
5.0
 40
6.0
 40
6.0
 40
6.0
 40
7.0
 40
7.0
 40
7.0
 40
8.0
 40
8.0
 40
8.0
 40
8.0
 10
929.8150401592202
 20
58.04207444895147
 30
0.0
 10
929.8150401592202
 20
58.04207444895147
 30
0.0
 10
928.5674234367492
 20
57.00657717712601
 30
0.0
 10
928.5674234367492
 20
57.00657717712601
 30
0.0
 10
928.5674234367492
 20
57.00657717712601
 30
0.0
 10
926.7343865598896
 20
59.21586769671922
 30
0.0
 10
926.7343865598896
 20
59.21586769671922
 30
0.0
 10
926.7343865598896
 20
59.21586769671922
 30
0.0
 10
927.9231905808465
 20
60.20214931874325
 30
0.0
 10
927.9231905808465
 20
60.20214931874325
 30
0.0
 10
928.3548118296065
 20
60.56019317104983
 30
0.0
 10
928.8137477640066
 20
60.54345985011714
 30
0.0
 10
929.0881250116504
 20
60.21273068345036
 30
0.0
 10
929.3556120683215
 20
59.89036817724991
 30
0.0
 10
929.2057504146765
 20
59.61451446011233
 30
0.0
 10
929.1338955659657
 20
59.47917142315782
 30
0.0
 10
929.2601337077071
 20
59.53183216844554
 30
0.0
 10
929.3241140524488
 20
59.5517645066153
 30
0.0
 10
929.4304198560208
 20
59.55471744560346
 30
0.0
 10
929.6358951939419
 20
59.56406841906574
 30
0.0
 10
929.8455538620974
 20
59.48261651864378
 30
0.0
 10
930.0106723671811
 20
59.28353921519665
 30
0.0
 10
930.3246682129152
 20
58.90507086822253
 30
0.0
 10
930.2439545472402
 20
58.39765751876803
 30
0.0
 10
929.8150401592202
 20
58.04207444895147
 30
0.0
  0
POLYLINE
  5
1C77
330
1F
100
AcDbEntity
  8
hojo
370
     0
100
AcDb2dPolyline
 66
     1
 10
0.0
 20
0.0
 30
0.0
 70
     1
  0
VERTEX
  5
1C78
330
1C77
100
AcDbEntity
  8
hojo
370
     0
100
AcDbVertex
100
AcDb2dVertex
 10
926.2848015989511
 20
56.0392435802758
 30
0.0
  0
VERTEX
  5
1C79
330
1C77
100
AcDbEntity
  8
hojo
370
     0
100
AcDbVertex
100
AcDb2dVertex
 10
926.0037802385845
 20
56.51835793109421
 30
0.0
  0
VERTEX
  5
1C7A
330
1C77
100
AcDbEntity
  8
hojo
370
     0
100
AcDbVertex
100
AcDb2dVertex
 10
924.9188212387089
 20
56.27867771656092
 30
0.0
  0
VERTEX
  5
1C7B
330
1C77
100
AcDbEntity
  8
hojo
370
     0
100
AcDbVertex
100
AcDb2dVertex
 10
924.8654222586738
 20
55.72623204753764
 30
0.0
  0
VERTEX
  5
1C7C
330
1C77
100
AcDbEntity
  8
hojo
370
     0
100
AcDbVertex
100
AcDb2dVertex
 10
924.2037178470914
 20
55.58006156762712
 30
0.0
  0
VERTEX
  5
1C7D
330
1C77
100
AcDbEntity
  8
hojo
370
     0
100
AcDbVertex
100
AcDb2dVertex
 10
924.5989195149983
 20
58.60707010867372
 30
0.0
  0
VERTEX
  5
1C7E
330
1C77
100
AcDbEntity
  8
hojo
370
     0
100
AcDbVertex
100
AcDb2dVertex
 10
925.3140229066152
 20
58.76480626628763
 30
0.0
  0
VERTEX
  5
1C7F
330
1C77
100
AcDbEntity
  8
hojo
370
     0
100
AcDbVertex
100
AcDb2dVertex
 10
926.9465060105339
 20
56.18541406018668
 30
0.0
  0
SEQEND
  5
1C80
330
1C77
100
AcDbEntity
  8
hojo
370
     0
  0
SPLINE
  5
1C81
330
1F
100
AcDbEntity
  8
hojo
370
     0
100
AcDbSpline
210
0.0
220
0.0
230
1.0
 70
    11
 71
     3
 72
    41
 73
    37
 74
     0
 42
0.0000000001
 43
0.0000000001
 40
0.0
 40
0.0
 40
0.0
 40
0.0
 40
1.0
 40
1.0
 40
1.0
 40
2.0
 40
2.0
 40
2.0
 40
3.0
 40
3.0
 40
3.0
 40
4.0
 40
4.0
 40
4.0
 40
5.0
 40
5.0
 40
5.0
 40
6.0
 40
6.0
 40
6.0
 40
7.0
 40
7.0
 40
7.0
 40
8.0
 40
8.0
 40
8.0
 40
9.0
 40
9.0
 40
9.0
 40
10.0
 40
10.0
 40
10.0
 40
11.0
 40
11.0
 40
11.0
 40
12.0
 40
12.0
 40
12.0
 40
12.0
 10
915.1059589030197
 20
64.95613501132758
 30
0.0
 10
914.3183854670697
 20
65.16161034924917
 30
0.0
 10
914.2678163868982
 20
65.52137674929873
 30
0.0
 10
914.2653556044082
 20
65.86219512417485
 30
0.0
 10
914.2552663961991
 20
67.18326620397384
 30
0.0
 10
915.2668940778708
 20
69.3806219284903
 30
0.0
 10
915.521831143843
 20
69.78332898299196
 30
0.0
 10
916.2626497124811
 20
70.9534310570245
 30
0.0
 10
917.640441828677
 20
72.42325643834885
 30
0.0
 10
918.5921494567146
 20
72.83273064469831
 30
0.0
 10
918.9184492148992
 20
72.97311828575693
 30
0.0
 10
919.1042382929003
 20
72.85758454784811
 30
0.0
 10
919.248686225068
 20
72.63869794535532
 30
0.0
 10
919.248686225068
 20
72.63869794535532
 30
0.0
 10
922.7518561779447
 20
66.00504354772384
 30
0.0
 10
923.0828314228606
 20
65.65844233399622
 30
0.0
 10
923.3581929835004
 20
65.37016166528339
 30
0.0
 10
923.6121457364765
 20
65.41113369374325
 30
0.0
 10
923.8478886990261
 20
65.68403447189304
 30
0.0
 10
924.1225120249191
 20
66.00196756961124
 30
0.0
 10
925.3273111320622
 20
67.88926470037769
 30
0.0
 10
927.9187611723651
 20
72.42239516447735
 30
0.0
 10
928.0169463937191
 20
72.59440386053395
 30
0.0
 10
928.1660698126174
 20
72.74131257519186
 30
0.0
 10
928.5765283319625
 20
72.55675388843593
 30
0.0
 10
929.6262981422305
 20
72.08428365034052
 30
0.0
 10
931.0461696390065
 20
70.21285856663526
 30
0.0
 10
931.7873573250185
 20
68.69369449638471
 30
0.0
 10
932.2930481267293
 20
67.65672075506519
 30
0.0
 10
932.6114733809463
 20
65.70064475370092
 30
0.0
 10
932.5898184950338
 20
65.20688874706685
 30
0.0
 10
932.5745616435952
 20
64.85462773361179
 30
0.0
 10
932.3304520205788
 20
64.81070276616375
 30
0.0
 10
932.088311023555
 20
64.78043514153616
 30
0.0
 10
932.088311023555
 20
64.78043514153616
 30
0.0
 10
915.1059589030197
 20
64.95613501132758
 30
0.0
 10
915.1059589030197
 20
64.95613501132758
 30
0.0
  0
POLYLINE
  5
1C82
330
1F
100
AcDbEntity
  8
hojo
370
     0
100
AcDb2dPolyline
 66
     1
 10
0.0
 20
0.0
 30
0.0
 70
     1
  0
VERTEX
  5
1C83
330
1C82
100
AcDbEntity
  8
hojo
370
     0
100
AcDbVertex
100
AcDb2dVertex
 10
923.0859074009732
 20
57.8848304478357
 30
0.0
  0
VERTEX
  5
1C84
330
1C82
100
AcDbEntity
  8
hojo
370
     0
100
AcDbVertex
100
AcDb2dVertex
 10
922.1430585898993
 20
58.10826949793483
 30
0.0
  0
VERTEX
  5
1C85
330
1C82
100
AcDbEntity
  8
hojo
370
     0
100
AcDbVertex
100
AcDb2dVertex
 10
921.604024185447
 20
55.83647510309347
 30
0.0
  0
VERTEX
  5
1C86
330
1C82
100
AcDbEntity
  8
hojo
370
     0
100
AcDbVertex
100
AcDb2dVertex
 10
920.9623751511589
 20
55.98879753922957
 30
0.0
  0
VERTEX
  5
1C87
330
1C82
100
AcDbEntity
  8
hojo
370
     0
100
AcDbVertex
100
AcDb2dVertex
 10
921.5015325947351
 20
58.26059193407054
 30
0.0
  0
VERTEX
  5
1C88
330
1C82
100
AcDbEntity
  8
hojo
370
     0
100
AcDbVertex
100
AcDb2dVertex
 10
920.5586837836618
 20
58.48427706241856
 30
0.0
  0
VERTEX
  5
1C89
330
1C82
100
AcDbEntity
  8
hojo
370
     0
100
AcDbVertex
100
AcDb2dVertex
 10
920.6822150646635
 20
59.00547079381758
 30
0.0
  0
VERTEX
  5
1C8A
330
1C82
100
AcDbEntity
  8
hojo
370
     0
100
AcDbVertex
100
AcDb2dVertex
 10
923.2094386819749
 20
58.40602417923438
 30
0.0
  0
SEQEND
  5
1C8B
330
1C82
100
AcDbEntity
  8
hojo
370
     0
  0
SPLINE
  5
1C8C
330
1F
100
AcDbEntity
  8
hojo
370
     0
100
AcDbSpline
210
0.0
220
0.0
230
1.0
 70
    11
 71
     3
 72
    35
 73
    31
 74
     0
 42
0.0000000001
 43
0.0000000001
 40
0.0
 40
0.0
 40
0.0
 40
0.0
 40
1.0
 40
1.0
 40
1.0
 40
2.0
 40
2.0
 40
2.0
 40
3.0
 40
3.0
 40
3.0
 40
4.0
 40
4.0
 40
4.0
 40
5.0
 40
5.0
 40
5.0
 40
6.0
 40
6.0
 40
6.0
 40
7.0
 40
7.0
 40
7.0
 40
8.0
 40
8.0
 40
8.0
 40
9.0
 40
9.0
 40
9.0
 40
10.0
 40
10.0
 40
10.0
 40
10.0
 10
919.1250319049418
 20
57.86022262293482
 30
0.0
 10
918.6081445429003
 20
57.2573309128653
 30
0.0
 10
917.945455818322
 20
57.30728479741374
 30
0.0
 10
917.3398572475134
 20
57.82650990282054
 30
0.0
 10
916.8586512315782
 20
58.23918312640671
 30
0.0
 10
916.4643108375431
 20
58.89842675549918
 30
0.0
 10
917.0783991079424
 20
59.61476053836122
 30
0.0
 10
917.0783991079424
 20
59.61476053836122
 30
0.0
 10
918.2258619830664
 20
60.95342621296442
 30
0.0
 10
918.2258619830664
 20
60.95342621296442
 30
0.0
 10
918.2258619830664
 20
60.95342621296442
 30
0.0
 10
918.7236782808096
 20
60.52672652918483
 30
0.0
 10
918.7236782808096
 20
60.52672652918483
 30
0.0
 10
918.7236782808096
 20
60.52672652918483
 30
0.0
 10
917.5501311112903
 20
59.15779322995368
 30
0.0
 10
917.5501311112903
 20
59.15779322995368
 30
0.0
 10
917.2537298603611
 20
58.81205329009754
 30
0.0
 10
917.4465321684579
 20
58.45474767253763
 30
0.0
 10
917.6789530746459
 20
58.25542429084163
 30
0.0
 10
918.1047914845544
 20
57.89049024756241
 30
0.0
 10
918.442656920442
 20
58.06619011735456
 30
0.0
 10
918.6038381735428
 20
58.25443997784532
 30
0.0
 10
918.6038381735428
 20
58.25443997784532
 30
0.0
 10
919.7773853430616
 20
59.62361935532536
 30
0.0
 10
919.7773853430616
 20
59.62361935532536
 30
0.0
 10
919.7773853430616
 20
59.62361935532536
 30
0.0
 10
920.2723717409412
 20
59.19913437578689
 30
0.0
 10
920.2723717409412
 20
59.19913437578689
 30
0.0
 10
920.2723717409412
 20
59.19913437578689
 30
0.0
 10
919.1250319049418
 20
57.86022262293482
 30
0.0
 10
919.1250319049418
 20
57.86022262293482
 30
0.0
  0
POLYLINE
  5
1C8D
330
1F
100
AcDbEntity
  8
hojo
370
     0
100
AcDb2dPolyline
 66
     1
 10
0.0
 20
0.0
 30
0.0
 70
     1
  0
VERTEX
  5
1C8E
330
1C8D
100
AcDbEntity
  8
hojo
370
     0
100
AcDbVertex
100
AcDb2dVertex
 10
916.2300443444873
 20
60.95637915195258
 30
0.0
  0
VERTEX
  5
1C8F
330
1C8D
100
AcDbEntity
  8
hojo
370
     0
100
AcDbVertex
100
AcDb2dVertex
 10
915.6880570010471
 20
62.10261163583126
 30
0.0
  0
VERTEX
  5
1C90
330
1C8D
100
AcDbEntity
  8
hojo
370
     0
100
AcDbVertex
100
AcDb2dVertex
 10
914.6704004022749
 20
61.62128258077209
 30
0.0
  0
VERTEX
  5
1C91
330
1C8D
100
AcDbEntity
  8
hojo
370
     0
100
AcDbVertex
100
AcDb2dVertex
 10
914.3901172766545
 20
62.21408508263194
 30
0.0
  0
VERTEX
  5
1C92
330
1C8D
100
AcDbEntity
  8
hojo
370
     0
100
AcDbVertex
100
AcDb2dVertex
 10
916.9852584906925
 20
63.44127731043482
 30
0.0
  0
VERTEX
  5
1C93
330
1C8D
100
AcDbEntity
  8
hojo
370
     0
100
AcDbVertex
100
AcDb2dVertex
 10
917.8946406599015
 20
61.51792971618852
 30
0.0
  0
VERTEX
  5
1C94
330
1C8D
100
AcDbEntity
  8
hojo
370
     0
100
AcDbVertex
100
AcDb2dVertex
 10
917.4106047441027
 20
61.28907694461123
 30
0.0
  0
VERTEX
  5
1C95
330
1C8D
100
AcDbEntity
  8
hojo
370
     0
100
AcDbVertex
100
AcDb2dVertex
 10
916.7813826613896
 20
62.61962203699733
 30
0.0
  0
VERTEX
  5
1C96
330
1C8D
100
AcDbEntity
  8
hojo
370
     0
100
AcDbVertex
100
AcDb2dVertex
 10
916.1557287132874
 20
62.32358990344073
 30
0.0
  0
VERTEX
  5
1C97
330
1C8D
100
AcDbEntity
  8
hojo
370
     0
100
AcDbVertex
100
AcDb2dVertex
 10
916.6975930176022
 20
61.17735741956167
 30
0.0
  0
SEQEND
  5
1C98
330
1C8D
100
AcDbEntity
  8
hojo
370
     0
  0
LWPOLYLINE
  5
1CA8
330
1F
100
AcDbEntity
  8
size
100
AcDbPolyline
 90
        4
 70
     1
 43
0.0
 10
1158.0
 20
38.0
 10
1158.0
 20
806.0
 10
38.0
 20
806.0
 10
38.0
 20
38.0
  0
LWPOLYLINE
  5
1CA9
330
1F
100
AcDbEntity
  8
size
100
AcDbPolyline
 90
        4
 70
     1
 43
0.0
 10
38.5
 20
805.5000000000003
 10
38.5
 20
38.5
 10
1157.5
 20
38.5
 10
1157.5
 20
805.5000000000003
  0
LWPOLYLINE
  5
1CAA
330
1F
100
AcDbEntity
  8
size
100
AcDbPolyline
 90
        4
 70
     1
 43
0.0
 10
1157.0
 20
39.0
 10
1157.0
 20
805.0000000000004
 10
39.0
 20
805.0000000000004
 10
39.0
 20
39.0
  0
LWPOLYLINE
  5
1CAB
330
1F
100
AcDbEntity
  8
size
100
AcDbPolyline
 90
        4
 70
     1
 43
0.0
 10
39.5
 20
804.4999999999999
 10
39.5
 20
39.5
 10
1156.5
 20
39.5
 10
1156.5
 20
804.4999999999999
  0
LWPOLYLINE
  5
1CAC
330
1F
100
AcDbEntity
  8
size
100
AcDbPolyline
 90
        4
 70
     1
 43
0.0
 10
1156.0
 20
40.0
 10
1156.0
 20
804.0
 10
40.0
 20
804.0
 10
40.0
 20
40.0
  0
LWPOLYLINE
  5
1CAD
330
1F
100
AcDbEntity
  8
size
100
AcDbPolyline
 90
        4
 70
     1
 43
0.0
 10
40.49999999999999
 20
803.5
 10
40.49999999999999
 20
40.49999999999999
 10
1155.5
 20
40.49999999999999
 10
1155.5
 20
803.5
  0
MTEXT
  5
1CB0
330
1F
100
AcDbEntity
  8
wakumoji
100
AcDbMText
 10
509.7500000000004
 20
77.12500000000002
 30
0.0
 40
6.0
 41
0.0
 71
     5
 72
     5
  1
 年    月    日
  7
gothic
 73
     1
 44
1.0
  0
MTEXT
  5
1CB1
330
1F
100
AcDbEntity
  8
wakumoji
100
AcDbMText
 10
464.7499999999999
 20
52.875
 30
0.0
 40
6.0
 41
13.5
 71
     5
 72
     5
  1
検図
  7
gothic
 73
     1
 44
1.0
  0
MTEXT
  5
1CB2
330
1F
100
AcDbEntity
  8
wakumoji
100
AcDbMText
 10
418.75
 20
52.875
 30
0.0
 40
6.0
 41
13.5
 71
     5
 72
     5
  1
担当
  7
gothic
 73
     1
 44
1.0
  0
MTEXT
  5
1CB3
330
1F
100
AcDbEntity
  8
wakumoji
100
AcDbMText
 10
464.7499999999999
 20
77.12500000000002
 30
0.0
 40
6.0
 41
13.5
 71
     5
 72
     5
  1
作図
  7
gothic
 73
     1
 44
1.0
  0
MTEXT
  5
1CB4
330
1F
100
AcDbEntity
  8
wakumoji
100
AcDbMText
 10
418.75
 20
77.12500000000002
 30
0.0
 40
6.0
 41
13.5
 71
     5
 72
     5
  1
製図
  7
gothic
 73
     1
 44
1.0
  0
LINE
  5
1CB5
330
1F
100
AcDbEntity
  8
size
100
AcDbLine
 10
412.0
 20
64.75
 30
0.0
 11
547.5
 21
64.75
 31
0.0
  0
MTEXT
  5
1CB6
330
1F
100
AcDbEntity
  8
wakumoji
100
AcDbMText
 10
43.0
 20
88.00000000000002
 30
0.0
 40
6.0
 41
169.5
 71
     1
 72
     5
  1
記事
  7
gothic
 73
     1
 44
1.0
  0
LINE
  5
1CB8
330
1F
100
AcDbEntity
  8
size
100
AcDbLine
 10
412.0
 20
65.25
 30
0.0
 11
547.5
 21
65.25
 31
0.0
  0
LINE
  5
1CB9
330
1F
100
AcDbEntity
  8
size
100
AcDbLine
 10
411.5
 20
41.0
 30
0.0
 11
411.5
 21
89.0
 31
0.0
  0
LINE
  5
1CBA
330
1F
100
AcDbEntity
  8
size
100
AcDbLine
 10
412.0
 20
41.0
 30
0.0
 11
412.0
 21
89.0
 31
0.0
  0
LINE
  5
1CBB
330
1F
100
AcDbEntity
  8
size
100
AcDbLine
 10
426.0
 20
41.0
 30
0.0
 11
426.0
 21
89.0
 31
0.0
  0
LINE
  5
1CBC
330
1F
100
AcDbEntity
  8
size
100
AcDbLine
 10
425.4999999999999
 20
41.0
 30
0.0
 11
425.4999999999999
 21
89.0
 31
0.0
  0
LINE
  5
1CBD
330
1F
100
AcDbEntity
  8
size
100
AcDbLine
 10
457.5
 20
41.0
 30
0.0
 11
457.5
 21
89.0
 31
0.0
  0
LINE
  5
1CBE
330
1F
100
AcDbEntity
  8
size
100
AcDbLine
 10
458.0
 20
41.0
 30
0.0
 11
458.0
 21
89.0
 31
0.0
  0
LINE
  5
1CBF
330
1F
100
AcDbEntity
  8
size
100
AcDbLine
 10
471.4999999999999
 20
41.0
 30
0.0
 11
471.4999999999999
 21
89.0
 31
0.0
  0
LINE
  5
1CC0
330
1F
100
AcDbEntity
  8
size
100
AcDbLine
 10
472.0
 20
41.0
 30
0.0
 11
472.0
 21
89.0
 31
0.0
  0
MTEXT
  5
1CC1
330
1F
100
AcDbEntity
  8
wakumoji
100
AcDbMText
 10
581.7500000000004
 20
49.0
 30
0.0
 40
6.0
 41
39.5
 71
     5
 72
     5
  1
 : 
  7
gothic
 73
     1
 44
1.0
  0
MTEXT
  5
1CC2
330
1F
100
AcDbEntity
  8
wakumoji
100
AcDbMText
 10
581.7500000000004
 20
65.00000000000001
 30
0.0
 40
6.0
 41
39.5
 71
     5
 72
     5
  1
1 : 20
  7
gothic
 73
     1
 44
1.0
  0
MTEXT
  5
1CC6
330
1F
100
AcDbEntity
  8
wakumoji
100
AcDbMText
 10
554.7500000000004
 20
65.00000000000001
 30
0.0
 40
7.0
 41
13.5
 71
     5
 72
     5
  1
縮尺
  7
gothic
 73
     1
 44
1.0
  0
LINE
  5
1CC7
330
1F
100
AcDbEntity
  8
size
100
AcDbLine
 10
53.0
 20
65.0
 30
0.0
 11
399.5
 21
65.0
 31
0.0
  0
LINE
  5
1CC8
330
1F
100
AcDbEntity
  8
size
100
AcDbLine
 10
602.0
 20
65.25
 30
0.0
 11
798.5
 21
65.25
 31
0.0
  0
LINE
  5
1CC9
330
1F
100
AcDbEntity
  8
size
100
AcDbLine
 10
548.0
 20
41.0
 30
0.0
 11
548.0
 21
89.0
 31
0.0
  0
LINE
  5
1CCA
330
1F
100
AcDbEntity
  8
size
100
AcDbLine
 10
547.5
 20
41.0
 30
0.0
 11
547.5
 21
89.0
 31
0.0
  0
LINE
  5
1CCB
330
1F
100
AcDbEntity
  8
size
100
AcDbLine
 10
561.5
 20
41.0
 30
0.0
 11
561.5
 21
89.0
 31
0.0
  0
LINE
  5
1CCC
330
1F
100
AcDbEntity
  8
size
100
AcDbLine
 10
562.0
 20
41.0
 30
0.0
 11
562.0
 21
89.0
 31
0.0
  0
LINE
  5
1CCD
330
1F
100
AcDbEntity
  8
size
100
AcDbLine
 10
602.0
 20
64.75
 30
0.0
 11
798.5
 21
64.75
 31
0.0
  0
MTEXT
  5
1CCE
330
1F
100
AcDbEntity
  8
wakumoji
100
AcDbMText
 10
603.0000000000004
 20
88.00000000000002
 30
0.0
 40
7.0
 41
196.5
 71
     1
 72
     5
  1
工事名
  7
gothic
 73
     1
 44
1.0
  0
MTEXT
  5
1CCF
330
1F
100
AcDbEntity
  8
wakumoji
100
AcDbMText
 10
603.0000000000004
 20
63.75000000000001
 30
0.0
 40
7.0
 41
196.5
 71
     1
 72
     5
  1
図面名
  7
gothic
 73
     1
 44
1.0
  0
LINE
  5
1CD0
330
1F
100
AcDbEntity
  8
size
100
AcDbLine
 10
602.0
 20
41.0
 30
0.0
 11
602.0
 21
89.0
 31
0.0
  0
LINE
  5
1CD1
330
1F
100
AcDbEntity
  8
size
100
AcDbLine
 10
601.5
 20
41.0
 30
0.0
 11
601.5
 21
89.0
 31
0.0
  0
LINE
  5
1CD2
330
1F
100
AcDbEntity
  8
size
100
AcDbLine
 10
798.5
 20
41.0
 30
0.0
 11
798.5
 21
89.0
 31
0.0
  0
LINE
  5
1CD3
330
1F
100
AcDbEntity
  8
size
100
AcDbLine
 10
799.0
 20
41.0
 30
0.0
 11
799.0
 21
89.0
 31
0.0
  0
MTEXT
  5
1CD4
330
1F
100
AcDbEntity
  8
wakumoji
100
AcDbMText
 10
900.0000000000005
 20
43.0
 30
0.0
 40
6.0
 41
101.0
 71
     9
 72
     5
  1
年　　月　　日　
  7
gothic
 73
     1
 44
1.0
  0
LINE
  5
1CD5
330
1F
100
AcDbEntity
  8
size
100
AcDbLine
 10
900.0
 20
41.0
 30
0.0
 11
900.0
 21
89.0
 31
0.0
  0
LINE
  5
1CD6
330
1F
100
AcDbEntity
  8
size
100
AcDbLine
 10
900.5
 20
41.0
 30
0.0
 11
900.5
 21
89.0
 31
0.0
  0
MTEXT
  5
1CD7
330
1F
100
AcDbEntity
  8
wakumoji
100
AcDbMText
 10
1097.0
 20
56.75
 30
0.0
 40
8.0
 41
58.0
 71
     4
 72
     5
  1
Ｎｏ．
  7
gothic
 73
     1
 44
1.0
  0
LINE
  5
1CD8
330
1F
100
AcDbEntity
  8
size
100
AcDbLine
 10
1096.5
 20
41.0
 30
0.0
 11
1096.5
 21
89.0
 31
0.0
  0
LINE
  5
1CD9
330
1F
100
AcDbEntity
  8
size
100
AcDbLine
 10
1097.0
 20
72.5
 30
0.0
 11
1155.0
 21
72.5
 31
0.0
  0
MTEXT
  5
1CDA
330
1F
100
AcDbEntity
  8
wakumoji
100
AcDbMText
 10
1126.0
 20
81.00000000000001
 30
0.0
 40
8.0
 41
58.0
 71
     5
 72
     5
  1
図面番号
  7
gothic
 73
     1
 44
1.0
  0
LINE
  5
1CDB
330
1F
100
AcDbEntity
  8
size
100
AcDbLine
 10
1097.0
 20
73.0
 30
0.0
 11
1155.0
 21
73.0
 31
0.0
  0
LINE
  5
1CDC
330
1F
100
AcDbEntity
  8
size
100
AcDbLine
 10
1097.0
 20
41.0
 30
0.0
 11
1097.0
 21
89.0
 31
0.0
  0
LINE
  5
1CDD
330
1F
100
AcDbEntity
  8
size
100
AcDbLine
 10
41.0
 20
89.50000000000001
 30
0.0
 11
1155.0
 21
89.50000000000001
 31
0.0
  0
LINE
  5
1CDE
330
1F
100
AcDbEntity
  8
size
100
AcDbLine
 10
41.0
 20
90.0
 30
0.0
 11
1155.0
 21
90.0
 31
0.0
  0
LINE
  5
1CDF
330
1F
100
AcDbEntity
  8
size
100
AcDbLine
 10
41.0
 20
90.5
 30
0.0
 11
1155.0
 21
90.5
 31
0.0
  0
LINE
  5
1CE0
330
1F
100
AcDbEntity
  8
size
100
AcDbLine
 10
41.0
 20
91.0
 30
0.0
 11
1155.0
 21
91.0
 31
0.0
  0
LINE
  5
1CE1
330
1F
100
AcDbEntity
  8
size
100
AcDbLine
 10
41.0
 20
89.0
 30
0.0
 11
1155.0
 21
89.0
 31
0.0
  0
LWPOLYLINE
  5
1CE3
330
1F
100
AcDbEntity
  8
Defpoints
 62
     4
100
AcDbPolyline
 90
        4
 70
     1
 43
0.0
 10
20.0
 20
20.0
 10
1168.0
 20
20.0
 10
1168.0
 20
820.0000000000001
 10
20.0
 20
820.0000000000001
  0
MTEXT
  5
1CE4
330
1F
100
AcDbEntity
  8
wakumoji
100
AcDbMText
 10
581.7500000000004
 20
81.00000000000001
 30
0.0
 40
6.0
 41
39.5
 71
     5
 72
     5
  1
1 : 2
  7
gothic
 73
     1
 44
1.0
  0
TEXT
  5
1CE9
330
1F
100
AcDbEntity
  8
hojo
100
AcDbText
 10
4.874124167624358
 20
3.038995724530105
 30
0.0
 40
14.28571428571429
  1
A2-1:2
 41
0.8
  7
Std
100
AcDbText
  0
INSERT
  5
1CF0
330
1F
100
AcDbEntity
  8
size
100
AcDbBlockReference
  2
二葉ﾛｺﾞ
 10
923.3571428571432
 20
65.0
 30
0.0
 41
0.1
 42
0.1
 43
0.1
  0
TEXT
  5
22AD
330
1F
100
AcDbEntity
  8
moji
100
AcDbText
 10
637.3736492972872
 20
44.73087747178932
 30
0.0
 40
7.0
  1
アルミ枠 FUスライダー黒板  詳細図
  7
kanji
 72
     4
 11
708.4403159639538
 21
48.23087747178931
 31
0.0
100
AcDbText
  0
MTEXT
  5
68C6
330
1F
100
AcDbEntity
  8
wakumoji
100
AcDbMText
 10
509.7500000000004
 20
52.875
 30
0.0
 40
6.0
 41
0.0
 71
     5
 72
     5
  1
 年    月    日
  7
gothic
 73
     1
 44
1.0
  0
DIMENSION
  5
7AE7
330
1F
100
AcDbEntity
  8
sunpo
100
AcDbDimension
  2
*D6
 10
510.4493123026158
 20
276.3798380114038
 30
0.0
 11
506.4493123026158
 21
258.8798380113979
 31
0.0
 70
    32
 71
     5
 42
350.0000000001183
  3
dim2_20
100
AcDbAlignedDimension
 13
488.9493123026168
 23
241.3798380113919
 33
0.0
 14
488.9493123026141
 24
276.3798380114038
 34
0.0
 50
270.0
100
AcDbRotatedDimension
  0
DIMENSION
  5
7AE8
330
1F
100
AcDbEntity
  8
sunpo
100
AcDbDimension
  2
*D7
 10
487.9493123026145
 20
335.5316942424642
 30
0.0
 11
486.1993123026143
 21
342.0316942424642
 31
0.0
 70
    32
 71
     5
 42
35.00000000000455
  3
dim2_20
100
AcDbAlignedDimension
 13
484.4493123026141
 23
326.3798380114035
 33
0.0
 14
487.9493123026145
 24
326.3798380114035
 34
0.0
100
AcDbRotatedDimension
  0
TEXT
  5
7AE9
330
1F
100
AcDbEntity
  8
sunpo
100
AcDbText
 10
203.7550989604601
 20
166.4944294111078
 30
0.0
 40
6.0
  1
FLﾏﾃﾞ800
 50
90.0
 41
0.8
  7
Std
100
AcDbText
  0
LWPOLYLINE
  5
7AEA
330
1F
100
AcDbEntity
  8
sunpo
 62
     3
370
     9
100
AcDbPolyline
 90
        4
 70
     0
 43
0.0
 10
204.9550989604604
 20
241.3798380113849
 10
204.95509896046
 20
151.3798380113928
 10
202.5550989604599
 20
160.979838011393
 10
206.1550989604598
 20
162.1798380113928
  0
LWPOLYLINE
  5
7AEB
330
1F
100
AcDbEntity
  8
moji
100
AcDbPolyline
 90
        3
 70
     1
 43
0.0
 10
166.7858021159695
 20
158.8798380113942
 10
171.1159291348917
 20
151.3798380113942
 10
175.4460561538139
 20
158.8798380113942
  0
TEXT
  5
7AEC
330
1F
100
AcDbEntity
  8
moji
100
AcDbText
 10
164.3302148491779
 20
161.379838011394
 30
0.0
 40
7.5
  1
FL
  7
Std
 72
     1
 11
171.1159291348922
 21
161.379838011394
 31
0.0
100
AcDbText
  0
DIMENSION
  5
7AED
330
1F
100
AcDbEntity
  8
sunpo
100
AcDbDimension
  2
*D8
 10
224.95509896046
 20
211.3798380113849
 30
0.0
 11
220.9550989604599
 21
226.379838011385
 31
0.0
 70
    32
 71
     5
 42
300.0
  3
dim2_20
100
AcDbAlignedDimension
 13
230.95509896046
 23
241.3798380113849
 33
0.0
 14
230.9128883005378
 24
211.3798380113849
 34
0.0
 50
270.0
100
AcDbRotatedDimension
  0
LWPOLYLINE
  5
7AF0
330
1F
100
AcDbEntity
  8
2tensasen
100
AcDbPolyline
 90
        7
 70
     1
 43
0.0
 10
369.4492624682239
 20
372.7369635013799
 10
369.4492624682239
 20
365.2369635013799
 10
359.4492624682234
 20
365.2369635013799
 10
359.4492624682234
 20
372.7369635013799
 10
354.8781946563586
 20
372.7369635013799
 10
364.4492624682239
 20
382.3080313132459
 10
374.0203302800892
 20
372.7369635013799
  0
LWPOLYLINE
  5
7AF1
330
1F
100
AcDbEntity
  8
2tensasen
100
AcDbPolyline
 90
        7
 70
     1
 43
0.0
 10
359.4492624682234
 20
189.3298380113922
 10
359.4492624682234
 20
181.8298380113922
 10
354.8781946563586
 20
181.8298380113922
 10
364.4492624682239
 20
172.2587701995267
 10
374.0203302800896
 20
181.8298380113922
 10
369.4492624682239
 20
181.8298380113922
 10
369.4492624682239
 20
189.3298380113922
  0
DIMENSION
  5
7AF3
330
1F
100
AcDbEntity
  8
sunpo
100
AcDbDimension
  2
*D9
 10
464.4493123026173
 20
276.3798380114006
 30
0.0
 11
459.6483899099808
 21
269.9009186471715
 31
0.0
 70
   160
 71
     5
 42
49.99999999997498
  3
dim2_20
100
AcDbAlignedDimension
 13
464.4493123026173
 23
281.3798380113981
 33
0.0
 14
464.4493123026173
 24
276.3798380114006
 34
0.0
 50
270.0
100
AcDbRotatedDimension
  0
DIMENSION
  5
7AF4
330
1F
100
AcDbEntity
  8
sunpo
100
AcDbDimension
  2
*D10
 10
204.95509896046
 20
361.3798380113947
 30
0.0
 11
200.9550989604599
 21
301.3798380113899
 31
0.0
 70
    32
  1
H
 71
     5
 42
1200.000000000098
  3
dim2_20
100
AcDbAlignedDimension
 13
210.9550989604613
 23
241.3798380113849
 33
0.0
 14
210.9550989604622
 24
361.3798380113947
 34
0.0
 50
90.0
100
AcDbRotatedDimension
  0
TEXT
  5
7AF6
330
1F
100
AcDbEntity
  8
sunpo
 62
     2
100
AcDbText
 10
249.491068841096
 20
330.1719302450845
 30
0.0
 40
6.0
  1
（UDスライダー装置）
 41
0.8
  7
Std
100
AcDbText
  0
DIMENSION
  5
7AF7
330
1F
100
AcDbEntity
  8
sunpo
100
AcDbDimension
  2
*D11
 10
464.4493123026173
 20
326.3798380114006
 30
0.0
 11
459.6202552691557
 21
333.4115230073341
 31
0.0
 70
   160
 71
     5
 42
50.0
  3
dim2_20
100
AcDbAlignedDimension
 13
464.4493123026173
 23
321.3798380114006
 33
0.0
 14
464.4493123026173
 24
326.3798380114006
 34
0.0
 50
270.0
100
AcDbRotatedDimension
  0
DIMENSION
  5
7AF8
330
1F
100
AcDbEntity
  8
sunpo
100
AcDbDimension
  2
*D12
 10
464.4493123026173
 20
281.3798380114036
 30
0.0
 11
460.4493123026172
 21
293.8798380114038
 31
0.0
 70
    32
 71
     5
 42
250.0000000000023
  3
dim2_20
100
AcDbAlignedDimension
 13
483.9993123026165
 23
306.3798380114038
 33
0.0
 14
483.9993123026165
 24
281.3798380114036
 34
0.0
 50
90.0
100
AcDbRotatedDimension
  0
DIMENSION
  5
7AF9
330
1F
100
AcDbEntity
  8
sunpo
100
AcDbDimension
  2
*D13
 10
464.4493123026173
 20
321.3798380114038
 30
0.0
 11
460.4493123026172
 21
313.879838011403
 31
0.0
 70
    32
 71
     5
 42
150.0000000000182
  3
dim2_20
100
AcDbAlignedDimension
 13
464.4493123026173
 23
306.379838011402
 33
0.0
 14
483.9993123026165
 24
321.3798380114038
 34
0.0
 50
90.0
100
AcDbRotatedDimension
  0
DIMENSION
  5
7AFA
330
1F
100
AcDbEntity
  8
sunpo
100
AcDbDimension
  2
*D14
 10
204.95509896046
 20
391.3798380113947
 30
0.0
 11
200.9550989604599
 21
376.3798380113947
 31
0.0
 70
    32
 71
     5
 42
300.0
  3
dim2_20
100
AcDbAlignedDimension
 13
210.95509896046
 23
361.3798380113947
 33
0.0
 14
210.9128883005374
 24
391.3798380113947
 34
0.0
 50
90.0
100
AcDbRotatedDimension
  0
DIMENSION
  5
7AFB
330
1F
100
AcDbEntity
  8
sunpo
100
AcDbDimension
  2
*D15
 10
510.4493123026158
 20
276.3798380114038
 30
0.0
 11
506.4493123026158
 21
301.3798380114037
 31
0.0
 70
    32
 71
     5
 42
499.9999999999977
  3
dim2_20
100
AcDbAlignedDimension
 13
488.9493123026168
 23
326.3798380114035
 33
0.0
 14
488.9493123026141
 24
276.3798380114038
 34
0.0
 50
90.0
100
AcDbRotatedDimension
  0
LINE
  5
7AFC
330
1F
100
AcDbEntity
  8
KUTAI
100
AcDbLine
 10
567.7825958015573
 20
151.3798380113937
 30
0.0
 11
161.1159291348908
 21
151.3798380113926
 31
0.0
  0
LWPOLYLINE
  5
7AFD
330
1F
100
AcDbEntity
  8
塗板・掲示板
100
AcDbPolyline
 90
        7
 70
     1
 43
0.0
 10
184.9494521604638
 20
361.6798380113926
 10
188.5494521604637
 20
361.6798380113926
 10
188.5494521604637
 20
359.0798380113922
 10
186.7494521604635
 20
359.0798380113922
 10
186.7494521604635
 20
357.2798380113925
 10
184.1494521604641
 20
357.2798380113925
 10
184.1494521604641
 20
360.8798380113926
 42
-0.4142135623730951
  0
LWPOLYLINE
  5
7AFE
330
1F
100
AcDbEntity
  8
塗板・掲示板
100
AcDbPolyline
 90
        7
 70
     1
 43
0.0
 10
543.9494521604784
 20
361.6798380113926
 10
540.349452160478
 20
361.6798380113926
 10
540.349452160478
 20
359.0798380113922
 10
542.1494521604781
 20
359.0798380113922
 10
542.1494521604781
 20
357.2798380113925
 10
544.749452160478
 20
357.2798380113925
 10
544.749452160478
 20
360.8798380113926
 42
0.4142135623730951
  0
LWPOLYLINE
  5
7AFF
330
1F
100
AcDbEntity
  8
塗板・掲示板
100
AcDbPolyline
 90
        4
 70
     1
 43
0.0
 10
544.6494521604718
 20
244.0798380113922
 10
540.6494521604717
 20
244.0798380113922
 10
540.6494521604717
 20
241.1798380113926
 10
544.6494521604718
 20
241.1798380113926
  0
LINE
  5
7B00
330
1F
100
AcDbEntity
  8
塗板・掲示板
100
AcDbLine
 10
544.449452160472
 20
357.2798380113923
 30
0.0
 11
544.449452160472
 21
244.079838011392
 31
0.0
  0
LINE
  5
7B01
330
1F
100
AcDbEntity
  8
塗板・掲示板
100
AcDbLine
 10
542.449452160472
 20
357.2798380113923
 30
0.0
 11
542.449452160472
 21
244.079838011392
 31
0.0
  0
LWPOLYLINE
  5
7B02
330
1F
100
AcDbEntity
  8
塗板・掲示板
100
AcDbPolyline
 90
        4
 70
     1
 43
0.0
 10
188.2494521604708
 20
244.0798380113922
 10
184.2494521604708
 20
244.0798380113922
 10
184.2494521604708
 20
241.1798380113926
 10
188.2494521604708
 20
241.1798380113926
  0
LINE
  5
7B03
330
1F
100
AcDbEntity
  8
塗板・掲示板
100
AcDbLine
 10
184.449452160471
 20
357.2798380113923
 30
0.0
 11
184.449452160471
 21
244.079838011392
 31
0.0
  0
LINE
  5
7B04
330
1F
100
AcDbEntity
  8
塗板・掲示板
100
AcDbLine
 10
186.4494521604711
 20
357.2798380113923
 30
0.0
 11
186.4494521604711
 21
244.079838011392
 31
0.0
  0
LINE
  5
7B05
330
1F
100
AcDbEntity
  8
塗板・掲示板
100
AcDbLine
 10
188.2494521604712
 20
243.8798380113926
 30
0.0
 11
540.6494521604717
 21
243.8798380113926
 31
0.0
  0
LINE
  5
7B06
330
1F
100
AcDbEntity
  8
塗板・掲示板
100
AcDbLine
 10
540.6494521604717
 20
241.3798380113915
 30
0.0
 11
188.2494521604712
 21
241.3798380113945
 31
0.0
  0
LINE
  5
7B07
330
1F
100
AcDbEntity
  8
塗板・掲示板
100
AcDbLine
 10
540.3494521604784
 20
359.3798380113928
 30
0.0
 11
188.5494521604641
 21
359.3798380113928
 31
0.0
  0
LINE
  5
7B08
330
1F
100
AcDbEntity
  8
塗板・掲示板
100
AcDbLine
 10
188.5494521604641
 20
361.3798380113926
 30
0.0
 11
540.3494521604784
 21
361.3798380113926
 31
0.0
  0
LINE
  5
7B0A
330
1F
100
AcDbEntity
  8
kijun
100
AcDbLine
 10
239.4993096398007
 20
281.3798380114042
 30
0.0
 11
244.8993096398008
 21
281.3798380114042
 31
0.0
  0
LINE
  5
7B0B
330
1F
100
AcDbEntity
  8
kijun
100
AcDbLine
 10
242.1993096398005
 20
271.379838011404
 30
0.0
 11
242.1993096398005
 21
331.379838011404
 31
0.0
  0
LINE
  5
7B0C
330
1F
100
AcDbEntity
  8
kijun
100
AcDbLine
 10
244.8993096398008
 20
306.379838011404
 30
0.0
 11
239.4993096398007
 21
306.379838011404
 31
0.0
  0
CIRCLE
  5
7B0D
330
1F
100
AcDbEntity
  8
hasen
100
AcDbCircle
 10
242.1993096398005
 20
306.379838011404
 30
0.0
 40
0.6000000000000006
  0
CIRCLE
  5
7B0E
330
1F
100
AcDbEntity
  8
hasen
100
AcDbCircle
 10
242.1993096398005
 20
281.3798380114042
 30
0.0
 40
0.6000000000000006
  0
LINE
  5
7B0F
330
1F
100
AcDbEntity
  8
hasen
100
AcDbLine
 10
240.9493096398005
 20
276.379838011404
 30
0.0
 11
240.9493096398005
 21
326.3798380114042
 31
0.0
  0
LINE
  5
7B10
330
1F
100
AcDbEntity
  8
hasen
100
AcDbLine
 10
487.949312302615
 20
276.379838011404
 30
0.0
 11
240.9493096398005
 21
276.379838011404
 31
0.0
  0
LINE
  5
7B11
330
1F
100
AcDbEntity
  8
hasen
100
AcDbLine
 10
240.9493096398005
 20
326.3798380114042
 30
0.0
 11
487.949312302615
 21
326.3798380114035
 31
0.0
  0
LINE
  5
7B12
330
1F
100
AcDbEntity
  8
hasen
100
AcDbLine
 10
244.4493096398005
 20
276.379838011404
 30
0.0
 11
244.4493096398005
 21
326.3798380114042
 31
0.0
  0
CIRCLE
  5
7B13
330
1F
100
AcDbEntity
  8
hasen
100
AcDbCircle
 10
242.1993096398005
 20
321.379838011404
 30
0.0
 40
0.6000000000000006
  0
LINE
  5
7B14
330
1F
100
AcDbEntity
  8
kijun
100
AcDbLine
 10
244.8993096398008
 20
321.379838011404
 30
0.0
 11
239.4993096398007
 21
321.379838011404
 31
0.0
  0
LINE
  5
7B15
330
1F
100
AcDbEntity
  8
kijun
100
AcDbLine
 10
483.9993123026151
 20
281.3798380114036
 30
0.0
 11
489.3993123026148
 21
281.3798380114036
 31
0.0
  0
CIRCLE
  5
7B16
330
1F
100
AcDbEntity
  8
hasen
100
AcDbCircle
 10
486.6993123026145
 20
281.3798380114036
 30
0.0
 40
0.6000000000000006
  0
LINE
  5
7B17
330
1F
100
AcDbEntity
  8
kijun
100
AcDbLine
 10
483.9993123026151
 20
321.3798380114035
 30
0.0
 11
489.3993123026148
 21
321.3798380114035
 31
0.0
  0
CIRCLE
  5
7B18
330
1F
100
AcDbEntity
  8
hasen
100
AcDbCircle
 10
486.6993123026145
 20
321.3798380114035
 30
0.0
 40
0.6000000000000006
  0
CIRCLE
  5
7B19
330
1F
100
AcDbEntity
  8
hasen
100
AcDbCircle
 10
486.6993123026145
 20
306.3798380114036
 30
0.0
 40
0.6000000000000006
  0
LINE
  5
7B1A
330
1F
100
AcDbEntity
  8
kijun
100
AcDbLine
 10
486.6993123026145
 20
271.3798380114035
 30
0.0
 11
486.6993123026145
 21
331.3798380114036
 31
0.0
  0
LINE
  5
7B1B
330
1F
100
AcDbEntity
  8
kijun
100
AcDbLine
 10
483.9993123026151
 20
306.3798380114036
 30
0.0
 11
489.3993123026148
 21
306.3798380114036
 31
0.0
  0
LINE
  5
7B1C
330
1F
100
AcDbEntity
  8
hasen
100
AcDbLine
 10
487.949312302615
 20
276.379838011404
 30
0.0
 11
487.949312302615
 21
326.3798380114035
 31
0.0
  0
LINE
  5
7B1D
330
1F
100
AcDbEntity
  8
hasen
100
AcDbLine
 10
484.4493123026145
 20
326.3798380114035
 30
0.0
 11
484.4493123026145
 21
276.3798380114035
 31
0.0
  0
LINE
  5
7B1E
330
1F
100
AcDbEntity
  8
塗板・掲示板
  6
Continuous
 62
     2
100
AcDbLine
 10
329.4492624682316
 20
233.879838011392
 30
0.0
 11
347.4492624682316
 21
233.879838011392
 31
0.0
  0
LINE
  5
7B1F
330
1F
100
AcDbEntity
  8
塗板・掲示板
  6
Continuous
 62
     2
100
AcDbLine
 10
351.9492624682343
 20
235.3798380113919
 30
0.0
 11
351.9492624682343
 21
241.3798380113919
 31
0.0
  0
LINE
  5
7B20
330
1F
100
AcDbEntity
  8
塗板・掲示板
  6
Continuous
 62
     2
100
AcDbLine
 10
347.4492624682366
 20
236.8798380113919
 30
0.0
 11
351.9492624682343
 21
236.8798380113919
 31
0.0
  0
LINE
  5
7B21
330
1F
100
AcDbEntity
  8
塗板・掲示板
  6
Continuous
 62
     2
100
AcDbLine
 10
399.4492624682366
 20
241.3798380113919
 30
0.0
 11
399.4492624682366
 21
233.879838011392
 31
0.0
  0
LINE
  5
7B22
330
1F
100
AcDbEntity
  8
塗板・掲示板
  6
Continuous
 62
     2
100
AcDbLine
 10
399.4492624682366
 20
233.879838011392
 30
0.0
 11
381.4492624682366
 21
233.879838011392
 31
0.0
  0
LINE
  5
7B23
330
1F
100
AcDbEntity
  8
塗板・掲示板
  6
Continuous
 62
     2
100
AcDbLine
 10
381.4492624682366
 20
233.879838011392
 30
0.0
 11
381.4492624682366
 21
236.8798380113919
 31
0.0
  0
LINE
  5
7B24
330
1F
100
AcDbEntity
  8
塗板・掲示板
  6
Continuous
 62
     2
100
AcDbLine
 10
347.4492624682366
 20
233.879838011392
 30
0.0
 11
347.4492624682366
 21
236.8798380113919
 31
0.0
  0
LINE
  5
7B25
330
1F
100
AcDbEntity
  8
塗板・掲示板
  6
Continuous
 62
     2
100
AcDbLine
 10
329.4492624682366
 20
241.3798380113919
 30
0.0
 11
329.4492624682366
 21
233.879838011392
 31
0.0
  0
LINE
  5
7B26
330
1F
100
AcDbEntity
  8
塗板・掲示板
  6
Continuous
 62
     2
100
AcDbLine
 10
364.4492624682339
 20
235.3798380113919
 30
0.0
 11
364.4492624682339
 21
240.8798380113919
 31
0.0
  0
LINE
  5
7B27
330
1F
100
AcDbEntity
  8
塗板・掲示板
  6
Continuous
 62
     2
100
AcDbLine
 10
376.9492624682339
 20
235.3798380113919
 30
0.0
 11
351.9492624682343
 21
235.3798380113919
 31
0.0
  0
LINE
  5
7B28
330
1F
100
AcDbEntity
  8
塗板・掲示板
  6
Continuous
 62
     2
100
AcDbLine
 10
376.9492624682339
 20
235.3798380113919
 30
0.0
 11
376.9492624682339
 21
241.3798380113919
 31
0.0
  0
LINE
  5
7B29
330
1F
100
AcDbEntity
  8
塗板・掲示板
  6
Continuous
 62
     2
100
AcDbLine
 10
376.9492624682339
 20
236.8798380113919
 30
0.0
 11
381.4492624682366
 21
236.8798380113919
 31
0.0
  0
LINE
  5
7B2A
330
1F
100
AcDbEntity
  8
塗板・掲示板
  6
Continuous
 62
     2
100
AcDbLine
 10
376.9492624682348
 20
240.8798380113919
 30
0.0
 11
351.9492624682348
 21
240.8798380113919
 31
0.0
  0
LWPOLYLINE
  5
7B2B
330
1F
100
AcDbEntity
  8
2tensasen
100
AcDbPolyline
 90
        7
 70
     1
 43
0.0
 10
184.9494521604752
 20
391.6798380113944
 10
188.5494521604751
 20
391.6798380113944
 10
188.5494521604751
 20
389.079838011394
 10
186.7494521604758
 20
389.079838011394
 10
186.7494521604758
 20
387.2798380113943
 10
184.1494521604754
 20
387.2798380113943
 10
184.1494521604754
 20
390.879838011394
 42
-0.4142135623730951
  0
LWPOLYLINE
  5
7B2C
330
1F
100
AcDbEntity
  8
2tensasen
100
AcDbPolyline
 90
        7
 70
     1
 43
0.0
 10
543.9494521604897
 20
391.6798380113944
 10
540.3494521604898
 20
391.6798380113944
 10
540.3494521604898
 20
389.079838011394
 10
542.1494521604899
 20
389.079838011394
 10
542.1494521604899
 20
387.2798380113943
 10
544.7494521604899
 20
387.2798380113943
 10
544.7494521604899
 20
390.879838011394
 42
0.4142135623730951
  0
LINE
  5
7B2D
330
1F
100
AcDbEntity
  8
2tensasen
100
AcDbLine
 10
544.4494521604833
 20
387.2798380113941
 30
0.0
 11
544.4494521604833
 21
366.3798380113926
 31
0.0
  0
LINE
  5
7B2E
330
1F
100
AcDbEntity
  8
2tensasen
100
AcDbLine
 10
542.4494521604834
 20
387.2798380113941
 30
0.0
 11
542.4494521604834
 21
366.3798380113926
 31
0.0
  0
LINE
  5
7B2F
330
1F
100
AcDbEntity
  8
2tensasen
100
AcDbLine
 10
184.4494521604829
 20
387.2798380113941
 30
0.0
 11
184.4494521604829
 21
366.3798380113926
 31
0.0
  0
LINE
  5
7B30
330
1F
100
AcDbEntity
  8
2tensasen
100
AcDbLine
 10
186.4494521604829
 20
387.2798380113941
 30
0.0
 11
186.4494521604829
 21
366.3798380113926
 31
0.0
  0
LINE
  5
7B31
330
1F
100
AcDbEntity
  8
2tensasen
100
AcDbLine
 10
540.3494521604898
 20
389.3798380113945
 30
0.0
 11
188.5494521604755
 21
389.3798380113945
 31
0.0
  0
LINE
  5
7B32
330
1F
100
AcDbEntity
  8
2tensasen
100
AcDbLine
 10
188.5494521604755
 20
391.3798380113945
 30
0.0
 11
540.3494521604898
 21
391.3798380113945
 31
0.0
  0
LINE
  5
7B33
330
1F
100
AcDbEntity
  8
2tensasen
100
AcDbLine
 10
184.449452160471
 20
236.3798380113926
 30
0.0
 11
184.449452160471
 21
214.0798380113938
 31
0.0
  0
LINE
  5
7B34
330
1F
100
AcDbEntity
  8
2tensasen
100
AcDbLine
 10
186.4494521604711
 20
236.3798380113926
 30
0.0
 11
186.4494521604711
 21
214.0798380113938
 31
0.0
  0
LINE
  5
7B35
330
1F
100
AcDbEntity
  8
2tensasen
100
AcDbLine
 10
542.449452160472
 20
236.3798380113926
 30
0.0
 11
542.449452160472
 21
214.0798380113938
 31
0.0
  0
LINE
  5
7B36
330
1F
100
AcDbEntity
  8
2tensasen
100
AcDbLine
 10
544.449452160472
 20
236.3798380113926
 30
0.0
 11
544.449452160472
 21
214.0798380113938
 31
0.0
  0
LWPOLYLINE
  5
7B37
330
1F
100
AcDbEntity
  8
2tensasen
100
AcDbPolyline
 90
        4
 70
     1
 43
0.0
 10
544.6494521604718
 20
214.079838011394
 10
540.6494521604717
 20
214.079838011394
 10
540.6494521604717
 20
211.1798380113944
 10
544.6494521604718
 20
211.1798380113944
  0
LWPOLYLINE
  5
7B38
330
1F
100
AcDbEntity
  8
2tensasen
100
AcDbPolyline
 90
        4
 70
     1
 43
0.0
 10
188.2494521604708
 20
214.079838011394
 10
184.2494521604708
 20
214.079838011394
 10
184.2494521604708
 20
211.1798380113944
 10
188.2494521604708
 20
211.1798380113944
  0
LINE
  5
7B39
330
1F
100
AcDbEntity
  8
2tensasen
100
AcDbLine
 10
188.2494521604712
 20
213.8798380113944
 30
0.0
 11
540.6494521604717
 21
213.8798380113944
 31
0.0
  0
LINE
  5
7B3A
330
1F
100
AcDbEntity
  8
2tensasen
100
AcDbLine
 10
540.6494521604717
 20
211.3798380113933
 30
0.0
 11
188.2494521604712
 21
211.3798380113963
 31
0.0
  0
LINE
  5
7B3B
330
1F
100
AcDbEntity
  8
2tensasen
100
AcDbLine
 10
329.4492624682316
 20
203.879838011394
 30
0.0
 11
347.4492624682316
 21
203.879838011394
 31
0.0
  0
LINE
  5
7B3C
330
1F
100
AcDbEntity
  8
2tensasen
100
AcDbLine
 10
351.9492624682343
 20
205.379838011394
 30
0.0
 11
351.9492624682343
 21
211.379838011394
 31
0.0
  0
LINE
  5
7B3D
330
1F
100
AcDbEntity
  8
2tensasen
100
AcDbLine
 10
347.4492624682366
 20
206.879838011394
 30
0.0
 11
351.9492624682343
 21
206.879838011394
 31
0.0
  0
LINE
  5
7B3E
330
1F
100
AcDbEntity
  8
2tensasen
100
AcDbLine
 10
399.4492624682366
 20
211.379838011394
 30
0.0
 11
399.4492624682366
 21
203.879838011394
 31
0.0
  0
LINE
  5
7B3F
330
1F
100
AcDbEntity
  8
2tensasen
100
AcDbLine
 10
399.4492624682366
 20
203.879838011394
 30
0.0
 11
381.4492624682366
 21
203.879838011394
 31
0.0
  0
LINE
  5
7B40
330
1F
100
AcDbEntity
  8
2tensasen
100
AcDbLine
 10
381.4492624682366
 20
203.879838011394
 30
0.0
 11
381.4492624682366
 21
206.879838011394
 31
0.0
  0
LINE
  5
7B41
330
1F
100
AcDbEntity
  8
2tensasen
100
AcDbLine
 10
347.4492624682366
 20
203.879838011394
 30
0.0
 11
347.4492624682366
 21
206.879838011394
 31
0.0
  0
LINE
  5
7B42
330
1F
100
AcDbEntity
  8
2tensasen
100
AcDbLine
 10
329.4492624682366
 20
211.379838011394
 30
0.0
 11
329.4492624682366
 21
203.879838011394
 31
0.0
  0
LINE
  5
7B43
330
1F
100
AcDbEntity
  8
2tensasen
100
AcDbLine
 10
364.4492624682339
 20
205.379838011394
 30
0.0
 11
364.4492624682339
 21
210.8798380113938
 31
0.0
  0
LINE
  5
7B44
330
1F
100
AcDbEntity
  8
2tensasen
100
AcDbLine
 10
376.9492624682339
 20
205.379838011394
 30
0.0
 11
351.9492624682343
 21
205.379838011394
 31
0.0
  0
LINE
  5
7B45
330
1F
100
AcDbEntity
  8
2tensasen
100
AcDbLine
 10
376.9492624682339
 20
205.379838011394
 30
0.0
 11
376.9492624682339
 21
211.379838011394
 31
0.0
  0
LINE
  5
7B46
330
1F
100
AcDbEntity
  8
2tensasen
100
AcDbLine
 10
376.9492624682339
 20
206.879838011394
 30
0.0
 11
381.4492624682366
 21
206.879838011394
 31
0.0
  0
LINE
  5
7B47
330
1F
100
AcDbEntity
  8
2tensasen
100
AcDbLine
 10
376.9492624682348
 20
210.8798380113938
 30
0.0
 11
351.9492624682348
 21
210.8798380113938
 31
0.0
  0
DIMENSION
  5
7B48
330
1F
100
AcDbEntity
  8
sunpo
100
AcDbDimension
  2
*D16
 10
184.4494521604747
 20
413.101915176604
 30
0.0
 11
364.4494521604747
 21
417.101915176604
 31
0.0
 70
    32
  1
W
 71
     5
 42
3600.0
  3
dim2_20
100
AcDbAlignedDimension
 13
544.4494521604747
 23
387.3800915193815
 33
0.0
 14
184.4494521604747
 24
387.380091519379
 34
0.0
 50
180.0
100
AcDbRotatedDimension
  0
LINE
  5
8304
330
1F
100
AcDbEntity
  8
saisen
100
AcDbLine
 10
835.2187972731368
 20
739.3227731083505
 30
0.0
 11
835.2187972731368
 21
736.3227731083505
 31
0.0
  0
LINE
  5
8305
330
1F
100
AcDbEntity
  8
saisen
100
AcDbLine
 10
835.2187972731368
 20
739.3227731083505
 30
0.0
 11
797.4403888458305
 21
739.3227731083495
 31
0.0
  0
LINE
  5
8306
330
1F
100
AcDbEntity
  8
saisen
100
AcDbLine
 10
810.2257588716042
 20
736.3227731083496
 30
0.0
 11
810.2257588716042
 21
693.3644841942102
 31
0.0
  0
LINE
  5
8307
330
1F
100
AcDbEntity
  8
saisen
100
AcDbLine
 10
802.3142349996774
 20
736.3227731083496
 30
0.0
 11
802.3142349996765
 21
693.3644841942102
 31
0.0
  0
LINE
  5
8308
330
1F
100
AcDbEntity
  8
saisen
100
AcDbLine
 10
797.4403888458305
 20
739.3227731083495
 30
0.0
 11
797.4403888458305
 21
693.3644841942102
 31
0.0
  0
LINE
  5
8309
330
1F
100
AcDbEntity
  8
saisen
100
AcDbLine
 10
810.2257588716042
 20
693.3644841942102
 30
0.0
 11
797.4403888458305
 21
693.3644841942102
 31
0.0
  0
LINE
  5
830A
330
1F
100
AcDbEntity
  8
hasen
100
AcDbLine
 10
805.5511049654274
 20
735.3227731083486
 30
0.0
 11
805.5511049654274
 21
418.9282276924584
 31
0.0
  0
LINE
  5
830B
330
1F
100
AcDbEntity
  8
hasen
100
AcDbLine
 10
835.5511049654293
 20
735.3227731083486
 30
0.0
 11
835.5511049654293
 21
418.9282276924584
 31
0.0
  0
LINE
  5
830C
330
1F
100
AcDbEntity
  8
hasen
100
AcDbLine
 10
908.5511049681285
 20
739.3227731079494
 30
0.0
 11
835.2187972731368
 21
739.3227731079494
 31
0.0
  0
LINE
  5
830D
330
1F
100
AcDbEntity
  8
hasen
100
AcDbLine
 10
805.5511049654274
 20
735.3227731083486
 30
0.0
 11
895.0939981842426
 21
735.3227731083486
 31
0.0
  0
LINE
  5
830E
330
1F
100
AcDbEntity
  8
saisen
100
AcDbLine
 10
900.551104965432
 20
735.3227731083514
 30
0.0
 11
810.2257588716042
 21
735.3227731083514
 31
0.0
  0
LINE
  5
830F
330
1F
100
AcDbEntity
  8
saisen
100
AcDbLine
 10
900.551104965432
 20
717.3227731083486
 30
0.0
 11
810.2257588716042
 21
717.3227731083477
 31
0.0
  0
LINE
  5
8310
330
1F
100
AcDbEntity
  8
saisen
100
AcDbLine
 10
901.5511049654302
 20
716.3227731083504
 30
0.0
 11
810.2257588716042
 21
716.3227731083495
 31
0.0
  0
LINE
  5
8311
330
1F
100
AcDbEntity
  8
saisen
100
AcDbLine
 10
901.5511049654302
 20
736.3227731083505
 30
0.0
 11
802.3142349996765
 21
736.3227731083496
 31
0.0
  0
LWPOLYLINE
  5
8312
330
1F
100
AcDbEntity
  8
塗板・掲示板
100
AcDbPolyline
 90
       18
 70
     1
 43
0.0
 10
935.5511049654293
 20
736.3227731083486
 10
901.5511049654291
 20
736.3227731083486
 10
900.5511049654291
 20
735.3227731083486
 10
900.5511049654291
 20
717.3227731083486
 10
901.5511049654291
 20
716.3227731083487
 10
905.5511049654292
 20
716.3227731083487
 10
905.5511049654283
 20
720.5227731083485
 10
904.5511049654292
 20
720.5227731083485
 10
904.5511049654292
 20
717.3227731083486
 10
902.0511049654292
 20
717.3227731083486
 10
901.5511049654291
 20
717.8227731083486
 10
901.5511049654291
 20
734.8227731083486
 10
902.0511049654292
 20
735.3227731083486
 10
904.5511049654301
 20
735.3227731083486
 10
904.5511049654301
 20
732.1227731083488
 10
905.5511049654292
 20
732.1227731083488
 10
905.5511049654292
 20
735.3227731083486
 10
935.5511049654293
 20
735.3227731083486
  0
LINE
  5
8313
330
1F
100
AcDbEntity
  8
sunpo2
100
AcDbLine
 10
998.5664672818526
 20
621.66335049791
 30
0.0
 11
1005.463751662713
 21
633.6097974798112
 31
0.0
  0
INSERT
  5
8314
330
1F
100
AcDbEntity
  8
sunpo2
100
AcDbBlockReference
  2
ARRI
 10
996.2664672818531
 20
617.6796336405011
 30
0.0
 41
-4.600000000000133
 42
4.600000000000022
 43
4.599999999999999
 50
59.99999999999834
  0
LINE
  5
8315
330
1F
100
AcDbEntity
  8
sunpo2
100
AcDbLine
 10
990.1171152598559
 20
669.364693518547
 30
0.0
 11
1139.913620929155
 21
669.364693518547
 31
0.0
  0
TEXT
  5
8316
330
1F
100
AcDbEntity
  8
sunpo2
100
AcDbText
 10
1089.867667421656
 20
670.864693518547
 30
0.0
 40
5.0
  1
スライディングパイプ
 41
0.8
  7
Std
100
AcDbText
  0
LINE
  5
8317
330
1F
100
AcDbEntity
  8
sunpo2
100
AcDbLine
 10
983.2198308789953
 20
681.3111405004483
 30
0.0
 11
990.1171152598559
 21
669.364693518547
 31
0.0
  0
INSERT
  5
8318
330
1F
100
AcDbEntity
  8
sunpo2
100
AcDbBlockReference
  2
ARRI
 10
980.9198308789959
 20
685.2948573578571
 30
0.0
 41
4.600000000000132
 42
4.600000000000022
 43
4.599999999999999
 50
120.0000000000016
  0
DIMENSION
  5
8319
330
1F
100
AcDbEntity
  8
sunpo
100
AcDbDimension
  2
*D34
 10
700.4931619742015
 20
736.3227731083496
 30
0.0
 11
696.2931619742013
 21
720.8227731083496
 31
0.0
 70
    32
 71
     5
 42
31.0
  3
dim2
100
AcDbAlignedDimension
 13
757.2395594930163
 23
705.3227731083495
 33
0.0
 14
757.2395594930163
 24
736.3227731083496
 34
0.0
 50
90.0
100
AcDbRotatedDimension
  0
DIMENSION
  5
831A
330
1F
100
AcDbEntity
  8
sunpo
100
AcDbDimension
  2
*D33
 10
682.8806969477596
 20
211.8859551845224
 30
0.0
 11
678.6806969477595
 21
474.104364146436
 31
0.0
 70
    32
  1
H
 71
     5
 42
524.4368179238271
  3
dim2
100
AcDbAlignedDimension
 13
757.2395594930172
 23
736.3227731083496
 33
0.0
 14
724.6270944665752
 24
211.8859551845223
 34
0.0
 50
270.0
100
AcDbRotatedDimension
  0
DIMENSION
  5
831C
330
1F
100
AcDbEntity
  8
sunpo
100
AcDbDimension
  2
*D32
 10
697.8806969477595
 20
211.8859551845224
 30
0.0
 11
693.6806969477595
 21
221.8859551845225
 31
0.0
 70
    32
 71
     5
 42
20.0
  3
dim2
100
AcDbAlignedDimension
 13
724.6270944665761
 23
231.8859551845223
 33
0.0
 14
724.6270944665752
 24
211.8859551845223
 34
0.0
 50
270.0
100
AcDbRotatedDimension
  0
DIMENSION
  5
831D
330
1F
100
AcDbEntity
  8
sunpo
100
AcDbDimension
  2
*D31
 10
1140.125330420605
 20
353.2850077989185
 30
0.0
 11
1135.925330420605
 21
468.7395532364184
 31
0.0
 70
    32
  1
H＝500 （UDスライダー装置外寸 H を示す）
 71
     5
 42
230.9090908749995
  3
dim2
100
AcDbAlignedDimension
 13
1057.551104947857
 23
584.194098673918
 33
0.0
 14
1057.551104947831
 24
353.2850077989185
 34
0.0
 50
90.0
100
AcDbRotatedDimension
  0
DIMENSION
  5
831E
330
1F
100
AcDbEntity
  8
sunpo
100
AcDbDimension
  2
*D30
 10
1111.417070196535
 20
534.1940986739189
 30
0.0
 11
1107.217070196535
 21
559.1940986739185
 31
0.0
 70
    32
 71
     5
 42
49.99999999999909
  3
dim2
100
AcDbAlignedDimension
 13
1057.551104947857
 23
584.194098673918
 33
0.0
 14
1111.417070196558
 24
534.1940986739189
 34
0.0
 50
90.0
100
AcDbRotatedDimension
  0
LINE
  5
831F
330
1F
100
AcDbEntity
  8
塗板・掲示板
100
AcDbLine
 10
942.5511049593346
 20
584.194098663919
 30
0.0
 11
942.5511049593346
 21
506.9288717953202
 31
0.0
  0
LINE
  5
8320
330
1F
100
AcDbEntity
  8
saisen
100
AcDbLine
 10
909.9511049522275
 20
506.9288717953211
 30
0.0
 11
909.9511049642766
 21
735.3227731083495
 31
0.0
  0
LINE
  5
8321
330
1F
100
AcDbEntity
  8
saisen
100
AcDbLine
 10
932.8511049618768
 20
735.3227731083495
 30
0.0
 11
932.8511049498279
 21
506.9288717953211
 31
0.0
  0
LINE
  5
8322
330
1F
100
AcDbEntity
  8
塗板・掲示板
100
AcDbLine
 10
905.9511049629813
 20
506.9288717953202
 30
0.0
 11
905.9511049750303
 21
735.3227731083486
 31
0.0
  0
LINE
  5
8323
330
1F
100
AcDbEntity
  8
塗板・掲示板
100
AcDbLine
 10
935.5511049560968
 20
506.9288717953202
 30
0.0
 11
935.5511049654319
 21
735.3227731083486
 31
0.0
  0
LINE
  5
8324
330
1F
100
AcDbEntity
  8
塗板・掲示板
100
AcDbLine
 10
905.5511049654318
 20
735.3227731083495
 30
0.0
 11
905.5511049560969
 21
506.9288717953211
 31
0.0
  0
LINE
  5
8325
330
1F
100
AcDbEntity
  8
塗板・掲示板
100
AcDbLine
 10
1054.351104948154
 20
584.194098663919
 30
0.0
 11
1054.351104948154
 21
506.9288717953193
 31
0.0
  0
LINE
  5
8326
330
1F
100
AcDbEntity
  8
kijun
100
AcDbLine
 10
976.5511049559377
 20
137.8388347626726
 30
0.0
 11
976.5511049559377
 21
757.1611652373264
 31
0.0
  0
DIMENSION
  5
8327
330
1F
100
AcDbEntity
  8
sunpo
100
AcDbDimension
  2
*D29
 10
1140.125330420605
 20
106.5000000049997
 30
0.0
 11
1135.925330420605
 21
229.8925039019593
 31
0.0
 70
    32
  1
ＦＬ＋1150
 71
     5
 42
246.7850077939188
  3
dim2
100
AcDbAlignedDimension
 13
1057.551104947857
 23
353.2850077989185
 33
0.0
 14
1121.915104293033
 24
106.5000000049997
 34
0.0
 50
90.0
100
AcDbRotatedDimension
1001
ACAD
1000
DSTYLE
1002
{
1070
   344
1005
2D20
1070
   342
1005
0
1070
   173
1070
     1
1070
   343
1005
46
1070
    76
1070
     1
1070
   282
1070
     0
1002
}
  0
DIMENSION
  5
8328
330
1F
100
AcDbEntity
  8
sunpo
100
AcDbDimension
  2
*D28
 10
935.551104959473
 20
313.7709778804617
 30
0.0
 11
878.0511049597548
 21
317.9709778804617
 31
0.0
 70
    32
 71
     5
 42
114.9999999994361
  3
dim2
100
AcDbAlignedDimension
 13
820.5511049600367
 23
244.3859551845223
 33
0.0
 14
935.551104959473
 24
287.8334778804617
 34
0.0
100
AcDbRotatedDimension
  0
DIMENSION
  5
8329
330
1F
100
AcDbEntity
  8
sunpo
100
AcDbDimension
  2
*D27
 10
935.551104959473
 20
288.7709778804617
 30
0.0
 11
920.5511049595569
 21
292.9709778804617
 31
0.0
 70
    32
 71
     5
 42
29.99999999983174
  3
dim2
100
AcDbAlignedDimension
 13
905.5511049596411
 23
244.3859551855828
 33
0.0
 14
935.551104959473
 24
288.7709778804617
 34
0.0
100
AcDbRotatedDimension
  0
DIMENSION
  5
832A
330
1F
100
AcDbEntity
  8
sunpo
100
AcDbDimension
  2
*D26
 10
905.5511049596411
 20
288.7709778804617
 30
0.0
 11
863.0511049598389
 21
292.9709778804617
 31
0.0
 70
    32
 71
     5
 42
84.99999999960436
  3
dim2
100
AcDbAlignedDimension
 13
820.5511049600367
 23
244.3859551845223
 33
0.0
 14
905.5511049596411
 24
244.3859551855828
 34
0.0
100
AcDbRotatedDimension
  0
LINE
  5
832B
330
1F
100
AcDbEntity
  8
塗板・掲示板
100
AcDbLine
 10
994.0511049541832
 20
306.185955175092
 30
0.0
 11
994.0511049541832
 21
320.2354814894613
 31
0.0
  0
LINE
  5
832C
330
1F
100
AcDbEntity
  8
塗板・掲示板
100
AcDbLine
 10
959.051104957683
 20
306.185955175092
 30
0.0
 11
959.051104957683
 21
320.2354814894559
 31
0.0
  0
LINE
  5
832D
330
1F
100
AcDbEntity
  8
kijun
100
AcDbLine
 10
957.5511049578285
 20
212.9859551844118
 30
0.0
 11
957.5511049578285
 21
307.3859551749726
 31
0.0
  0
LINE
  5
832E
330
1F
100
AcDbEntity
  8
kijun
100
AcDbLine
 10
995.5511049540232
 20
212.9859551844118
 30
0.0
 11
995.5511049540232
 21
307.3859551749726
 31
0.0
  0
ARC
  5
832F
330
1F
100
AcDbEntity
  8
塗板・掲示板
100
AcDbCircle
 10
1297.43423518914
 20
257.5729120334679
 30
0.0
 40
270.4255018917028
100
AcDbArc
 50
159.2720290642067
 51
181.0142784180371
  0
ARC
  5
8330
330
1F
100
AcDbEntity
  8
塗板・掲示板
100
AcDbCircle
 10
1302.434235188638
 20
257.5729120334643
 30
0.0
 40
270.4255018917028
100
AcDbArc
 50
159.2720290642067
 51
181.0142784180371
  0
LINE
  5
8331
330
1F
100
AcDbEntity
  8
saisen
100
AcDbLine
 10
932.8511049498279
 20
431.9395532301139
 30
0.0
 11
932.8511049498279
 21
211.8859551845223
 31
0.0
  0
LINE
  5
8332
330
1F
100
AcDbEntity
  8
saisen
100
AcDbLine
 10
909.9511049522275
 20
211.8859551845223
 30
0.0
 11
909.9511049522275
 21
431.939553230113
 31
0.0
  0
LINE
  5
8333
330
1F
100
AcDbEntity
  8
塗板・掲示板
100
AcDbLine
 10
905.551104957021
 20
431.939553230113
 30
0.0
 11
905.5511049600331
 21
211.8859551845223
 31
0.0
  0
LINE
  5
8334
330
1F
100
AcDbEntity
  8
塗板・掲示板
100
AcDbLine
 10
935.5511049600332
 20
211.8859551845223
 30
0.0
 11
935.5511049570209
 21
431.9395532301139
 31
0.0
  0
LINE
  5
8335
330
1F
100
AcDbEntity
  8
塗板・掲示板
100
AcDbLine
 10
905.9511049629813
 20
211.8859551843223
 30
0.0
 11
905.9511049629813
 21
431.939553230113
 31
0.0
  0
ARC
  5
8336
330
1F
100
AcDbEntity
  8
塗板・掲示板
100
AcDbCircle
 10
957.5511049578285
 20
306.185955175092
 30
0.0
 40
0.9999999999000001
100
AcDbArc
 50
180.0
 51
0.0
  0
LINE
  5
8337
330
1F
100
AcDbEntity
  8
塗板・掲示板
100
AcDbLine
 10
956.5511049579232
 20
306.185955175092
 30
0.0
 11
958.5511049577267
 21
306.185955175092
 31
0.0
  0
CIRCLE
  5
8338
330
1F
100
AcDbEntity
  8
塗板・掲示板
100
AcDbCircle
 10
957.5511049578285
 20
296.1859551760924
 30
0.0
 40
0.9999999999000001
  0
CIRCLE
  5
8339
330
1F
100
AcDbEntity
  8
塗板・掲示板
100
AcDbCircle
 10
957.5511049578285
 20
286.1859551770929
 30
0.0
 40
0.9999999999000001
  0
CIRCLE
  5
833A
330
1F
100
AcDbEntity
  8
塗板・掲示板
100
AcDbCircle
 10
957.5511049578285
 20
276.1859551780924
 30
0.0
 40
0.9999999999000001
  0
CIRCLE
  5
833B
330
1F
100
AcDbEntity
  8
塗板・掲示板
100
AcDbCircle
 10
957.5511049578285
 20
256.1859551800924
 30
0.0
 40
0.9999999999000001
  0
CIRCLE
  5
833C
330
1F
100
AcDbEntity
  8
塗板・掲示板
100
AcDbCircle
 10
957.5511049578285
 20
266.1859551790919
 30
0.0
 40
0.9999999999000001
  0
CIRCLE
  5
833D
330
1F
100
AcDbEntity
  8
塗板・掲示板
100
AcDbCircle
 10
957.5511049578285
 20
236.1859551820923
 30
0.0
 40
0.9999999999000001
  0
CIRCLE
  5
833E
330
1F
100
AcDbEntity
  8
塗板・掲示板
100
AcDbCircle
 10
957.5511049578285
 20
246.1859551810928
 30
0.0
 40
0.9999999999000001
  0
CIRCLE
  5
833F
330
1F
100
AcDbEntity
  8
塗板・掲示板
100
AcDbCircle
 10
957.5511049578285
 20
226.1859551830919
 30
0.0
 40
0.9999999999000001
  0
ARC
  5
8340
330
1F
100
AcDbEntity
  8
塗板・掲示板
100
AcDbCircle
 10
957.5511049578285
 20
214.1859551842924
 30
0.0
 40
0.9999999999000001
100
AcDbArc
 50
0.0
 51
180.0
  0
CIRCLE
  5
8341
330
1F
100
AcDbEntity
  8
塗板・掲示板
100
AcDbCircle
 10
957.5511049578285
 20
216.1859551840923
 30
0.0
 40
0.9999999999000001
  0
LINE
  5
8342
330
1F
100
AcDbEntity
  8
塗板・掲示板
100
AcDbLine
 10
937.8511049598031
 20
214.1859551842924
 30
0.0
 11
1013.251104952259
 21
214.1859551842924
 31
0.0
  0
LINE
  5
8343
330
1F
100
AcDbEntity
  8
塗板・掲示板
100
AcDbLine
 10
935.5511049600332
 20
211.8859551845223
 30
0.0
 11
1015.551104952029
 21
211.8859551845223
 31
0.0
  0
LINE
  5
8344
330
1F
100
AcDbEntity
  8
塗板・掲示板
100
AcDbLine
 10
853.021975981815
 20
137.5316001242761
 30
0.0
 11
963.1287616169952
 21
159.552957251313
 31
0.0
  0
LINE
  5
8345
330
1F
100
AcDbEntity
  8
塗板・掲示板
100
AcDbLine
 10
850.0802339550368
 20
152.2403102581691
 30
0.0
 11
962.5511049573265
 21
174.7344844586266
 31
0.0
  0
ARC
  5
8346
330
1F
100
AcDbEntity
  8
塗板・掲示板
100
AcDbCircle
 10
851.5511049684295
 20
144.8859551912226
 30
0.0
 40
7.499999999249999
100
AcDbArc
 50
101.3099324738638
 51
281.3099324738638
  0
LINE
  5
8347
330
1F
100
AcDbEntity
  8
2tensasen
100
AcDbLine
 10
956.5511049579232
 20
306.185955175092
 30
0.0
 11
956.5511049579232
 21
214.1859551842924
 31
0.0
  0
LINE
  5
8348
330
1F
100
AcDbEntity
  8
saisen
100
AcDbLine
 10
932.8511049498279
 20
241.8859551845224
 30
0.0
 11
909.9511049522275
 21
211.8859551845223
 31
0.0
  0
LINE
  5
8349
330
1F
100
AcDbEntity
  8
塗板・掲示板
100
AcDbLine
 10
935.5511049600332
 20
236.8859551820222
 30
0.0
 11
935.5511049600332
 21
211.8859551845223
 31
0.0
  0
LINE
  5
834A
330
1F
100
AcDbEntity
  8
塗板・掲示板
100
AcDbLine
 10
937.8511049598031
 20
236.8859551820222
 30
0.0
 11
937.8511049598031
 21
214.1859551842924
 31
0.0
  0
ARC
  5
834B
330
1F
100
AcDbEntity
  8
hasen
100
AcDbCircle
 10
851.5511049684295
 20
144.8859551912226
 30
0.0
 40
7.499999999249999
100
AcDbArc
 50
281.3099324738638
 51
101.3099324738638
  0
LINE
  5
834C
330
1F
100
AcDbEntity
  8
saisen
100
AcDbLine
 10
909.9511049594307
 20
241.8859551845224
 30
0.0
 11
932.8511049498279
 21
241.8859551845224
 31
0.0
  0
LINE
  5
834D
330
1F
100
AcDbEntity
  8
塗板・掲示板
100
AcDbLine
 10
935.5511049600332
 20
236.8859551820222
 30
0.0
 11
937.8511049598031
 21
236.8859551820222
 31
0.0
  0
LINE
  5
834E
330
1F
100
AcDbEntity
  8
塗板・掲示板
100
AcDbLine
 10
959.051104957683
 20
217.5236650702216
 30
0.0
 11
959.051104957683
 21
225.4798242442719
 31
0.0
  0
LINE
  5
834F
330
1F
100
AcDbEntity
  8
saisen
100
AcDbLine
 10
957.3450944767987
 20
217.1645049689821
 30
0.0
 11
995.3450944729935
 21
225.1645049681818
 31
0.0
  0
LINE
  5
8350
330
1F
100
AcDbEntity
  8
saisen
100
AcDbLine
 10
957.7571154388584
 20
215.2074053992035
 30
0.0
 11
995.7571154350603
 21
223.207405398404
 31
0.0
  0
LINE
  5
8351
330
1F
100
AcDbEntity
  8
塗板・掲示板
100
AcDbLine
 10
1013.251104952259
 20
236.8859551820222
 30
0.0
 11
1013.251104952259
 21
214.1859551842924
 31
0.0
  0
LINE
  5
8352
330
1F
100
AcDbEntity
  8
塗板・掲示板
100
AcDbLine
 10
1015.551104952029
 20
211.8859551845223
 30
0.0
 11
1015.551104952029
 21
236.8859551820222
 31
0.0
  0
LINE
  5
8353
330
1F
100
AcDbEntity
  8
塗板・掲示板
100
AcDbLine
 10
1018.551104951731
 20
233.8859551823223
 30
0.0
 11
1018.551104951731
 21
208.8859551848225
 31
0.0
  0
LINE
  5
8354
330
1F
100
AcDbEntity
  8
塗板・掲示板
100
AcDbLine
 10
1027.05110495088
 20
187.9859551869137
 30
0.0
 11
1027.05110495088
 21
228.3859526672647
 31
0.0
  0
LINE
  5
8355
330
1F
100
AcDbEntity
  8
塗板・掲示板
100
AcDbLine
 10
1032.051104950385
 20
187.5570229988195
 30
0.0
 11
1032.051104950385
 21
228.3859576984757
 31
0.0
  0
LINE
  5
8356
330
1F
100
AcDbEntity
  8
塗板・掲示板
100
AcDbLine
 10
994.0511049541832
 20
215.1859551841924
 30
0.0
 11
994.0511049541832
 21
222.8482452971664
 31
0.0
  0
LINE
  5
8357
330
1F
100
AcDbEntity
  8
2tensasen
100
AcDbLine
 10
958.5511049577267
 20
306.185955175092
 30
0.0
 11
958.5511049577267
 21
214.1859551842924
 31
0.0
  0
LINE
  5
8358
330
1F
100
AcDbEntity
  8
2tensasen
100
AcDbLine
 10
994.551104954125
 20
306.185955175092
 30
0.0
 11
994.551104954125
 21
214.1859551842924
 31
0.0
  0
LINE
  5
8359
330
1F
100
AcDbEntity
  8
2tensasen
100
AcDbLine
 10
996.5511049539285
 20
306.185955175092
 30
0.0
 11
996.5511049539285
 21
214.1859551842924
 31
0.0
  0
LINE
  5
835A
330
1F
100
AcDbEntity
  8
塗板・掲示板
100
AcDbLine
 10
990.5511049545252
 20
180.3344844580667
 30
0.0
 11
1028.08023393724
 21
187.8403102546096
 31
0.0
  0
LINE
  5
835B
330
1F
100
AcDbEntity
  8
塗板・掲示板
100
AcDbLine
 10
990.5511049545252
 20
165.0374259188181
 30
0.0
 11
1035.924879341984
 21
174.1121807963097
 31
0.0
  0
LINE
  5
835C
330
1F
100
AcDbEntity
  8
塗板・掲示板
100
AcDbLine
 10
962.5511049573265
 20
161.8859551895227
 30
0.0
 11
962.5511049573265
 21
208.8859551848225
 31
0.0
  0
LINE
  5
835D
330
1F
100
AcDbEntity
  8
塗板・掲示板
100
AcDbLine
 10
990.5511049545252
 20
208.8859551848225
 30
0.0
 11
990.5511049545252
 21
161.8859551895227
 31
0.0
  0
ARC
  5
835E
330
1F
100
AcDbEntity
  8
塗板・掲示板
100
AcDbCircle
 10
985.5511049550273
 20
161.8859551895227
 30
0.0
 40
4.999999999499999
100
AcDbArc
 50
270.0
 51
0.0
  0
ARC
  5
835F
330
1F
100
AcDbEntity
  8
塗板・掲示板
100
AcDbCircle
 10
967.5511049568244
 20
161.8859551895227
 30
0.0
 40
4.999999999499999
100
AcDbArc
 50
180.0
 51
270.0
  0
LINE
  5
8360
330
1F
100
AcDbEntity
  8
kijun
100
AcDbLine
 10
971.1511049564665
 20
169.8859551887224
 30
0.0
 11
981.9511049553852
 21
169.8859551887224
 31
0.0
  0
LINE
  5
8361
330
1F
100
AcDbEntity
  8
塗板・掲示板
100
AcDbLine
 10
985.5511049550273
 20
156.885955190022
 30
0.0
 11
967.5511049568244
 21
156.885955190022
 31
0.0
  0
CIRCLE
  5
8362
330
1F
100
AcDbEntity
  8
塗板・掲示板
100
AcDbCircle
 10
976.5511049559295
 20
169.8859551887224
 30
0.0
 40
2.999999999699999
  0
LINE
  5
8363
330
1F
100
AcDbEntity
  8
塗板・掲示板
100
AcDbLine
 10
985.0511049550782
 20
197.8502897043697
 30
0.0
 11
986.366059531168
 21
198.6094802287396
 31
0.0
  0
LINE
  5
8364
330
1F
100
AcDbEntity
  8
塗板・掲示板
100
AcDbLine
 10
966.5511049569262
 20
205.8859551851226
 30
0.0
 11
986.5511049549255
 21
205.8859551851226
 31
0.0
  0
LINE
  5
8365
330
1F
100
AcDbEntity
  8
saisen
100
AcDbLine
 10
957.5511049578285
 20
215.1859551841924
 30
0.0
 11
995.5511049540232
 21
215.1859551841924
 31
0.0
  0
POLYLINE
  5
8366
330
1F
100
AcDbEntity
  8
塗板・掲示板
100
AcDb2dPolyline
 66
     1
 10
0.0
 20
0.0
 30
0.0
 70
     2
  0
VERTEX
  5
8367
330
8366
100
AcDbEntity
  8
塗板・掲示板
100
AcDbVertex
100
AcDb2dVertex
 10
981.4585822435487
 20
198.6094802287396
 30
0.0
 42
-0.0383898054358984
  0
VERTEX
  5
8368
330
8366
100
AcDbEntity
  8
塗板・掲示板
100
AcDbVertex
100
AcDb2dVertex
 10
979.0340317490931
 20
198.0412103761016
 30
0.0
 42
-0.0383898054358979
 70
     1
  0
VERTEX
  5
8369
330
8366
100
AcDbEntity
  8
塗板・掲示板
100
AcDbVertex
100
AcDb2dVertex
 10
976.5511049559295
 20
197.8502908502612
 30
0.0
 42
-0.0383898054358921
  0
VERTEX
  5
836A
330
8366
100
AcDbEntity
  8
塗板・掲示板
100
AcDbVertex
100
AcDb2dVertex
 10
974.0681781627586
 20
198.0412103760998
 30
0.0
 42
-0.038389805435896
 70
     1
  0
VERTEX
  5
836B
330
8366
100
AcDbEntity
  8
塗板・掲示板
100
AcDbVertex
100
AcDb2dVertex
 10
971.643627668303
 20
198.6094802287396
 30
0.0
  0
SEQEND
  5
836C
330
8366
100
AcDbEntity
  8
塗板・掲示板
  0
LINE
  5
836D
330
1F
100
AcDbEntity
  8
塗板・掲示板
100
AcDbLine
 10
985.0511049550782
 20
197.8502897043697
 30
0.0
 11
976.5355774248396
 21
197.8502982730513
 31
0.0
  0
ARC
  5
836E
330
1F
100
AcDbEntity
  8
塗板・掲示板
100
AcDbCircle
 10
985.0511049550782
 20
206.7298721361492
 30
0.0
 40
8.879582431780752
100
AcDbArc
 50
246.1350395956312
 51
269.9998858515474
  0
LINE
  5
836F
330
1F
100
AcDbEntity
  8
塗板・掲示板
100
AcDbLine
 10
981.4585822435414
 20
198.6094802287396
 30
0.0
 11
981.4585822435487
 21
205.8859551851226
 31
0.0
  0
LINE
  5
8370
330
1F
100
AcDbEntity
  8
塗板・掲示板
100
AcDbLine
 10
971.643627668303
 20
198.6094802287396
 30
0.0
 11
971.643627668303
 21
205.8859551851226
 31
0.0
  0
LINE
  5
8371
330
1F
100
AcDbEntity
  8
塗板・掲示板
100
AcDbLine
 10
966.5511049569262
 20
208.8859551848225
 30
0.0
 11
966.5511049569262
 21
205.8859551851226
 31
0.0
  0
LINE
  5
8372
330
1F
100
AcDbEntity
  8
塗板・掲示板
100
AcDbLine
 10
959.051104957683
 20
215.1859551841924
 30
0.0
 11
959.051104957683
 21
215.4798242452714
 31
0.0
  0
LINE
  5
8373
330
1F
100
AcDbEntity
  8
塗板・掲示板
100
AcDbLine
 10
968.0511049567735
 20
197.8502897043697
 30
0.0
 11
966.7361503806837
 21
198.6094802287396
 31
0.0
  0
LINE
  5
8374
330
1F
100
AcDbEntity
  8
塗板・掲示板
100
AcDbLine
 10
966.7361503806837
 20
198.6094802287396
 30
0.0
 11
966.7361503806837
 21
205.8859551851226
 31
0.0
  0
LINE
  5
8375
330
1F
100
AcDbEntity
  8
塗板・掲示板
100
AcDbLine
 10
968.0511049567735
 20
197.8502897043697
 30
0.0
 11
976.5666324870194
 21
197.8502982730513
 31
0.0
  0
ARC
  5
8376
330
1F
100
AcDbEntity
  8
塗板・掲示板
100
AcDbCircle
 10
968.0511049567735
 20
206.7298721361492
 30
0.0
 40
8.879582431780752
100
AcDbArc
 50
270.0001141484526
 51
293.8649604043688
  0
ARC
  5
8377
330
1F
100
AcDbEntity
  8
塗板・掲示板
100
AcDbCircle
 10
995.5511049540232
 20
214.1859551842924
 30
0.0
 40
0.9999999999000001
100
AcDbArc
 50
0.0
 51
180.0
  0
LINE
  5
8378
330
1F
100
AcDbEntity
  8
塗板・掲示板
100
AcDbLine
 10
986.5511049549255
 20
205.8859551851226
 30
0.0
 11
986.5511049549255
 21
208.8859551848225
 31
0.0
  0
LINE
  5
8379
330
1F
100
AcDbEntity
  8
塗板・掲示板
100
AcDbLine
 10
986.366059531168
 20
198.6094802287396
 30
0.0
 11
986.366059531168
 21
205.8859551851226
 31
0.0
  0
CIRCLE
  5
837A
330
1F
100
AcDbEntity
  8
塗板・掲示板
100
AcDbCircle
 10
1029.551104950632
 20
180.4859551876641
 30
0.0
 40
1.9999999998
  0
ARC
  5
837B
330
1F
100
AcDbEntity
  8
塗板・掲示板
100
AcDbCircle
 10
1029.551104950632
 20
180.4859551876641
 30
0.0
 40
7.499999999249999
100
AcDbArc
 50
281.3099324738638
 51
101.3099324738638
  0
LINE
  5
837C
330
1F
100
AcDbEntity
  8
kijun
100
AcDbLine
 10
1029.551104950632
 20
171.4859551885636
 30
0.0
 11
1029.551104950632
 21
189.4859551867637
 31
0.0
  0
LINE
  5
837D
330
1F
100
AcDbEntity
  8
塗板・掲示板
100
AcDbLine
 10
1026.903537126528
 20
168.2286967427524
 30
0.0
 11
1036.709343882461
 21
170.1898580939385
 31
0.0
  0
LINE
  5
837E
330
1F
100
AcDbEntity
  8
塗板・掲示板
100
AcDbLine
 10
1035.924879341984
 20
174.1121807963097
 30
0.0
 11
1036.709343882461
 21
170.1898580939385
 31
0.0
  0
LINE
  5
837F
330
1F
100
AcDbEntity
  8
塗板・掲示板
100
AcDbLine
 10
1026.119072586059
 20
172.1510194451246
 30
0.0
 11
1026.903537126528
 21
168.2286967427524
 31
0.0
  0
LINE
  5
8380
330
1F
100
AcDbEntity
  8
kijun
100
AcDbLine
 10
1020.551104951535
 20
180.4859551876641
 30
0.0
 11
1038.55110494973
 21
180.4859551876641
 31
0.0
  0
LINE
  5
8381
330
1F
100
AcDbEntity
  8
塗板・掲示板
100
AcDbLine
 10
1015.551104952029
 20
236.8859551820222
 30
0.0
 11
1013.251104952259
 21
236.8859551820222
 31
0.0
  0
CIRCLE
  5
8382
330
1F
100
AcDbEntity
  8
塗板・掲示板
100
AcDbCircle
 10
995.5511049540232
 20
264.185955179292
 30
0.0
 40
0.9999999999000001
  0
LINE
  5
8383
330
1F
100
AcDbEntity
  8
塗板・掲示板
100
AcDbLine
 10
959.051104957683
 20
257.5236650662207
 30
0.0
 11
959.051104957683
 21
265.4798242402719
 31
0.0
  0
LINE
  5
8384
330
1F
100
AcDbEntity
  8
saisen
100
AcDbLine
 10
957.3450944767987
 20
257.1645049649821
 30
0.0
 11
995.3450944729935
 21
265.1645049641818
 31
0.0
  0
LINE
  5
8385
330
1F
100
AcDbEntity
  8
saisen
100
AcDbLine
 10
957.3450944767987
 20
227.1645049679817
 30
0.0
 11
995.3450944729935
 21
235.1645049671813
 31
0.0
  0
LINE
  5
8386
330
1F
100
AcDbEntity
  8
saisen
100
AcDbLine
 10
957.7571154388584
 20
225.207405398204
 30
0.0
 11
995.7571154350603
 21
233.2074053974036
 31
0.0
  0
LINE
  5
8387
330
1F
100
AcDbEntity
  8
saisen
100
AcDbLine
 10
957.3450944767987
 20
237.1645049669812
 30
0.0
 11
995.3450944729935
 21
245.1645049661818
 31
0.0
  0
LINE
  5
8388
330
1F
100
AcDbEntity
  8
saisen
100
AcDbLine
 10
957.7571154388584
 20
235.2074053972035
 30
0.0
 11
995.7571154350603
 21
243.2074053964031
 31
0.0
  0
LINE
  5
8389
330
1F
100
AcDbEntity
  8
saisen
100
AcDbLine
 10
957.3450944767987
 20
247.1645049659817
 30
0.0
 11
995.3450944729935
 21
255.1645049651822
 31
0.0
  0
LINE
  5
838A
330
1F
100
AcDbEntity
  8
saisen
100
AcDbLine
 10
957.7571154388584
 20
245.207405396203
 30
0.0
 11
995.7571154350603
 21
253.2074053954036
 31
0.0
  0
LINE
  5
838B
330
1F
100
AcDbEntity
  8
saisen
100
AcDbLine
 10
957.7571154388584
 20
255.2074053952035
 30
0.0
 11
995.7571154350603
 21
263.2074053944041
 31
0.0
  0
LINE
  5
838C
330
1F
100
AcDbEntity
  8
塗板・掲示板
100
AcDbLine
 10
959.051104957683
 20
237.5236650682207
 30
0.0
 11
959.051104957683
 21
245.4798242422719
 31
0.0
  0
LINE
  5
838D
330
1F
100
AcDbEntity
  8
塗板・掲示板
100
AcDbLine
 10
959.051104957683
 20
227.5236650692211
 30
0.0
 11
959.051104957683
 21
235.4798242432723
 31
0.0
  0
LINE
  5
838E
330
1F
100
AcDbEntity
  8
塗板・掲示板
100
AcDbLine
 10
959.051104957683
 20
247.5236650672211
 30
0.0
 11
959.051104957683
 21
255.4798242412715
 31
0.0
  0
CIRCLE
  5
838F
330
1F
100
AcDbEntity
  8
塗板・掲示板
100
AcDbCircle
 10
995.5511049540232
 20
254.1859551802925
 30
0.0
 40
0.9999999999000001
  0
CIRCLE
  5
8390
330
1F
100
AcDbEntity
  8
塗板・掲示板
100
AcDbCircle
 10
995.5511049540232
 20
244.185955181292
 30
0.0
 40
0.9999999999000001
  0
CIRCLE
  5
8391
330
1F
100
AcDbEntity
  8
塗板・掲示板
100
AcDbCircle
 10
995.5511049540232
 20
224.185955183292
 30
0.0
 40
0.9999999999000001
  0
CIRCLE
  5
8392
330
1F
100
AcDbEntity
  8
塗板・掲示板
100
AcDbCircle
 10
995.5511049540232
 20
234.1859551822925
 30
0.0
 40
0.9999999999000001
  0
LINE
  5
8393
330
1F
100
AcDbEntity
  8
塗板・掲示板
100
AcDbLine
 10
994.0511049541832
 20
254.8920861191161
 30
0.0
 11
994.0511049541832
 21
262.8482452931664
 31
0.0
  0
LINE
  5
8394
330
1F
100
AcDbEntity
  8
塗板・掲示板
100
AcDbLine
 10
994.0511049541832
 20
234.8920861211161
 30
0.0
 11
994.0511049541832
 21
242.8482452951673
 31
0.0
  0
LINE
  5
8395
330
1F
100
AcDbEntity
  8
塗板・掲示板
100
AcDbLine
 10
994.0511049541832
 20
224.8920861221157
 30
0.0
 11
994.0511049541832
 21
232.8482452961669
 31
0.0
  0
LINE
  5
8396
330
1F
100
AcDbEntity
  8
塗板・掲示板
100
AcDbLine
 10
994.0511049541832
 20
244.8920861201157
 30
0.0
 11
994.0511049541832
 21
252.8482452941669
 31
0.0
  0
LINE
  5
8397
330
1F
100
AcDbEntity
  8
saisen
100
AcDbLine
 10
957.5511049578285
 20
305.185955175192
 30
0.0
 11
995.5511049540232
 21
305.185955175192
 31
0.0
  0
LINE
  5
8398
330
1F
100
AcDbEntity
  8
saisen
100
AcDbLine
 10
957.7571154388584
 20
295.2074053912036
 30
0.0
 11
995.7571154350603
 21
303.2074053904041
 31
0.0
  0
LINE
  5
8399
330
1F
100
AcDbEntity
  8
saisen
100
AcDbLine
 10
957.3450944767987
 20
297.1645049609822
 30
0.0
 11
995.3450944729935
 21
305.1645049601818
 31
0.0
  0
LINE
  5
839A
330
1F
100
AcDbEntity
  8
saisen
100
AcDbLine
 10
958.5511049577267
 20
306.185955175092
 30
0.0
 11
994.551104954125
 21
306.185955175092
 31
0.0
  0
LINE
  5
839B
330
1F
100
AcDbEntity
  8
saisen
100
AcDbLine
 10
957.7571154388584
 20
285.2074053922031
 30
0.0
 11
995.7571154350603
 21
293.2074053914036
 31
0.0
  0
LINE
  5
839C
330
1F
100
AcDbEntity
  8
saisen
100
AcDbLine
 10
957.3450944767987
 20
287.1645049619817
 30
0.0
 11
995.3450944729935
 21
295.1645049611823
 31
0.0
  0
LINE
  5
839D
330
1F
100
AcDbEntity
  8
saisen
100
AcDbLine
 10
957.3450944767987
 20
267.1645049639817
 30
0.0
 11
995.3450944729935
 21
275.1645049631814
 31
0.0
  0
LINE
  5
839E
330
1F
100
AcDbEntity
  8
saisen
100
AcDbLine
 10
957.7571154388584
 20
265.207405394204
 30
0.0
 11
995.7571154350603
 21
273.2074053934036
 31
0.0
  0
LINE
  5
839F
330
1F
100
AcDbEntity
  8
saisen
100
AcDbLine
 10
957.7571154388584
 20
275.2074053932036
 30
0.0
 11
995.7571154350603
 21
283.2074053924032
 31
0.0
  0
LINE
  5
83A0
330
1F
100
AcDbEntity
  8
saisen
100
AcDbLine
 10
957.3450944767987
 20
277.1645049629813
 30
0.0
 11
995.3450944729935
 21
285.1645049621818
 31
0.0
  0
LINE
  5
83A1
330
1F
100
AcDbEntity
  8
塗板・掲示板
100
AcDbLine
 10
959.051104957683
 20
287.5236650632212
 30
0.0
 11
959.051104957683
 21
295.4798242372715
 31
0.0
  0
LINE
  5
83A2
330
1F
100
AcDbEntity
  8
塗板・掲示板
100
AcDbLine
 10
959.051104957683
 20
297.5236650622217
 30
0.0
 11
959.051104957683
 21
305.185955175192
 31
0.0
  0
LINE
  5
83A3
330
1F
100
AcDbEntity
  8
塗板・掲示板
100
AcDbLine
 10
959.051104957683
 20
267.5236650652212
 30
0.0
 11
959.051104957683
 21
275.4798242392724
 31
0.0
  0
LINE
  5
83A4
330
1F
100
AcDbEntity
  8
塗板・掲示板
100
AcDbLine
 10
959.051104957683
 20
277.5236650642207
 30
0.0
 11
959.051104957683
 21
285.4798242382719
 31
0.0
  0
ARC
  5
83A5
330
1F
100
AcDbEntity
  8
塗板・掲示板
100
AcDbCircle
 10
995.5511049540232
 20
306.185955175092
 30
0.0
 40
0.9999999999000001
100
AcDbArc
 50
180.0
 51
0.0
  0
CIRCLE
  5
83A6
330
1F
100
AcDbEntity
  8
塗板・掲示板
100
AcDbCircle
 10
995.5511049540232
 20
304.1859551752921
 30
0.0
 40
0.9999999999000001
  0
LINE
  5
83A7
330
1F
100
AcDbEntity
  8
塗板・掲示板
100
AcDbLine
 10
994.551104954125
 20
306.185955175092
 30
0.0
 11
996.5511049539285
 21
306.185955175092
 31
0.0
  0
CIRCLE
  5
83A8
330
1F
100
AcDbEntity
  8
塗板・掲示板
100
AcDbCircle
 10
995.5511049540232
 20
294.1859551762925
 30
0.0
 40
0.9999999999000001
  0
LINE
  5
83A9
330
1F
100
AcDbEntity
  8
塗板・掲示板
100
AcDbLine
 10
994.0511049541832
 20
304.8920861141157
 30
0.0
 11
994.0511049541832
 21
305.185955175192
 31
0.0
  0
LINE
  5
83AA
330
1F
100
AcDbEntity
  8
塗板・掲示板
100
AcDbLine
 10
994.0511049541832
 20
284.8920861161157
 30
0.0
 11
994.0511049541832
 21
292.8482452901669
 31
0.0
  0
LINE
  5
83AB
330
1F
100
AcDbEntity
  8
塗板・掲示板
100
AcDbLine
 10
994.0511049541832
 20
294.8920861151153
 30
0.0
 11
994.0511049541832
 21
302.8482452891665
 31
0.0
  0
CIRCLE
  5
83AC
330
1F
100
AcDbEntity
  8
塗板・掲示板
100
AcDbCircle
 10
995.5511049540232
 20
274.1859551782925
 30
0.0
 40
0.9999999999000001
  0
LINE
  5
83AD
330
1F
100
AcDbEntity
  8
塗板・掲示板
100
AcDbLine
 10
994.0511049541832
 20
274.8920861171161
 30
0.0
 11
994.0511049541832
 21
282.8482452911664
 31
0.0
  0
LINE
  5
83AE
330
1F
100
AcDbEntity
  8
塗板・掲示板
100
AcDbLine
 10
994.0511049541832
 20
264.8920861181157
 30
0.0
 11
994.0511049541832
 21
272.8482452921669
 31
0.0
  0
CIRCLE
  5
83AF
330
1F
100
AcDbEntity
  8
塗板・掲示板
100
AcDbCircle
 10
995.5511049540232
 20
284.1859551772921
 30
0.0
 40
0.9999999999000001
  0
LINE
  5
83B0
330
1F
100
AcDbEntity
  8
塗板・掲示板
100
AcDbLine
 10
1027.05110495088
 20
252.7859551774316
 30
0.0
 11
1027.05110495088
 21
242.3859576970806
 31
0.0
  0
LINE
  5
83B1
330
1F
100
AcDbEntity
  8
塗板・掲示板
100
AcDbLine
 10
1032.051104950385
 20
252.7859551774316
 30
0.0
 11
1032.051104950385
 21
242.3859576970802
 31
0.0
  0
LINE
  5
83B2
330
1F
100
AcDbEntity
  8
塗板・掲示板
100
AcDbLine
 10
1040.551104949534
 20
236.8859551820222
 30
0.0
 11
1040.551104949534
 21
233.8859551823223
 31
0.0
  0
LINE
  5
83B3
330
1F
100
AcDbEntity
  8
塗板・掲示板
100
AcDbLine
 10
1037.051104949883
 20
238.3859551818721
 30
0.0
 11
1037.051104949883
 21
236.8859551820222
 31
0.0
  0
LINE
  5
83B4
330
1F
100
AcDbEntity
  8
塗板・掲示板
100
AcDbLine
 10
1035.324600773202
 20
241.9393777995562
 30
0.0
 11
1035.324600773202
 21
240.2041440223572
 31
0.0
  0
LINE
  5
83B5
330
1F
100
AcDbEntity
  8
塗板・掲示板
100
AcDbLine
 10
1032.437851032382
 20
241.9393777995562
 30
0.0
 11
1032.437851032382
 21
240.2041411175876
 31
0.0
  0
POLYLINE
  5
83B6
330
1F
100
AcDbEntity
  8
塗板・掲示板
100
AcDb2dPolyline
 66
     1
 10
0.0
 20
0.0
 30
0.0
 70
     2
  0
VERTEX
  5
83B7
330
83B6
100
AcDbEntity
  8
塗板・掲示板
100
AcDbVertex
100
AcDb2dVertex
 10
1035.324600773202
 20
241.9393777995562
 30
0.0
 42
0.075155816800162
 50
270.0
  0
VERTEX
  5
83B8
330
83B6
100
AcDbEntity
  8
塗板・掲示板
100
AcDbVertex
100
AcDb2dVertex
 10
1034.636667208616
 20
242.271762893896
 30
0.0
 42
0.0751558168001588
 70
     1
 50
270.0
  0
VERTEX
  5
83B9
330
83B6
100
AcDbEntity
  8
塗板・掲示板
100
AcDbVertex
100
AcDb2dVertex
 10
1033.881225902792
 20
242.3859595386255
 30
0.0
 42
0.0751558168001682
 50
270.0
  0
VERTEX
  5
83BA
330
83B6
100
AcDbEntity
  8
塗板・掲示板
100
AcDbVertex
100
AcDb2dVertex
 10
1033.125784596961
 20
242.2717628938942
 30
0.0
 42
0.0751558168001455
 70
     1
 50
270.0
  0
VERTEX
  5
83BB
330
83B6
100
AcDbEntity
  8
塗板・掲示板
100
AcDbVertex
100
AcDb2dVertex
 10
1032.437851032382
 20
241.9393777995562
 30
0.0
 50
270.0
  0
SEQEND
  5
83BC
330
83B6
100
AcDbEntity
  8
塗板・掲示板
  0
LINE
  5
83BD
330
1F
100
AcDbEntity
  8
塗板・掲示板
100
AcDbLine
 10
1032.437854691446
 20
238.3859580866426
 30
0.0
 11
1032.437851032382
 21
240.2041411175876
 31
0.0
  0
LINE
  5
83BE
330
1F
100
AcDbEntity
  8
塗板・掲示板
100
AcDbLine
 10
1035.32460443226
 20
238.3859609914123
 30
0.0
 11
1035.324600773202
 21
240.2041440223572
 31
0.0
  0
LINE
  5
83BF
330
1F
100
AcDbEntity
  8
塗板・掲示板
100
AcDbLine
 10
1022.051104951382
 20
236.8859551820222
 30
0.0
 11
1022.051104951382
 21
238.3859551818721
 31
0.0
  0
LINE
  5
83C0
330
1F
100
AcDbEntity
  8
塗板・掲示板
100
AcDbLine
 10
1023.777601809933
 20
241.9393661804713
 30
0.0
 11
1023.777601809933
 21
240.2041324032796
 31
0.0
  0
LINE
  5
83C1
330
1F
100
AcDbEntity
  8
塗板・掲示板
100
AcDbLine
 10
1026.664351550747
 20
241.9393777995562
 30
0.0
 11
1026.664351550747
 21
240.2041353080492
 31
0.0
  0
POLYLINE
  5
83C2
330
1F
100
AcDbEntity
  8
塗板・掲示板
100
AcDb2dPolyline
 66
     1
 10
0.0
 20
0.0
 30
0.0
 70
     2
  0
VERTEX
  5
83C3
330
83C2
100
AcDbEntity
  8
塗板・掲示板
100
AcDbVertex
100
AcDb2dVertex
 10
1023.777595390567
 20
241.9393661804713
 30
0.0
 42
-0.075155816800162
 50
270.0
  0
VERTEX
  5
83C4
330
83C2
100
AcDbEntity
  8
塗板・掲示板
100
AcDbVertex
100
AcDb2dVertex
 10
1024.465528286231
 20
242.2717526592657
 30
0.0
 42
-0.0751558168001588
 70
     1
 50
270.0
  0
VERTEX
  5
83C5
330
83C2
100
AcDbEntity
  8
塗板・掲示板
100
AcDbVertex
100
AcDb2dVertex
 10
1025.220969362236
 20
242.3859508243093
 30
0.0
 42
-0.0751558168001682
 50
270.0
  0
VERTEX
  5
83C6
330
83C2
100
AcDbEntity
  8
塗板・掲示板
100
AcDbVertex
100
AcDb2dVertex
 10
1025.976410897879
 20
242.271755699893
 30
0.0
 42
-0.0751558168001455
 70
     1
 50
270.0
  0
VERTEX
  5
83C7
330
83C2
100
AcDbEntity
  8
塗板・掲示板
100
AcDbVertex
100
AcDb2dVertex
 10
1026.664345131373
 20
241.9393719900097
 30
0.0
 50
270.0
  0
SEQEND
  5
83C8
330
83C2
100
AcDbEntity
  8
塗板・掲示板
  0
LINE
  5
83C9
330
1F
100
AcDbEntity
  8
塗板・掲示板
100
AcDbLine
 10
1026.664355209819
 20
238.3859522771024
 30
0.0
 11
1026.664351550747
 21
240.2041353080492
 31
0.0
  0
LINE
  5
83CA
330
1F
100
AcDbEntity
  8
塗板・掲示板
100
AcDbLine
 10
1023.777605469005
 20
238.3859493723328
 30
0.0
 11
1023.777601809933
 21
240.2041324032796
 31
0.0
  0
LINE
  5
83CB
330
1F
100
AcDbEntity
  8
塗板・掲示板
100
AcDbLine
 10
1040.551104949534
 20
233.8859551823223
 30
0.0
 11
1018.551104951731
 21
233.8859551823223
 31
0.0
  0
LINE
  5
83CC
330
1F
100
AcDbEntity
  8
塗板・掲示板
100
AcDbLine
 10
1022.051104951382
 20
238.3859551818721
 30
0.0
 11
1037.051104949883
 21
238.3859551818721
 31
0.0
  0
LINE
  5
83CD
330
1F
100
AcDbEntity
  8
塗板・掲示板
100
AcDbLine
 10
1033.881225902792
 20
242.3859595386255
 30
0.0
 11
1025.220969362236
 21
242.3859508243093
 31
0.0
  0
LINE
  5
83CE
330
1F
100
AcDbEntity
  8
塗板・掲示板
100
AcDbLine
 10
1032.437854691446
 20
232.3859580872429
 30
0.0
 11
1032.437858350511
 21
230.5677750562961
 31
0.0
  0
LINE
  5
83CF
330
1F
100
AcDbEntity
  8
塗板・掲示板
100
AcDbLine
 10
1035.32460443226
 20
232.3859609920126
 30
0.0
 11
1035.324608091332
 21
230.5677779610658
 31
0.0
  0
LINE
  5
83D0
330
1F
100
AcDbEntity
  8
塗板・掲示板
100
AcDbLine
 10
1035.324608091332
 20
228.8325441838731
 30
0.0
 11
1035.324608091332
 21
230.5677779610658
 31
0.0
  0
LINE
  5
83D1
330
1F
100
AcDbEntity
  8
塗板・掲示板
100
AcDbLine
 10
1032.437858350511
 20
228.8325325647881
 30
0.0
 11
1032.437858350511
 21
230.5677750562961
 31
0.0
  0
POLYLINE
  5
83D2
330
1F
100
AcDbEntity
  8
塗板・掲示板
100
AcDb2dPolyline
 66
     1
 10
0.0
 20
0.0
 30
0.0
 70
     2
  0
VERTEX
  5
83D3
330
83D2
100
AcDbEntity
  8
塗板・掲示板
100
AcDbVertex
100
AcDb2dVertex
 10
1035.324614510698
 20
228.8325441838731
 30
0.0
 42
-0.075155816800162
 50
270.0
  0
VERTEX
  5
83D4
330
83D2
100
AcDbEntity
  8
塗板・掲示板
100
AcDbVertex
100
AcDb2dVertex
 10
1034.636681615034
 20
228.5001577050796
 30
0.0
 42
-0.0751558168001588
 70
     1
 50
270.0
  0
VERTEX
  5
83D5
330
83D2
100
AcDbEntity
  8
塗板・掲示板
100
AcDbVertex
100
AcDb2dVertex
 10
1033.881240539028
 20
228.3859595400352
 30
0.0
 42
-0.0751558168001682
 50
270.0
  0
VERTEX
  5
83D6
330
83D2
100
AcDbEntity
  8
塗板・掲示板
100
AcDbVertex
100
AcDb2dVertex
 10
1033.125799003386
 20
228.5001546644514
 30
0.0
 42
-0.0751558168001455
 70
     1
 50
270.0
  0
VERTEX
  5
83D7
330
83D2
100
AcDbEntity
  8
塗板・掲示板
100
AcDbVertex
100
AcDb2dVertex
 10
1032.437864769884
 20
228.8325383743347
 30
0.0
 50
270.0
  0
SEQEND
  5
83D8
330
83D2
100
AcDbEntity
  8
塗板・掲示板
  0
LINE
  5
83D9
330
1F
100
AcDbEntity
  8
塗板・掲示板
100
AcDbLine
 10
1026.664355209819
 20
232.3859522777027
 30
0.0
 11
1026.664358868883
 21
230.5677692467568
 31
0.0
  0
LINE
  5
83DA
330
1F
100
AcDbEntity
  8
塗板・掲示板
100
AcDbLine
 10
1023.777605469005
 20
232.3859493729321
 30
0.0
 11
1023.777609128062
 21
230.5677663419881
 31
0.0
  0
LINE
  5
83DB
330
1F
100
AcDbEntity
  8
塗板・掲示板
100
AcDbLine
 10
1023.777609128062
 20
228.8325325647881
 30
0.0
 11
1023.777609128062
 21
230.5677663419881
 31
0.0
  0
LINE
  5
83DC
330
1F
100
AcDbEntity
  8
塗板・掲示板
100
AcDbLine
 10
1026.664358868883
 20
228.8325325647881
 30
0.0
 11
1026.664358868883
 21
230.5677692467568
 31
0.0
  0
POLYLINE
  5
83DD
330
1F
100
AcDbEntity
  8
塗板・掲示板
100
AcDb2dPolyline
 66
     1
 10
0.0
 20
0.0
 30
0.0
 70
     2
  0
VERTEX
  5
83DE
330
83DD
100
AcDbEntity
  8
塗板・掲示板
100
AcDbVertex
100
AcDb2dVertex
 10
1023.777609128062
 20
228.8325325647881
 30
0.0
 42
0.075155816800162
 50
270.0
  0
VERTEX
  5
83DF
330
83DD
100
AcDbEntity
  8
塗板・掲示板
100
AcDbVertex
100
AcDb2dVertex
 10
1024.465542692649
 20
228.5001474704502
 30
0.0
 42
0.0751558168001588
 70
     1
 50
270.0
  0
VERTEX
  5
83E0
330
83DD
100
AcDbEntity
  8
塗板・掲示板
100
AcDbVertex
100
AcDb2dVertex
 10
1025.220983998473
 20
228.3859508257199
 30
0.0
 42
0.0751558168001682
 50
270.0
  0
VERTEX
  5
83E1
330
83DD
100
AcDbEntity
  8
塗板・掲示板
100
AcDbVertex
100
AcDb2dVertex
 10
1025.976425304304
 20
228.5001474704502
 30
0.0
 42
0.0751558168001455
 70
     1
 50
270.0
  0
VERTEX
  5
83E2
330
83DD
100
AcDbEntity
  8
塗板・掲示板
100
AcDbVertex
100
AcDb2dVertex
 10
1026.664358868883
 20
228.83253256479
 30
0.0
 50
270.0
  0
SEQEND
  5
83E3
330
83DD
100
AcDbEntity
  8
塗板・掲示板
  0
LINE
  5
83E4
330
1F
100
AcDbEntity
  8
塗板・掲示板
100
AcDbLine
 10
1025.220983998473
 20
228.3859508257199
 30
0.0
 11
1033.881240539028
 21
228.3859595400352
 31
0.0
  0
POLYLINE
  5
83E5
330
1F
100
AcDbEntity
  8
塗板・掲示板
100
AcDb2dPolyline
 66
     1
 10
0.0
 20
0.0
 30
0.0
 70
     2
  0
VERTEX
  5
83E6
330
83E5
100
AcDbEntity
  8
塗板・掲示板
100
AcDbVertex
100
AcDb2dVertex
 10
1026.664358868883
 20
228.8325325647881
 30
0.0
 42
0.0383898054358984
 50
270.0
  0
VERTEX
  5
83E7
330
83E5
100
AcDbEntity
  8
塗板・掲示板
100
AcDbVertex
100
AcDb2dVertex
 10
1028.090564249215
 20
228.4982563667197
 30
0.0
 42
0.0383898054358979
 70
     1
 50
270.0
  0
VERTEX
  5
83E8
330
83E5
100
AcDbEntity
  8
塗板・掲示板
100
AcDbVertex
100
AcDb2dVertex
 10
1029.551108609697
 20
228.3859508257199
 30
0.0
 42
0.0383898054358921
 50
270.0
  0
VERTEX
  5
83E9
330
83E5
100
AcDbEntity
  8
塗板・掲示板
100
AcDbVertex
100
AcDb2dVertex
 10
1031.011652970178
 20
228.4982563667197
 30
0.0
 42
0.038389805435896
 70
     1
 50
270.0
  0
VERTEX
  5
83EA
330
83E5
100
AcDbEntity
  8
塗板・掲示板
100
AcDbVertex
100
AcDb2dVertex
 10
1032.437858350511
 20
228.8325325647881
 30
0.0
 50
270.0
  0
SEQEND
  5
83EB
330
83E5
100
AcDbEntity
  8
塗板・掲示板
  0
LINE
  5
83EC
330
1F
100
AcDbEntity
  8
塗板・掲示板
100
AcDbLine
 10
1037.051104949883
 20
232.3859551824723
 30
0.0
 11
1022.051104951382
 21
232.3859551824723
 31
0.0
  0
LINE
  5
83ED
330
1F
100
AcDbEntity
  8
塗板・掲示板
100
AcDbLine
 10
1022.051104951382
 20
232.3859551824723
 30
0.0
 11
1022.051104951382
 21
233.8859551823223
 31
0.0
  0
LINE
  5
83EE
330
1F
100
AcDbEntity
  8
塗板・掲示板
100
AcDbLine
 10
1037.051104949883
 20
233.8859551823223
 30
0.0
 11
1037.051104949883
 21
232.3859551824723
 31
0.0
  0
LINE
  5
83EF
330
1F
100
AcDbEntity
  8
塗板・掲示板
100
AcDbLine
 10
1015.551104952029
 20
236.8859551820222
 30
0.0
 11
1040.551104949534
 21
236.8859551820222
 31
0.0
  0
DIMENSION
  5
83F0
330
1F
100
AcDbEntity
  8
sunpo
100
AcDbDimension
  2
*D25
 10
1057.551104947831
 20
381.4074136938868
 30
0.0
 11
1000.051104953583
 21
385.6074136938868
 31
0.0
 70
    32
  1
<>
 71
     5
 42
114.9999999884958
  3
dim2
100
AcDbAlignedDimension
 13
942.5511049593355
 23
377.8884773318512
 33
0.0
 14
1057.551104947831
 24
377.8884773318512
 34
0.0
100
AcDbRotatedDimension
  0
DIMENSION
  5
83F1
330
1F
100
AcDbEntity
  8
sunpo
100
AcDbDimension
  2
*D24
 10
1057.551104947832
 20
313.7709778804617
 30
0.0
 11
1007.030434416811
 21
319.0407985142047
 31
0.0
 70
   160
 71
     5
 42
121.9999999883593
  3
dim2
100
AcDbAlignedDimension
 13
935.551104959473
 23
287.8334778804617
 33
0.0
 14
1057.551104947832
 24
353.2850077989185
 34
0.0
100
AcDbRotatedDimension
  0
LINE
  5
83F2
330
1F
100
AcDbEntity
  8
塗板・掲示板
100
AcDbLine
 10
952.5511049583306
 20
351.2850077991186
 30
0.0
 11
1000.551104953536
 21
351.2850077991186
 31
0.0
  0
LINE
  5
83F3
330
1F
100
AcDbEntity
  8
塗板・掲示板
100
AcDbLine
 10
1057.551104947831
 20
353.2850077989185
 30
0.0
 11
942.5511049593346
 21
353.2850077989185
 31
0.0
  0
LINE
  5
83F4
330
1F
100
AcDbEntity
  8
saisen-2
100
AcDbLine
 10
786.2280811481046
 20
431.9395532301111
 30
0.0
 11
1145.051104947831
 21
431.9395532301175
 31
0.0
  0
LINE
  5
83F5
330
1F
100
AcDbEntity
  8
saisen-2
100
AcDbLine
 10
786.2280811481046
 20
446.9395532301112
 30
0.0
 11
1145.051104947831
 21
446.9395532301166
 31
0.0
  0
LINE
  5
83F6
330
1F
100
AcDbEntity
  8
saisen-2
100
AcDbLine
 10
786.2280811481046
 20
506.9288717953211
 30
0.0
 11
1145.051104947831
 21
506.9288717953193
 31
0.0
  0
LINE
  5
83F7
330
1F
100
AcDbEntity
  8
saisen-2
100
AcDbLine
 10
786.2280811481046
 20
491.9288717953202
 30
0.0
 11
1145.051104947831
 21
491.9288717953202
 31
0.0
  0
LINE
  5
83F8
330
1F
100
AcDbEntity
  8
塗板・掲示板
100
AcDbLine
 10
942.5511049593346
 20
431.9395532301139
 30
0.0
 11
942.5511049593346
 21
353.2850077989185
 31
0.0
  0
LINE
  5
83F9
330
1F
100
AcDbEntity
  8
塗板・掲示板
100
AcDbLine
 10
952.5511049583306
 20
353.2850077989185
 30
0.0
 11
952.5511049583306
 21
351.2850077991186
 31
0.0
  0
LINE
  5
83FA
330
1F
100
AcDbEntity
  8
saisen
100
AcDbLine
 10
932.8511049498279
 20
491.9288717953202
 30
0.0
 11
932.8511049498279
 21
446.9395532301139
 31
0.0
  0
LINE
  5
83FB
330
1F
100
AcDbEntity
  8
saisen
100
AcDbLine
 10
909.9511049522275
 20
446.9395532301139
 30
0.0
 11
909.9511049522275
 21
491.9288717953202
 31
0.0
  0
LINE
  5
83FC
330
1F
100
AcDbEntity
  8
塗板・掲示板
100
AcDbLine
 10
905.9511049629813
 20
446.9395532301139
 30
0.0
 11
905.9511049629813
 21
491.9288717953202
 31
0.0
  0
LINE
  5
83FD
330
1F
100
AcDbEntity
  8
塗板・掲示板
100
AcDbLine
 10
942.5511049593346
 20
491.9288717953202
 30
0.0
 11
942.5511049593346
 21
446.9395532301139
 31
0.0
  0
LINE
  5
83FE
330
1F
100
AcDbEntity
  8
塗板・掲示板
100
AcDbLine
 10
905.5511049560969
 20
491.9288717953202
 30
0.0
 11
905.5511049568607
 21
446.9395532301139
 31
0.0
  0
LINE
  5
83FF
330
1F
100
AcDbEntity
  8
塗板・掲示板
100
AcDbLine
 10
935.5511049568608
 20
446.9395532301139
 30
0.0
 11
935.5511049560968
 21
491.9288717953202
 31
0.0
  0
DIMENSION
  5
8400
330
1F
100
AcDbEntity
  8
sunpo
100
AcDbDimension
  2
*D23
 10
1111.417070196535
 20
403.2850077989194
 30
0.0
 11
1107.217070196535
 21
436.0122805176787
 31
0.0
 70
    32
  1
250
 71
     5
 42
65.45454543751839
  3
dim2
100
AcDbAlignedDimension
 13
1111.417070196536
 23
468.7395532364377
 33
0.0
 14
1111.417070196535
 24
403.2850077989194
 34
0.0
 50
90.0
100
AcDbRotatedDimension
  0
LINE
  5
8401
330
1F
100
AcDbEntity
  8
塗板・掲示板
100
AcDbLine
 10
1054.351104948154
 20
431.9395532301157
 30
0.0
 11
1054.351104948154
 21
353.2850077989185
 31
0.0
  0
LINE
  5
8402
330
1F
100
AcDbEntity
  8
hasen
100
AcDbLine
 10
1103.842844735228
 20
408.2850077859164
 30
0.0
 11
1054.351104959337
 21
408.2850077859164
 31
0.0
  0
LINE
  5
8403
330
1F
100
AcDbEntity
  8
hasen
100
AcDbLine
 10
1054.351104959337
 20
398.2850077859164
 30
0.0
 11
1103.842844735206
 21
398.2850077859164
 31
0.0
  0
LINE
  5
8404
330
1F
100
AcDbEntity
  8
kijun
100
AcDbLine
 10
1031.351104948154
 20
403.285007793919
 30
0.0
 11
1127.916016741548
 21
403.285007793919
 31
0.0
  0
LINE
  5
8405
330
1F
100
AcDbEntity
  8
塗板・掲示板
100
AcDbLine
 10
959.051104957683
 20
330.2354814884554
 30
0.0
 11
959.051104957683
 21
351.2850077991186
 31
0.0
  0
LINE
  5
8406
330
1F
100
AcDbEntity
  8
塗板・掲示板
100
AcDbLine
 10
994.0511049541832
 20
330.2354814884609
 30
0.0
 11
994.0511049541832
 21
351.2850077991186
 31
0.0
  0
ARC
  5
8407
330
1F
100
AcDbEntity
  8
saisen
100
AcDbCircle
 10
985.3011049550564
 20
306.172981490871
 30
0.0
 40
16.56249999833489
100
AcDbArc
 50
58.10920819817311
 51
121.8907918018269
  0
ARC
  5
8408
330
1F
100
AcDbEntity
  8
saisen
100
AcDbCircle
 10
985.3011049550492
 20
344.2979814870402
 30
0.0
 40
16.56249999833489
100
AcDbArc
 50
238.1092081981731
 51
301.8907918018269
  0
ARC
  5
8409
330
1F
100
AcDbEntity
  8
saisen
100
AcDbCircle
 10
985.3011049550564
 20
334.2979814880407
 30
0.0
 40
16.56249999833489
100
AcDbArc
 50
238.1092081981731
 51
301.8907918018269
  0
ARC
  5
840A
330
1F
100
AcDbEntity
  8
saisen
100
AcDbCircle
 10
967.8011049568025
 20
306.1729814908701
 30
0.0
 40
16.5624999983358
100
AcDbArc
 50
58.10920819817311
 51
121.8907918018269
  0
ARC
  5
840B
330
1F
100
AcDbEntity
  8
saisen
100
AcDbCircle
 10
967.8011049568025
 20
316.1729814898697
 30
0.0
 40
16.5624999983358
100
AcDbArc
 50
58.10920819817311
 51
121.8907918018269
  0
ARC
  5
840C
330
1F
100
AcDbEntity
  8
saisen
100
AcDbCircle
 10
967.8011049568025
 20
344.2979814870412
 30
0.0
 40
16.5624999983358
100
AcDbArc
 50
238.1092081981731
 51
301.8907918018269
  0
LINE
  5
840D
330
1F
100
AcDbEntity
  8
塗板・掲示板
100
AcDbLine
 10
1000.551104953536
 20
351.2850077991186
 30
0.0
 11
1000.551104953536
 21
353.2850077989185
 31
0.0
  0
ARC
  5
840E
330
1F
100
AcDbEntity
  8
塗板・掲示板
100
AcDbCircle
 10
1058.736573768337
 20
403.285007793919
 30
0.0
 40
15.28546882018339
100
AcDbArc
 50
162.4120462259885
 51
197.5879537740114
  0
LINE
  5
840F
330
1F
100
AcDbEntity
  8
塗板・掲示板
100
AcDbLine
 10
1043.451104948153
 20
395.285007793919
 30
0.0
 11
1043.451104948153
 21
411.285007793919
 31
0.0
  0
LINE
  5
8410
330
1F
100
AcDbEntity
  8
塗板・掲示板
100
AcDbLine
 10
1051.851104948154
 20
394.0474034868846
 30
0.0
 11
1051.851104948154
 21
412.5226121009534
 31
0.0
  0
ARC
  5
8411
330
1F
100
AcDbEntity
  8
塗板・掲示板
100
AcDbCircle
 10
1044.408147201671
 20
403.285007793919
 30
0.0
 40
8.057042253520126
100
AcDbArc
 50
96.82188991081632
 51
263.1781100891836
  0
ARC
  5
8412
330
1F
100
AcDbEntity
  8
塗板・掲示板
100
AcDbCircle
 10
1051.808370538057
 20
395.285007793919
 30
0.0
 40
8.35726558990833
100
AcDbArc
 50
156.1350745838456
 51
180.0
  0
LINE
  5
8413
330
1F
100
AcDbEntity
  8
塗板・掲示板
100
AcDbLine
 10
1044.165636127969
 20
394.0474034868846
 30
0.0
 11
1043.451104948153
 21
395.285007793919
 31
0.0
  0
LINE
  5
8414
330
1F
100
AcDbEntity
  8
塗板・掲示板
100
AcDbLine
 10
1051.851104948154
 20
398.6662056404027
 30
0.0
 11
1044.165636127969
 21
398.6662056404027
 31
0.0
  0
LINE
  5
8415
330
1F
100
AcDbEntity
  8
塗板・掲示板
100
AcDbLine
 10
1044.165636127969
 20
394.0474034868846
 30
0.0
 11
1054.351104948154
 21
394.0474034868846
 31
0.0
  0
ARC
  5
8416
330
1F
100
AcDbEntity
  8
塗板・掲示板
100
AcDbCircle
 10
1051.808370538057
 20
411.285007793919
 30
0.0
 40
8.35726558990833
100
AcDbArc
 50
180.0
 51
203.8649254161544
  0
LINE
  5
8417
330
1F
100
AcDbEntity
  8
塗板・掲示板
100
AcDbLine
 10
1043.451104948153
 20
411.285007793919
 30
0.0
 11
1044.165636127969
 21
412.5226121009534
 31
0.0
  0
LINE
  5
8418
330
1F
100
AcDbEntity
  8
塗板・掲示板
100
AcDbLine
 10
1044.165636127969
 20
407.9038099474352
 30
0.0
 11
1051.851104948154
 21
407.9038099474352
 31
0.0
  0
LINE
  5
8419
330
1F
100
AcDbEntity
  8
塗板・掲示板
100
AcDbLine
 10
1054.351104948154
 20
412.5226121009552
 30
0.0
 11
1044.165636127969
 21
412.5226121009534
 31
0.0
  0
DIMENSION
  5
841A
330
1F
100
AcDbEntity
  8
sunpo
100
AcDbDimension
  2
*D22
 10
1111.417070196535
 20
353.2850077989185
 30
0.0
 11
1107.217070196535
 21
378.2850077989191
 31
0.0
 70
    32
 71
     5
 42
50.00000000000091
  3
dim2
100
AcDbAlignedDimension
 13
1111.417070196535
 23
403.2850077989194
 33
0.0
 14
1057.551104947857
 24
353.2850077989185
 34
0.0
 50
90.0
100
AcDbRotatedDimension
  0
LINE
  5
841B
330
1F
100
AcDbEntity
  8
hasen
100
AcDbLine
 10
1122.916016741548
 20
411.3790366534583
 30
0.0
 11
1122.916016741548
 21
395.1909789183744
 31
0.0
  0
LINE
  5
841C
330
1F
100
AcDbEntity
  8
hasen
100
AcDbLine
 10
1087.551104959276
 20
398.2850077859164
 30
0.0
 11
1122.916016741541
 21
395.1909789183744
 31
0.0
  0
LINE
  5
841D
330
1F
100
AcDbEntity
  8
hasen
100
AcDbLine
 10
1087.551104959298
 20
408.2850077859164
 30
0.0
 11
1122.916016741548
 21
411.3790366534583
 31
0.0
  0
LINE
  5
841E
330
1F
100
AcDbEntity
  8
hasen
100
AcDbLine
 10
1103.842844735228
 20
473.7395532234357
 30
0.0
 11
1054.351104959337
 21
473.7395532234357
 31
0.0
  0
LINE
  5
841F
330
1F
100
AcDbEntity
  8
hasen
100
AcDbLine
 10
1054.351104959337
 20
463.7395532234356
 30
0.0
 11
1103.842844735206
 21
463.7395532234356
 31
0.0
  0
LINE
  5
8420
330
1F
100
AcDbEntity
  8
kijun
100
AcDbLine
 10
1031.351104948147
 20
468.7395532314374
 30
0.0
 11
1127.916016741548
 21
468.7395532314383
 31
0.0
  0
LINE
  5
8421
330
1F
100
AcDbEntity
  8
kijun
100
AcDbLine
 10
1031.351104948154
 20
534.1940986689185
 30
0.0
 11
1127.916016741548
 21
534.1940986689185
 31
0.0
  0
ARC
  5
8422
330
1F
100
AcDbEntity
  8
塗板・掲示板
100
AcDbCircle
 10
1051.808370538057
 20
476.7395532314374
 30
0.0
 40
8.35726558990833
100
AcDbArc
 50
180.0
 51
203.8649254161544
  0
LINE
  5
8423
330
1F
100
AcDbEntity
  8
塗板・掲示板
100
AcDbLine
 10
1043.451104948146
 20
476.7395532314374
 30
0.0
 11
1044.165636127961
 21
477.9771575384718
 31
0.0
  0
ARC
  5
8424
330
1F
100
AcDbEntity
  8
塗板・掲示板
100
AcDbCircle
 10
1051.808370538057
 20
460.7395532314374
 30
0.0
 40
8.35726558990833
100
AcDbArc
 50
156.1350745838456
 51
180.0
  0
LINE
  5
8425
330
1F
100
AcDbEntity
  8
塗板・掲示板
100
AcDbLine
 10
1044.165636127961
 20
459.5019489244029
 30
0.0
 11
1043.451104948146
 21
460.7395532314374
 31
0.0
  0
ARC
  5
8426
330
1F
100
AcDbEntity
  8
塗板・掲示板
100
AcDbCircle
 10
1058.73657376833
 20
468.7395532314374
 30
0.0
 40
15.28546882018339
100
AcDbArc
 50
162.4120462259885
 51
197.5879537740114
  0
LINE
  5
8427
330
1F
100
AcDbEntity
  8
塗板・掲示板
100
AcDbLine
 10
1043.451104948146
 20
460.7395532314374
 30
0.0
 11
1043.451104948146
 21
476.7395532314374
 31
0.0
  0
ARC
  5
8428
330
1F
100
AcDbEntity
  8
塗板・掲示板
100
AcDbCircle
 10
1044.408147201671
 20
468.7395532314374
 30
0.0
 40
8.057042253520126
100
AcDbArc
 50
96.82188991081632
 51
263.1781100891836
  0
LINE
  5
8429
330
1F
100
AcDbEntity
  8
塗板・掲示板
100
AcDbLine
 10
1044.165636127961
 20
473.3583553849537
 30
0.0
 11
1051.851104948147
 21
473.3583553849537
 31
0.0
  0
LINE
  5
842A
330
1F
100
AcDbEntity
  8
塗板・掲示板
100
AcDbLine
 10
1054.351104948147
 20
477.9771575384736
 30
0.0
 11
1044.165636127961
 21
477.9771575384718
 31
0.0
  0
LINE
  5
842B
330
1F
100
AcDbEntity
  8
塗板・掲示板
100
AcDbLine
 10
1051.851104948147
 20
464.1207510779211
 30
0.0
 11
1044.165636127961
 21
464.1207510779211
 31
0.0
  0
LINE
  5
842C
330
1F
100
AcDbEntity
  8
塗板・掲示板
100
AcDbLine
 10
1044.165636127961
 20
459.5019489244029
 30
0.0
 11
1054.351104948147
 21
459.5019489244029
 31
0.0
  0
LINE
  5
842D
330
1F
100
AcDbEntity
  8
塗板・掲示板
100
AcDbLine
 10
1051.851104948147
 20
459.5019489244029
 30
0.0
 11
1051.851104948147
 21
477.9771575384718
 31
0.0
  0
DIMENSION
  5
842E
330
1F
100
AcDbEntity
  8
sunpo
100
AcDbDimension
  2
*D21
 10
1111.417070196535
 20
468.7395532364377
 30
0.0
 11
1107.217070196535
 21
501.4668259551785
 31
0.0
 70
    32
  1
150
 71
     5
 42
65.4545454374811
  3
dim2
100
AcDbAlignedDimension
 13
1111.417070196558
 23
534.1940986739189
 33
0.0
 14
1111.417070196536
 24
468.7395532364377
 34
0.0
 50
90.0
100
AcDbRotatedDimension
  0
LINE
  5
842F
330
1F
100
AcDbEntity
  8
hasen
100
AcDbLine
 10
1087.551104959298
 20
473.7395532234357
 30
0.0
 11
1122.916016741548
 21
476.8335820909776
 31
0.0
  0
LINE
  5
8430
330
1F
100
AcDbEntity
  8
hasen
100
AcDbLine
 10
1087.551104959276
 20
463.7395532234356
 30
0.0
 11
1122.916016741541
 21
460.6455243558936
 31
0.0
  0
LINE
  5
8431
330
1F
100
AcDbEntity
  8
hasen
100
AcDbLine
 10
1122.916016741548
 20
476.8335820909776
 30
0.0
 11
1122.916016741548
 21
460.6455243558936
 31
0.0
  0
LINE
  5
8432
330
1F
100
AcDbEntity
  8
1
100
AcDbLine
 10
1133.317771609343
 20
468.7395532314155
 30
0.0
 11
1133.317771609343
 21
468.7395532314155
 31
0.0
  0
DIMENSION
  5
8433
330
1F
100
AcDbEntity
  8
sunpo
100
AcDbDimension
  2
*D20
 10
1057.551104947832
 20
651.2545543178582
 30
0.0
 11
1006.038200224644
 21
655.8322550878947
 31
0.0
 70
   160
 71
     5
 42
121.9999999968577
  3
dim2
100
AcDbAlignedDimension
 13
935.5511049509745
 23
656.2545543178583
 33
0.0
 14
1057.551104947832
 24
584.194098663919
 34
0.0
100
AcDbRotatedDimension
  0
DIMENSION
  5
8434
330
1F
100
AcDbEntity
  8
sunpo
100
AcDbDimension
  2
*D19
 10
1015.551104952029
 20
694.3675862372781
 30
0.0
 11
975.5511049527973
 21
698.5675862372781
 31
0.0
 70
    32
 71
     5
 42
79.99999999846477
  3
dim2
100
AcDbAlignedDimension
 13
935.5511049535648
 23
711.3227731083486
 33
0.0
 14
1015.551104952029
 24
711.3227731108497
 34
0.0
100
AcDbRotatedDimension
  0
LINE
  5
8435
330
1F
100
AcDbEntity
  8
塗板・掲示板
100
AcDbLine
 10
956.5511049579304
 20
678.1940986545184
 30
0.0
 11
958.5511049577339
 21
678.1940986545184
 31
0.0
  0
CIRCLE
  5
8436
330
1F
100
AcDbEntity
  8
塗板・掲示板
100
AcDbCircle
 10
957.5511049578285
 20
668.1940986555189
 30
0.0
 40
0.9999999999000001
  0
ARC
  5
8437
330
1F
100
AcDbEntity
  8
塗板・掲示板
100
AcDbCircle
 10
957.5511049578285
 20
678.1940986545184
 30
0.0
 40
0.9999999999000001
100
AcDbArc
 50
180.0
 51
0.0
  0
CIRCLE
  5
8438
330
1F
100
AcDbEntity
  8
塗板・掲示板
100
AcDbCircle
 10
957.5511049578285
 20
658.1940986565193
 30
0.0
 40
0.9999999999000001
  0
CIRCLE
  5
8439
330
1F
100
AcDbEntity
  8
塗板・掲示板
100
AcDbCircle
 10
957.5511049578285
 20
638.1940986585184
 30
0.0
 40
0.9999999999000001
  0
CIRCLE
  5
843A
330
1F
100
AcDbEntity
  8
塗板・掲示板
100
AcDbCircle
 10
957.5511049578285
 20
628.1940986595189
 30
0.0
 40
0.9999999999000001
  0
CIRCLE
  5
843B
330
1F
100
AcDbEntity
  8
塗板・掲示板
100
AcDbCircle
 10
957.5511049578285
 20
618.1940986605193
 30
0.0
 40
0.9999999999000001
  0
CIRCLE
  5
843C
330
1F
100
AcDbEntity
  8
塗板・掲示板
100
AcDbCircle
 10
957.5511049578285
 20
648.1940986575189
 30
0.0
 40
0.9999999999000001
  0
CIRCLE
  5
843D
330
1F
100
AcDbEntity
  8
塗板・掲示板
100
AcDbCircle
 10
957.5511049578285
 20
608.1940986615189
 30
0.0
 40
0.9999999999000001
  0
CIRCLE
  5
843E
330
1F
100
AcDbEntity
  8
塗板・掲示板
100
AcDbCircle
 10
957.5511049578285
 20
588.1940986635188
 30
0.0
 40
0.9999999999000001
  0
ARC
  5
843F
330
1F
100
AcDbEntity
  8
塗板・掲示板
100
AcDbCircle
 10
957.5511049578285
 20
586.1940986637189
 30
0.0
 40
0.9999999999000001
100
AcDbArc
 50
0.0
 51
180.0
  0
CIRCLE
  5
8440
330
1F
100
AcDbEntity
  8
塗板・掲示板
100
AcDbCircle
 10
957.5511049578285
 20
598.1940986625184
 30
0.0
 40
0.9999999999000001
  0
LINE
  5
8441
330
1F
100
AcDbEntity
  8
塗板・掲示板
100
AcDbLine
 10
952.5511049583306
 20
586.1940986637189
 30
0.0
 11
1000.551104953536
 21
586.1940986637189
 31
0.0
  0
LINE
  5
8442
330
1F
100
AcDbEntity
  8
塗板・掲示板
100
AcDbLine
 10
1057.551104947831
 20
584.194098663919
 30
0.0
 11
942.5511049593346
 21
584.194098663919
 31
0.0
  0
LINE
  5
8443
330
1F
100
AcDbEntity
  8
塗板・掲示板
100
AcDbLine
 10
935.5511049413339
 20
736.3227731083505
 30
0.0
 11
1015.551104952029
 21
736.3227731083496
 31
0.0
  0
LINE
  5
8444
330
1F
100
AcDbEntity
  8
塗板・掲示板
100
AcDbLine
 10
937.8511049598031
 20
734.0227731085803
 30
0.0
 11
1013.251104952259
 21
734.0227731085803
 31
0.0
  0
LINE
  5
8445
330
1F
100
AcDbEntity
  8
塗板・掲示板
100
AcDbLine
 10
1008.551104952735
 20
739.3227731080503
 30
0.0
 11
908.5511049627326
 21
739.3227731080503
 31
0.0
  0
LINE
  5
8446
330
1F
100
AcDbEntity
  8
塗板・掲示板
100
AcDbLine
 10
937.851104941104
 20
711.3227731083486
 30
0.0
 11
937.851104941104
 21
734.0227731060792
 31
0.0
  0
LINE
  5
8447
330
1F
100
AcDbEntity
  8
saisen
100
AcDbLine
 10
909.9511049575244
 20
705.3231301264911
 30
0.0
 11
932.8511049551249
 21
735.322773108345
 31
0.0
  0
LINE
  5
8448
330
1F
100
AcDbEntity
  8
塗板・掲示板
100
AcDbLine
 10
935.5511049413339
 20
736.3227731083505
 30
0.0
 11
935.5511049413339
 21
711.3227731083486
 31
0.0
  0
LINE
  5
8449
330
1F
100
AcDbEntity
  8
2tensasen
100
AcDbLine
 10
956.5511049579304
 20
678.1940986545184
 30
0.0
 11
956.5511049579304
 21
586.1940986637189
 31
0.0
  0
LINE
  5
844A
330
1F
100
AcDbEntity
  8
塗板・掲示板
100
AcDbLine
 10
952.5511049583306
 20
584.194098663919
 30
0.0
 11
952.5511049583306
 21
586.1940986637189
 31
0.0
  0
DIMENSION
  5
844B
330
1F
100
AcDbEntity
  8
sunpo
100
AcDbDimension
  2
*D18
 10
935.5511049509745
 20
651.2545543178582
 30
0.0
 11
920.5511049644279
 21
655.4545543178583
 31
0.0
 70
    32
 71
     5
 42
29.99999997309351
  3
dim2
100
AcDbAlignedDimension
 13
905.5511049778811
 23
671.7922179998165
 33
0.0
 14
935.5511049509745
 24
651.2545543178582
 34
0.0
100
AcDbRotatedDimension
  0
LINE
  5
844C
330
1F
100
AcDbEntity
  8
saisen
100
AcDbLine
 10
909.9511049575244
 20
705.3231301264911
 30
0.0
 11
932.8511049551249
 21
705.3191178587565
 31
0.0
  0
LINE
  5
844D
330
1F
100
AcDbEntity
  8
塗板・掲示板
100
AcDbLine
 10
935.5511049413339
 20
711.3227731083486
 30
0.0
 11
937.851104941104
 21
711.3227731083486
 31
0.0
  0
LINE
  5
844E
330
1F
100
AcDbEntity
  8
塗板・掲示板
100
AcDbLine
 10
935.5511049654319
 20
735.3227731083486
 30
0.0
 11
905.0511049654319
 21
735.3227731083486
 31
0.0
  0
LINE
  5
844F
330
1F
100
AcDbEntity
  8
hasen
100
AcDbLine
 10
919.0511049616848
 20
737.8227731081994
 30
0.0
 11
916.0511049619831
 21
739.3227731080503
 31
0.0
  0
LINE
  5
8450
330
1F
100
AcDbEntity
  8
hasen
100
AcDbLine
 10
919.0511049616848
 20
737.8227731081994
 30
0.0
 11
922.0511049613792
 21
737.8227731081994
 31
0.0
  0
LINE
  5
8451
330
1F
100
AcDbEntity
  8
塗板・掲示板
100
AcDbLine
 10
908.5511049627326
 20
736.3227731083505
 30
0.0
 11
908.5511049627326
 21
739.3227731080503
 31
0.0
  0
LINE
  5
8452
330
1F
100
AcDbEntity
  8
hasen
100
AcDbLine
 10
922.0511049613792
 20
737.8227731081994
 30
0.0
 11
925.0511049610809
 21
739.3227731080503
 31
0.0
  0
LINE
  5
8453
330
1F
100
AcDbEntity
  8
kijun
100
AcDbLine
 10
920.5511049615321
 20
716.4206228788887
 30
0.0
 11
920.5511049615321
 21
739.3227731080503
 31
0.0
  0
LINE
  5
8454
330
1F
100
AcDbEntity
  8
hasen
100
AcDbLine
 10
922.0511049613792
 20
737.8227731081994
 30
0.0
 11
922.0511049613792
 21
724.3227731095501
 31
0.0
  0
LINE
  5
8455
330
1F
100
AcDbEntity
  8
hasen
100
AcDbLine
 10
919.0511049616848
 20
724.3227731095501
 30
0.0
 11
919.0511049616848
 21
737.8227731081994
 31
0.0
  0
LINE
  5
8456
330
1F
100
AcDbEntity
  8
塗板・掲示板
100
AcDbLine
 10
935.5511049533829
 20
736.3227731083496
 30
0.0
 11
935.5511049533829
 21
726.3227731083495
 31
0.0
  0
LINE
  5
8457
330
1F
100
AcDbEntity
  8
塗板・掲示板
100
AcDbLine
 10
1013.251104952259
 20
711.3227731108497
 30
0.0
 11
1013.251104952259
 21
734.0227731085803
 31
0.0
  0
LINE
  5
8458
330
1F
100
AcDbEntity
  8
塗板・掲示板
100
AcDbLine
 10
994.0511049541841
 20
734.0227731085803
 30
0.0
 11
994.0511049541832
 21
702.707127844226
 31
0.0
  0
LINE
  5
8459
330
1F
100
AcDbEntity
  8
塗板・掲示板
100
AcDbLine
 10
959.051104957683
 20
734.0227731085803
 30
0.0
 11
959.051104957683
 21
702.7071278442315
 31
0.0
  0
LINE
  5
845A
330
1F
100
AcDbEntity
  8
塗板・掲示板
100
AcDbLine
 10
1015.551104952029
 20
736.3227731083496
 30
0.0
 11
1015.551104952029
 21
711.3227731108497
 31
0.0
  0
LINE
  5
845B
330
1F
100
AcDbEntity
  8
塗板・掲示板
100
AcDbLine
 10
994.0511049541832
 20
644.8563887715934
 30
0.0
 11
994.0511049541832
 21
636.9002295975404
 31
0.0
  0
LINE
  5
845C
330
1F
100
AcDbEntity
  8
塗板・掲示板
100
AcDbLine
 10
959.051104957683
 20
647.4879677186988
 30
0.0
 11
959.051104957683
 21
639.5318085446458
 31
0.0
  0
LINE
  5
845D
330
1F
100
AcDbEntity
  8
saisen
100
AcDbLine
 10
957.7571154388584
 20
637.2155488736304
 30
0.0
 11
995.7571154350603
 21
645.2155488728301
 31
0.0
  0
LINE
  5
845E
330
1F
100
AcDbEntity
  8
saisen
100
AcDbLine
 10
957.3450944767987
 20
639.1726484434073
 30
0.0
 11
995.3450944730006
 21
647.1726484426078
 31
0.0
  0
LINE
  5
845F
330
1F
100
AcDbEntity
  8
2tensasen
100
AcDbLine
 10
996.5511049539285
 20
678.1940986545184
 30
0.0
 11
996.5511049539285
 21
586.1940986637189
 31
0.0
  0
LINE
  5
8460
330
1F
100
AcDbEntity
  8
2tensasen
100
AcDbLine
 10
994.5511049541323
 20
678.1940986545184
 30
0.0
 11
994.5511049541323
 21
586.1940986637189
 31
0.0
  0
LINE
  5
8461
330
1F
100
AcDbEntity
  8
2tensasen
100
AcDbLine
 10
958.5511049577339
 20
678.1940986545184
 30
0.0
 11
958.5511049577339
 21
586.1940986637189
 31
0.0
  0
LINE
  5
8462
330
1F
100
AcDbEntity
  8
kijun
100
AcDbLine
 10
995.5511049540305
 20
584.9940986638391
 30
0.0
 11
995.5511049540305
 21
679.3940986543991
 31
0.0
  0
LINE
  5
8463
330
1F
100
AcDbEntity
  8
kijun
100
AcDbLine
 10
957.5511049578285
 20
584.9940986638391
 30
0.0
 11
957.5511049578285
 21
679.3940986543991
 31
0.0
  0
LINE
  5
8464
330
1F
100
AcDbEntity
  8
塗板・掲示板
100
AcDbLine
 10
994.0511049541832
 20
604.8563887755933
 30
0.0
 11
994.0511049541832
 21
596.9002296015402
 31
0.0
  0
LINE
  5
8465
330
1F
100
AcDbEntity
  8
saisen
100
AcDbLine
 10
957.7571154388584
 20
597.2155488776304
 30
0.0
 11
995.7571154350603
 21
605.2155488768301
 31
0.0
  0
LINE
  5
8466
330
1F
100
AcDbEntity
  8
saisen
100
AcDbLine
 10
957.7571154388584
 20
587.2155488786299
 30
0.0
 11
995.7571154350603
 21
595.2155488778305
 31
0.0
  0
LINE
  5
8467
330
1F
100
AcDbEntity
  8
saisen
100
AcDbLine
 10
957.3450944767987
 20
589.1726484484077
 30
0.0
 11
995.3450944730006
 21
597.1726484476073
 31
0.0
  0
LINE
  5
8468
330
1F
100
AcDbEntity
  8
saisen
100
AcDbLine
 10
957.5511049578285
 20
587.1940986636189
 30
0.0
 11
995.5511049540305
 21
587.1940986636189
 31
0.0
  0
LINE
  5
8469
330
1F
100
AcDbEntity
  8
塗板・掲示板
100
AcDbLine
 10
959.051104957683
 20
587.4879677246988
 30
0.0
 11
959.051104957683
 21
587.1940986636189
 31
0.0
  0
LINE
  5
846A
330
1F
100
AcDbEntity
  8
塗板・掲示板
100
AcDbLine
 10
959.051104957683
 20
597.4879677236984
 30
0.0
 11
959.051104957683
 21
589.5318085496453
 31
0.0
  0
LINE
  5
846B
330
1F
100
AcDbEntity
  8
塗板・掲示板
100
AcDbLine
 10
1000.551104953536
 20
586.1940986637189
 30
0.0
 11
1000.551104953536
 21
584.194098663919
 31
0.0
  0
CIRCLE
  5
846C
330
1F
100
AcDbEntity
  8
塗板・掲示板
100
AcDbCircle
 10
995.5511049540305
 20
596.1940986627184
 30
0.0
 40
0.9999999999000001
  0
ARC
  5
846D
330
1F
100
AcDbEntity
  8
塗板・掲示板
100
AcDbCircle
 10
995.5511049540305
 20
586.1940986637189
 30
0.0
 40
0.9999999999000001
100
AcDbArc
 50
0.0
 51
180.0
  0
LINE
  5
846E
330
1F
100
AcDbEntity
  8
塗板・掲示板
100
AcDbLine
 10
994.0511049541832
 20
594.8563887765929
 30
0.0
 11
994.0511049541832
 21
587.1940986636189
 31
0.0
  0
LINE
  5
846F
330
1F
100
AcDbEntity
  8
saisen
100
AcDbLine
 10
957.7571154388584
 20
627.2155488746309
 30
0.0
 11
995.7571154350603
 21
635.2155488738305
 31
0.0
  0
LINE
  5
8470
330
1F
100
AcDbEntity
  8
saisen
100
AcDbLine
 10
957.345094476806
 20
629.1726484444077
 30
0.0
 11
995.3450944730006
 21
637.1726484436074
 31
0.0
  0
LINE
  5
8471
330
1F
100
AcDbEntity
  8
saisen
100
AcDbLine
 10
957.7571154388584
 20
617.2155488756304
 30
0.0
 11
995.7571154350603
 21
625.2155488748301
 31
0.0
  0
LINE
  5
8472
330
1F
100
AcDbEntity
  8
saisen
100
AcDbLine
 10
957.3450944767987
 20
619.1726484454072
 30
0.0
 11
995.3450944730006
 21
627.1726484446078
 31
0.0
  0
LINE
  5
8473
330
1F
100
AcDbEntity
  8
saisen
100
AcDbLine
 10
957.3450944767987
 20
599.1726484474072
 30
0.0
 11
995.3450944730006
 21
607.1726484466077
 31
0.0
  0
LINE
  5
8474
330
1F
100
AcDbEntity
  8
saisen
100
AcDbLine
 10
957.7571154388584
 20
607.2155488766299
 30
0.0
 11
995.7571154350603
 21
615.2155488758296
 31
0.0
  0
LINE
  5
8475
330
1F
100
AcDbEntity
  8
saisen
100
AcDbLine
 10
957.3450944767987
 20
609.1726484464077
 30
0.0
 11
995.3450944730006
 21
617.1726484456073
 31
0.0
  0
LINE
  5
8476
330
1F
100
AcDbEntity
  8
塗板・掲示板
100
AcDbLine
 10
959.051104957683
 20
627.4879677206979
 30
0.0
 11
959.051104957683
 21
619.5318085466458
 31
0.0
  0
LINE
  5
8477
330
1F
100
AcDbEntity
  8
塗板・掲示板
100
AcDbLine
 10
959.051104957683
 20
637.4879677196984
 30
0.0
 11
959.051104957683
 21
629.5318085456463
 31
0.0
  0
LINE
  5
8478
330
1F
100
AcDbEntity
  8
塗板・掲示板
100
AcDbLine
 10
959.051104957683
 20
607.4879677226988
 30
0.0
 11
959.051104957683
 21
599.5318085486458
 31
0.0
  0
LINE
  5
8479
330
1F
100
AcDbEntity
  8
塗板・掲示板
100
AcDbLine
 10
959.051104957683
 20
617.4879677216984
 30
0.0
 11
959.051104957683
 21
609.5318085476454
 31
0.0
  0
CIRCLE
  5
847A
330
1F
100
AcDbEntity
  8
塗板・掲示板
100
AcDbCircle
 10
995.5511049540305
 20
636.1940986587185
 30
0.0
 40
0.9999999999000001
  0
CIRCLE
  5
847B
330
1F
100
AcDbEntity
  8
塗板・掲示板
100
AcDbCircle
 10
995.5511049540305
 20
626.1940986597189
 30
0.0
 40
0.9999999999000001
  0
CIRCLE
  5
847C
330
1F
100
AcDbEntity
  8
塗板・掲示板
100
AcDbCircle
 10
995.5511049540305
 20
616.1940986607194
 30
0.0
 40
0.9999999999000001
  0
LINE
  5
847D
330
1F
100
AcDbEntity
  8
塗板・掲示板
100
AcDbLine
 10
994.0511049541832
 20
624.8563887735933
 30
0.0
 11
994.0511049541832
 21
616.9002295995404
 31
0.0
  0
LINE
  5
847E
330
1F
100
AcDbEntity
  8
塗板・掲示板
100
AcDbLine
 10
994.0511049541832
 20
634.8563887725929
 30
0.0
 11
994.0511049541832
 21
626.9002295985399
 31
0.0
  0
CIRCLE
  5
847F
330
1F
100
AcDbEntity
  8
塗板・掲示板
100
AcDbCircle
 10
995.5511049540305
 20
606.1940986617189
 30
0.0
 40
0.9999999999000001
  0
LINE
  5
8480
330
1F
100
AcDbEntity
  8
塗板・掲示板
100
AcDbLine
 10
994.0511049541832
 20
614.8563887745929
 30
0.0
 11
994.0511049541832
 21
606.9002296005407
 31
0.0
  0
DIMENSION
  5
8481
330
1F
100
AcDbEntity
  8
sunpo
100
AcDbDimension
  2
*D17
 10
1057.551104947831
 20
694.3675862372781
 30
0.0
 11
1036.55110494993
 21
698.5675862372781
 31
0.0
 70
    32
 71
     5
 42
41.99999999580177
  3
dim2
100
AcDbAlignedDimension
 13
1015.551104952029
 23
711.3227731108497
 33
0.0
 14
1057.551104947831
 24
701.3388703920152
 34
0.0
100
AcDbRotatedDimension
  0
LINE
  5
8482
330
1F
100
AcDbEntity
  8
塗板・掲示板
100
AcDbLine
 10
1015.551104952029
 20
711.3227731108497
 30
0.0
 11
1013.251104952259
 21
711.3227731108497
 31
0.0
  0
LINE
  5
8483
330
1F
100
AcDbEntity
  8
塗板・掲示板
100
AcDbLine
 10
994.0511049541832
 20
692.7071278452256
 30
0.0
 11
994.0511049541832
 21
678.1940986545184
 31
0.0
  0
LINE
  5
8484
330
1F
100
AcDbEntity
  8
塗板・掲示板
100
AcDbLine
 10
959.051104957683
 20
692.707127845231
 30
0.0
 11
959.051104957683
 21
678.1940986545184
 31
0.0
  0
LINE
  5
8485
330
1F
100
AcDbEntity
  8
saisen
100
AcDbLine
 10
958.5511049577339
 20
678.1940986545184
 30
0.0
 11
994.5511049541323
 21
678.1940986545184
 31
0.0
  0
LINE
  5
8486
330
1F
100
AcDbEntity
  8
saisen
100
AcDbLine
 10
957.3450944767987
 20
669.1726484404077
 30
0.0
 11
995.3450944730006
 21
677.1726484396074
 31
0.0
  0
LINE
  5
8487
330
1F
100
AcDbEntity
  8
saisen
100
AcDbLine
 10
957.7571154388584
 20
667.2155488706301
 30
0.0
 11
995.7571154350603
 21
675.2155488698306
 31
0.0
  0
LINE
  5
8488
330
1F
100
AcDbEntity
  8
saisen
100
AcDbLine
 10
957.5511049578285
 20
677.1940986546185
 30
0.0
 11
995.5511049540305
 21
677.1940986546185
 31
0.0
  0
LINE
  5
8489
330
1F
100
AcDbEntity
  8
saisen
100
AcDbLine
 10
957.3450944767987
 20
659.1726484414073
 30
0.0
 11
995.3450944730006
 21
667.1726484406069
 31
0.0
  0
LINE
  5
848A
330
1F
100
AcDbEntity
  8
saisen
100
AcDbLine
 10
957.7571154388584
 20
657.2155488716305
 30
0.0
 11
995.7571154350603
 21
665.2155488708301
 31
0.0
  0
LINE
  5
848B
330
1F
100
AcDbEntity
  8
saisen
100
AcDbLine
 10
957.7571154388584
 20
647.2155488726301
 30
0.0
 11
995.7571154350603
 21
655.2155488718296
 31
0.0
  0
LINE
  5
848C
330
1F
100
AcDbEntity
  8
saisen
100
AcDbLine
 10
957.3450944767987
 20
649.1726484424077
 30
0.0
 11
995.3450944730006
 21
657.1726484416074
 31
0.0
  0
LINE
  5
848D
330
1F
100
AcDbEntity
  8
塗板・掲示板
100
AcDbLine
 10
959.051104957683
 20
677.1940986546185
 30
0.0
 11
959.051104957683
 21
669.5318085416463
 31
0.0
  0
LINE
  5
848E
330
1F
100
AcDbEntity
  8
塗板・掲示板
100
AcDbLine
 10
959.051104957683
 20
657.4879677176984
 30
0.0
 11
959.051104957683
 21
649.5318085436454
 31
0.0
  0
LINE
  5
848F
330
1F
100
AcDbEntity
  8
塗板・掲示板
100
AcDbLine
 10
959.051104957683
 20
667.487967716698
 30
0.0
 11
959.051104957683
 21
659.5318085426458
 31
0.0
  0
LINE
  5
8490
330
1F
100
AcDbEntity
  8
塗板・掲示板
100
AcDbLine
 10
994.5511049541323
 20
678.1940986545184
 30
0.0
 11
996.5511049539285
 21
678.1940986545184
 31
0.0
  0
CIRCLE
  5
8491
330
1F
100
AcDbEntity
  8
塗板・掲示板
100
AcDbCircle
 10
995.5511049540305
 20
676.1940986547186
 30
0.0
 40
0.9999999999000001
  0
ARC
  5
8492
330
1F
100
AcDbEntity
  8
塗板・掲示板
100
AcDbCircle
 10
995.5511049540305
 20
678.1940986545184
 30
0.0
 40
0.9999999999000001
100
AcDbArc
 50
180.0
 51
0.0
  0
CIRCLE
  5
8493
330
1F
100
AcDbEntity
  8
塗板・掲示板
100
AcDbCircle
 10
995.5511049540305
 20
656.1940986567194
 30
0.0
 40
0.9999999999000001
  0
CIRCLE
  5
8494
330
1F
100
AcDbEntity
  8
塗板・掲示板
100
AcDbCircle
 10
995.5511049540305
 20
666.194098655719
 30
0.0
 40
0.9999999999000001
  0
CIRCLE
  5
8495
330
1F
100
AcDbEntity
  8
塗板・掲示板
100
AcDbCircle
 10
995.5511049540305
 20
646.1940986577189
 30
0.0
 40
0.9999999999000001
  0
LINE
  5
8496
330
1F
100
AcDbEntity
  8
塗板・掲示板
100
AcDbLine
 10
994.0511049541832
 20
677.1940986546185
 30
0.0
 11
994.0511049541832
 21
676.9002295935404
 31
0.0
  0
LINE
  5
8497
330
1F
100
AcDbEntity
  8
塗板・掲示板
100
AcDbLine
 10
994.0511049541832
 20
674.8563887685929
 30
0.0
 11
994.0511049541832
 21
666.9002295945399
 31
0.0
  0
LINE
  5
8498
330
1F
100
AcDbEntity
  8
塗板・掲示板
100
AcDbLine
 10
994.0511049541832
 20
664.8563887695934
 30
0.0
 11
994.0511049541832
 21
656.9002295955404
 31
0.0
  0
LINE
  5
8499
330
1F
100
AcDbEntity
  8
塗板・掲示板
100
AcDbLine
 10
994.0511049541832
 20
654.8563887705938
 30
0.0
 11
994.0511049541832
 21
646.9002295965408
 31
0.0
  0
ARC
  5
849A
330
1F
100
AcDbEntity
  8
saisen
100
AcDbCircle
 10
985.3011049550492
 20
716.7696278428154
 30
0.0
 40
16.56249999833489
100
AcDbArc
 50
238.1092081981731
 51
301.8907918018269
  0
ARC
  5
849B
330
1F
100
AcDbEntity
  8
saisen
100
AcDbCircle
 10
985.3011049550492
 20
678.6446278466462
 30
0.0
 40
16.56249999833489
100
AcDbArc
 50
58.10920819817311
 51
121.8907918018269
  0
ARC
  5
849C
330
1F
100
AcDbEntity
  8
saisen
100
AcDbCircle
 10
985.3011049550492
 20
688.6446278456467
 30
0.0
 40
16.56249999833489
100
AcDbArc
 50
58.10920819817311
 51
121.8907918018269
  0
ARC
  5
849D
330
1F
100
AcDbEntity
  8
saisen
100
AcDbCircle
 10
967.8011049568025
 20
678.6446278466453
 30
0.0
 40
16.5624999983358
100
AcDbArc
 50
58.10920819817311
 51
121.8907918018269
  0
ARC
  5
849E
330
1F
100
AcDbEntity
  8
saisen
100
AcDbCircle
 10
967.8011049568025
 20
716.7696278428173
 30
0.0
 40
16.5624999983358
100
AcDbArc
 50
238.1092081981731
 51
301.8907918018269
  0
ARC
  5
849F
330
1F
100
AcDbEntity
  8
saisen
100
AcDbCircle
 10
967.8011049568025
 20
706.7696278438168
 30
0.0
 40
16.5624999983358
100
AcDbArc
 50
238.1092081981731
 51
301.8907918018269
  0
LINE
  5
84A0
330
1F
100
AcDbEntity
  8
塗板・掲示板
100
AcDbLine
 10
985.0511049550854
 20
750.358438588504
 30
0.0
 11
986.3660595311753
 21
749.5992480641341
 31
0.0
  0
LINE
  5
84A1
330
1F
100
AcDbEntity
  8
塗板・掲示板
100
AcDbLine
 10
966.5511049569335
 20
742.3227731077502
 30
0.0
 11
986.5511049549327
 21
742.3227731077502
 31
0.0
  0
POLYLINE
  5
84A2
330
1F
100
AcDbEntity
  8
塗板・掲示板
100
AcDb2dPolyline
 66
     1
 10
0.0
 20
0.0
 30
0.0
 70
     2
  0
VERTEX
  5
84A3
330
84A2
100
AcDbEntity
  8
塗板・掲示板
100
AcDbVertex
100
AcDb2dVertex
 10
981.458582243556
 20
749.5992480641341
 30
0.0
 42
0.0383898054358984
 50
270.0
  0
VERTEX
  5
84A4
330
84A2
100
AcDbEntity
  8
塗板・掲示板
100
AcDbVertex
100
AcDb2dVertex
 10
979.0340317491004
 20
750.1675179167712
 30
0.0
 42
0.0383898054358979
 70
     1
 50
270.0
  0
VERTEX
  5
84A5
330
84A2
100
AcDbEntity
  8
塗板・掲示板
100
AcDbVertex
100
AcDb2dVertex
 10
976.5511049559295
 20
750.3584374426107
 30
0.0
 42
0.0383898054358921
 50
270.0
  0
VERTEX
  5
84A6
330
84A2
100
AcDbEntity
  8
塗板・掲示板
100
AcDbVertex
100
AcDb2dVertex
 10
974.0681781627658
 20
750.167517916773
 30
0.0
 42
0.038389805435896
 70
     1
 50
270.0
  0
VERTEX
  5
84A7
330
84A2
100
AcDbEntity
  8
塗板・掲示板
100
AcDbVertex
100
AcDb2dVertex
 10
971.6436276683102
 20
749.5992480641341
 30
0.0
 50
270.0
  0
SEQEND
  5
84A8
330
84A2
100
AcDbEntity
  8
塗板・掲示板
  0
ARC
  5
84A9
330
1F
100
AcDbEntity
  8
塗板・掲示板
100
AcDbCircle
 10
985.0511049550854
 20
741.4788561567227
 30
0.0
 40
8.879582431780752
100
AcDbArc
 50
90.00011414845257
 51
113.8649604043688
  0
LINE
  5
84AA
330
1F
100
AcDbEntity
  8
塗板・掲示板
100
AcDbLine
 10
985.0511049550854
 20
750.358438588504
 30
0.0
 11
976.5355774248396
 21
750.3584300198215
 31
0.0
  0
LINE
  5
84AB
330
1F
100
AcDbEntity
  8
塗板・掲示板
100
AcDbLine
 10
968.0511049567808
 20
750.358438588504
 30
0.0
 11
966.736150380691
 21
749.5992480641341
 31
0.0
  0
ARC
  5
84AC
330
1F
100
AcDbEntity
  8
塗板・掲示板
100
AcDbCircle
 10
968.0511049567808
 20
741.4788561567227
 30
0.0
 40
8.879582431780752
100
AcDbArc
 50
66.13503959563121
 51
89.99988585154738
  0
LINE
  5
84AD
330
1F
100
AcDbEntity
  8
塗板・掲示板
100
AcDbLine
 10
968.0511049567808
 20
750.358438588504
 30
0.0
 11
976.5666324870194
 21
750.3584300198215
 31
0.0
  0
LINE
  5
84AE
330
1F
100
AcDbEntity
  8
塗板・掲示板
100
AcDbLine
 10
966.5511049569335
 20
739.3227731080503
 30
0.0
 11
966.5511049569335
 21
742.3227731077502
 31
0.0
  0
LINE
  5
84AF
330
1F
100
AcDbEntity
  8
塗板・掲示板
100
AcDbLine
 10
971.6436276683102
 20
749.5992480641341
 30
0.0
 11
971.6436276683102
 21
742.3227731077502
 31
0.0
  0
LINE
  5
84B0
330
1F
100
AcDbEntity
  8
塗板・掲示板
100
AcDbLine
 10
981.4585822435487
 20
749.5992480641341
 30
0.0
 11
981.458582243556
 21
742.3227731077502
 31
0.0
  0
LINE
  5
84B1
330
1F
100
AcDbEntity
  8
塗板・掲示板
100
AcDbLine
 10
966.736150380691
 20
749.5992480641341
 30
0.0
 11
966.736150380691
 21
742.3227731077502
 31
0.0
  0
LINE
  5
84B2
330
1F
100
AcDbEntity
  8
塗板・掲示板
100
AcDbLine
 10
1008.551104952735
 20
736.3227731083505
 30
0.0
 11
1008.551104952735
 21
739.3227731080503
 31
0.0
  0
LINE
  5
84B3
330
1F
100
AcDbEntity
  8
塗板・掲示板
100
AcDbLine
 10
986.5511049549327
 20
742.3227731077502
 30
0.0
 11
986.5511049549327
 21
739.3227731080503
 31
0.0
  0
LINE
  5
84B4
330
1F
100
AcDbEntity
  8
塗板・掲示板
100
AcDbLine
 10
986.3660595311753
 20
749.5992480641341
 30
0.0
 11
986.3660595311753
 21
742.3227731077502
 31
0.0
  0
LWPOLYLINE
  5
84B5
330
1F
100
AcDbEntity
  8
saisen
100
AcDbPolyline
 90
        7
 70
     1
 43
0.0
 10
988.5149397195741
 20
771.5361652363715
 10
982.8011049553092
 20
771.5361652363715
 10
982.8011049553092
 20
762.1611652373265
 10
970.3011049565661
 20
762.1611652373265
 10
970.3011049565661
 20
771.5361652363715
 10
964.5872701923012
 20
771.5361652363715
 10
976.5511049559295
 20
783.4999999999998
  0
LINE
  5
84B6
330
1F
100
AcDbEntity
  8
hasen
100
AcDbLine
 10
1103.842844735228
 20
539.1940986609167
 30
0.0
 11
1054.351104959337
 21
539.1940986609167
 31
0.0
  0
LINE
  5
84B7
330
1F
100
AcDbEntity
  8
hasen
100
AcDbLine
 10
1054.351104959337
 20
529.1940986609168
 30
0.0
 11
1103.842844735206
 21
529.1940986609168
 31
0.0
  0
ARC
  5
84B8
330
1F
100
AcDbEntity
  8
塗板・掲示板
100
AcDbCircle
 10
1051.808370538057
 20
542.1940986689185
 30
0.0
 40
8.35726558990833
100
AcDbArc
 50
180.0
 51
203.8649254161544
  0
LINE
  5
84B9
330
1F
100
AcDbEntity
  8
塗板・掲示板
100
AcDbLine
 10
1043.451104948146
 20
542.1940986689185
 30
0.0
 11
1044.165636127961
 21
543.4317029759529
 31
0.0
  0
ARC
  5
84BA
330
1F
100
AcDbEntity
  8
塗板・掲示板
100
AcDbCircle
 10
1051.808370538057
 20
526.1940986689185
 30
0.0
 40
8.35726558990833
100
AcDbArc
 50
156.1350745838456
 51
180.0
  0
LINE
  5
84BB
330
1F
100
AcDbEntity
  8
塗板・掲示板
100
AcDbLine
 10
1044.165636127961
 20
524.9564943618841
 30
0.0
 11
1043.451104948146
 21
526.1940986689185
 31
0.0
  0
ARC
  5
84BC
330
1F
100
AcDbEntity
  8
塗板・掲示板
100
AcDbCircle
 10
1058.73657376833
 20
534.1940986689185
 30
0.0
 40
15.28546882018339
100
AcDbArc
 50
162.4120462259885
 51
197.5879537740114
  0
LINE
  5
84BD
330
1F
100
AcDbEntity
  8
塗板・掲示板
100
AcDbLine
 10
1043.451104948146
 20
526.1940986689185
 30
0.0
 11
1043.451104948146
 21
542.1940986689185
 31
0.0
  0
ARC
  5
84BE
330
1F
100
AcDbEntity
  8
塗板・掲示板
100
AcDbCircle
 10
1044.408147201671
 20
534.1940986689185
 30
0.0
 40
8.057042253520126
100
AcDbArc
 50
96.82188991081632
 51
263.1781100891836
  0
LINE
  5
84BF
330
1F
100
AcDbEntity
  8
塗板・掲示板
100
AcDbLine
 10
1044.165636127961
 20
538.8129008224348
 30
0.0
 11
1051.851104948147
 21
538.8129008224348
 31
0.0
  0
LINE
  5
84C0
330
1F
100
AcDbEntity
  8
塗板・掲示板
100
AcDbLine
 10
1054.351104948147
 20
543.4317029759547
 30
0.0
 11
1044.165636127961
 21
543.4317029759529
 31
0.0
  0
LINE
  5
84C1
330
1F
100
AcDbEntity
  8
塗板・掲示板
100
AcDbLine
 10
1051.851104948147
 20
529.5752965154021
 30
0.0
 11
1044.165636127961
 21
529.5752965154021
 31
0.0
  0
LINE
  5
84C2
330
1F
100
AcDbEntity
  8
塗板・掲示板
100
AcDbLine
 10
1044.165636127961
 20
524.9564943618841
 30
0.0
 11
1054.351104948147
 21
524.9564943618841
 31
0.0
  0
LINE
  5
84C3
330
1F
100
AcDbEntity
  8
塗板・掲示板
100
AcDbLine
 10
1051.851104948147
 20
524.9564943618841
 30
0.0
 11
1051.851104948147
 21
543.4317029759529
 31
0.0
  0
LINE
  5
84C4
330
1F
100
AcDbEntity
  8
hasen
100
AcDbLine
 10
1087.551104959298
 20
539.1940986609167
 30
0.0
 11
1122.916016741548
 21
542.2881275284587
 31
0.0
  0
LINE
  5
84C5
330
1F
100
AcDbEntity
  8
hasen
100
AcDbLine
 10
1087.551104959276
 20
529.1940986609168
 30
0.0
 11
1122.916016741541
 21
526.1000697933748
 31
0.0
  0
LINE
  5
84C6
330
1F
100
AcDbEntity
  8
hasen
100
AcDbLine
 10
1122.916016741548
 20
542.2881275284587
 30
0.0
 11
1122.916016741548
 21
526.1000697933748
 31
0.0
  0
LINE
  5
84C7
330
1F
100
AcDbEntity
  8
塗板・掲示板
100
AcDbLine
 10
1054.351104948154
 20
491.9288717953202
 30
0.0
 11
1054.351104948154
 21
446.9395532301139
 31
0.0
  0
LINE
  5
84C8
330
1F
100
AcDbEntity
  8
塗板・掲示板
100
AcDbLine
 10
1057.551104947831
 20
584.194098663919
 30
0.0
 11
1057.551104947831
 21
506.9288717953193
 31
0.0
  0
LINE
  5
84C9
330
1F
100
AcDbEntity
  8
塗板・掲示板
100
AcDbLine
 10
1057.551104947831
 20
491.9288717953202
 30
0.0
 11
1057.551104947831
 21
446.9395532301139
 31
0.0
  0
LINE
  5
84CA
330
1F
100
AcDbEntity
  8
塗板・掲示板
100
AcDbLine
 10
1057.551104947831
 20
431.9395532301157
 30
0.0
 11
1057.551104947831
 21
353.2850077989185
 31
0.0
  0
POLYLINE
  5
84CB
330
1F
100
AcDbEntity
  8
塗板・掲示板
100
AcDb2dPolyline
 66
     1
 10
0.0
 20
0.0
 30
0.0
  0
VERTEX
  5
84CC
330
84CB
100
AcDbEntity
  8
塗板・掲示板
100
AcDbVertex
100
AcDb2dVertex
 10
1032.437851032382
 20
241.9393777995562
 30
0.0
 42
0.0383898054358984
 50
270.0
  0
VERTEX
  5
84CD
330
84CB
100
AcDbEntity
  8
塗板・掲示板
100
AcDbVertex
100
AcDb2dVertex
 10
1031.011645652049
 20
242.2736539976247
 30
0.0
 42
0.0383898054358979
 50
270.0
  0
VERTEX
  5
84CE
330
84CB
100
AcDbEntity
  8
塗板・掲示板
100
AcDbVertex
100
AcDb2dVertex
 10
1029.551101291568
 20
242.3859595386255
 30
0.0
 42
0.0002390203068243
 50
270.0
  0
VERTEX
  5
84CF
330
84CB
100
AcDbEntity
  8
塗板・掲示板
100
AcDbVertex
100
AcDb2dVertex
 10
1029.541967454599
 20
242.3859551722801
 30
0.0
 42
0.038389805435896
 50
270.0
  0
SEQEND
  5
84D0
330
84CB
100
AcDbEntity
  8
塗板・掲示板
  0
LWPOLYLINE
  5
84D1
330
1F
100
AcDbEntity
  8
saisen
100
AcDbPolyline
 90
        4
 70
     1
 43
0.0
 10
925.5511049559295
 20
795.4999999999998
 10
1027.551104955929
 20
795.4999999999998
 10
1027.551104955929
 20
783.4999999999998
 10
925.5511049559295
 20
783.4999999999998
  0
MTEXT
  5
84D2
330
1F
100
AcDbEntity
  8
moji
100
AcDbMText
 10
976.5511049559295
 20
789.4999999999997
 30
0.0
 40
6.0
 41
100.0
 71
     5
 72
     5
  1
スライディング巾300
  7
StdW
 73
     1
 44
1.0
  0
LWPOLYLINE
  5
84D3
330
1F
100
AcDbEntity
  8
saisen
100
AcDbPolyline
 90
        4
 70
     1
 43
0.0
 10
926.5511049559295
 20
794.4999999999997
 10
1026.551104955929
 20
794.4999999999997
 10
1026.551104955929
 20
784.4999999999997
 10
926.5511049559295
 20
784.4999999999997
  0
LWPOLYLINE
  5
84D4
330
1F
100
AcDbEntity
  8
saisen
100
AcDbPolyline
 90
        4
 70
     1
 43
0.0
 10
926.5511049559295
 20
100.4999999999993
 10
1026.551104955929
 20
100.4999999999993
 10
1026.551104955929
 20
110.4999999999993
 10
926.5511049559295
 20
110.4999999999993
  0
MTEXT
  5
84D5
330
1F
100
AcDbEntity
  8
moji
100
AcDbMText
 10
976.5511049559295
 20
105.4999999999993
 30
0.0
 40
6.0
 41
100.0
 71
     5
 72
     5
  1
スライディング巾300
  7
StdW
 73
     1
 44
1.0
  0
LWPOLYLINE
  5
84D6
330
1F
100
AcDbEntity
  8
saisen
100
AcDbPolyline
 90
        4
 70
     1
 43
0.0
 10
925.5511049559295
 20
99.49999999999931
 10
1027.551104955929
 20
99.49999999999931
 10
1027.551104955929
 20
111.4999999999993
 10
925.5511049559295
 20
111.4999999999993
  0
LWPOLYLINE
  5
84D7
330
1F
100
AcDbEntity
  8
saisen
100
AcDbPolyline
 90
        7
 70
     1
 43
0.0
 10
988.5149397195741
 20
127.4634419824506
 10
982.8011049553092
 20
127.4634419824506
 10
982.8011049553092
 20
136.8384419814956
 10
970.3011049565661
 20
136.8384419814956
 10
970.3011049565661
 20
127.4634419824506
 10
964.5872701923012
 20
127.4634419824506
 10
976.5511049559295
 20
115.4996072188223
  0
LINE
  5
84D8
330
1F
100
AcDbEntity
  8
塗板・掲示板
100
AcDbLine
 10
858.5511049677329
 20
208.8859551848225
 30
0.0
 11
1018.551104951733
 21
208.8859551848225
 31
0.0
  0
LINE
  5
84D9
330
1F
100
AcDbEntity
  8
塗板・掲示板
100
AcDbLine
 10
858.5511049677329
 20
211.8859551845223
 30
0.0
 11
858.5511049677329
 21
208.8859551848225
 31
0.0
  0
LINE
  5
84DA
330
1F
100
AcDbEntity
  8
塗板・掲示板
100
AcDbLine
 10
822.5511049600367
 20
214.3859551845224
 30
0.0
 11
822.5511049600367
 21
234.3859551845223
 31
0.0
  0
LINE
  5
84DB
330
1F
100
AcDbEntity
  8
塗板・掲示板
100
AcDbLine
 10
820.5511049600367
 20
234.8859551845223
 30
0.0
 11
820.5511049600367
 21
213.8859551845223
 31
0.0
  0
ARC
  5
84DC
330
1F
100
AcDbEntity
  8
塗板・掲示板
100
AcDbCircle
 10
828.6312333712862
 20
234.8859551845223
 30
0.0
 40
2.0
100
AcDbArc
 50
4.588565735781652
 51
90.0
  0
ARC
  5
84DD
330
1F
100
AcDbEntity
  8
塗板・掲示板
100
AcDbCircle
 10
828.1739498791408
 20
234.3859551845223
 30
0.0
 40
0.5000000000000002
100
AcDbArc
 50
5.626270946100477
 51
90.0
  0
LINE
  5
84DE
330
1F
100
AcDbEntity
  8
塗板・掲示板
100
AcDbLine
 10
822.5511049600367
 20
234.3859551845223
 30
0.0
 11
823.0511049600368
 21
234.8859551845223
 31
0.0
  0
LINE
  5
84DF
330
1F
100
AcDbEntity
  8
塗板・掲示板
100
AcDbLine
 10
823.0511049600368
 20
234.8859551845223
 30
0.0
 11
828.1739498791408
 21
234.8859551845223
 31
0.0
  0
LINE
  5
84E0
330
1F
100
AcDbEntity
  8
塗板・掲示板
100
AcDbLine
 10
822.5511049600367
 20
236.8859551845223
 30
0.0
 11
820.5511049600367
 21
234.8859551845223
 31
0.0
  0
LINE
  5
84E1
330
1F
100
AcDbEntity
  8
塗板・掲示板
100
AcDbLine
 10
828.6312333712862
 20
236.8859551845223
 30
0.0
 11
822.5511049600367
 21
236.8859551845223
 31
0.0
  0
ARC
  5
84E2
330
1F
100
AcDbEntity
  8
塗板・掲示板
100
AcDbCircle
 10
853.5511049600367
 20
236.8859551845223
 30
0.0
 40
22.99999999999993
100
AcDbArc
 50
184.5885657357816
 51
270.0
  0
ARC
  5
84E3
330
1F
100
AcDbEntity
  8
塗板・掲示板
100
AcDbCircle
 10
853.5511049600405
 20
236.8859551845241
 30
0.0
 40
25.00000000000272
100
AcDbArc
 50
185.6262709461004
 51
237.7957724960458
  0
LINE
  5
84E4
330
1F
100
AcDbEntity
  8
塗板・掲示板
100
AcDbLine
 10
839.694698499488
 20
213.8859551845223
 30
0.0
 11
823.0511049600368
 21
213.8859551845223
 31
0.0
  0
LINE
  5
84E5
330
1F
100
AcDbEntity
  8
塗板・掲示板
100
AcDbLine
 10
822.5511049600367
 20
211.8859551845223
 30
0.0
 11
877.5511049600368
 21
211.8859551845223
 31
0.0
  0
LINE
  5
84E6
330
1F
100
AcDbEntity
  8
塗板・掲示板
100
AcDbLine
 10
853.5511049600367
 20
213.8859551845223
 30
0.0
 11
877.5511049600368
 21
213.8859551845223
 31
0.0
  0
LINE
  5
84E7
330
1F
100
AcDbEntity
  8
塗板・掲示板
100
AcDbLine
 10
822.5511049600367
 20
214.3859551845224
 30
0.0
 11
823.0511049600368
 21
213.8859551845223
 31
0.0
  0
LINE
  5
84E8
330
1F
100
AcDbEntity
  8
塗板・掲示板
100
AcDbLine
 10
820.5511049600367
 20
213.8859551845223
 30
0.0
 11
822.5511049600367
 21
211.8859551845223
 31
0.0
  0
ARC
  5
84E9
330
1F
100
AcDbEntity
  8
塗板・掲示板
100
AcDbCircle
 10
839.694698499488
 20
214.8859551845224
 30
0.0
 40
1.0
100
AcDbArc
 50
270.0
 51
57.79577249604574
  0
ARC
  5
84EA
330
1F
100
AcDbEntity
  8
saisen
100
AcDbCircle
 10
736.8766512076267
 20
236.8859551845223
 30
0.0
 40
2.000000000000001
100
AcDbArc
 50
0.0
 51
90.0
  0
ARC
  5
84EB
330
1F
100
AcDbEntity
  8
hasen
100
AcDbCircle
 10
734.3066364913043
 20
234.8859551845223
 30
0.0
 40
2.0
100
AcDbArc
 50
4.588565735781652
 51
90.0
  0
ARC
  5
84EC
330
1F
100
AcDbEntity
  8
hasen
100
AcDbCircle
 10
759.2265080800585
 20
236.8859551845223
 30
0.0
 40
22.99999999999993
100
AcDbArc
 50
184.5885657357816
 51
270.0
  0
LINE
  5
84ED
330
1F
100
AcDbEntity
  8
saisen
100
AcDbLine
 10
736.8766512076303
 20
238.8859551845223
 30
0.0
 11
722.6906509126506
 21
238.8859551845223
 31
0.0
  0
ARC
  5
84EE
330
1F
100
AcDbEntity
  8
saisen
100
AcDbCircle
 10
724.9993402014638
 20
211.8859551845223
 30
0.0
 40
2.0
100
AcDbArc
 50
180.0
 51
270.0
  0
ARC
  5
84EF
330
1F
100
AcDbEntity
  8
saisen
100
AcDbCircle
 10
724.9993402014638
 20
236.8859551845223
 30
0.0
 40
2.0
100
AcDbArc
 50
90.0
 51
180.0
  0
LINE
  5
84F0
330
1F
100
AcDbEntity
  8
saisen
100
AcDbLine
 10
728.2265080800584
 20
236.8859551845223
 30
0.0
 11
726.2265080800585
 21
234.8859551845223
 31
0.0
  0
LINE
  5
84F1
330
1F
100
AcDbEntity
  8
saisen
100
AcDbLine
 10
722.9993402014638
 20
236.8859551845223
 30
0.0
 11
722.9993402014638
 21
211.8859551845223
 31
0.0
  0
LINE
  5
84F2
330
1F
100
AcDbEntity
  8
saisen
100
AcDbLine
 10
726.2265080800585
 20
234.8859551845223
 30
0.0
 11
726.2265080800585
 21
213.8859551845223
 31
0.0
  0
ARC
  5
84F3
330
1F
100
AcDbEntity
  8
saisen
100
AcDbCircle
 10
722.6906509126506
 20
211.8859551845223
 30
0.0
 40
2.0
100
AcDbArc
 50
180.0
 51
270.0
  0
LINE
  5
84F4
330
1F
100
AcDbEntity
  8
saisen
100
AcDbLine
 10
720.6906509126506
 20
236.8859551845223
 30
0.0
 11
720.6906509126506
 21
211.8859551845223
 31
0.0
  0
ARC
  5
84F5
330
1F
100
AcDbEntity
  8
saisen
100
AcDbCircle
 10
722.6906509126506
 20
236.8859551845223
 30
0.0
 40
2.0
100
AcDbArc
 50
90.0
 51
180.0
  0
LINE
  5
84F6
330
1F
100
AcDbEntity
  8
saisen
100
AcDbLine
 10
726.2265080800585
 20
213.8859551845223
 30
0.0
 11
728.2265080800584
 21
211.8859551845223
 31
0.0
  0
ARC
  5
84F7
330
1F
100
AcDbEntity
  8
hasen
100
AcDbCircle
 10
782.324550735318
 20
236.8859551845387
 30
0.0
 40
23.00000000006893
100
AcDbArc
 50
270.0000000002084
 51
355.4114342641661
  0
LINE
  5
84F8
330
1F
100
AcDbEntity
  8
saisen
100
AcDbLine
 10
820.5511049600367
 20
234.8859551845223
 30
0.0
 11
726.2265080800585
 21
234.8859551845223
 31
0.0
  0
LINE
  5
84F9
330
1F
100
AcDbEntity
  8
saisen
100
AcDbLine
 10
822.5511049600367
 20
236.8859551845223
 30
0.0
 11
728.2265080800584
 21
236.8859551845223
 31
0.0
  0
LINE
  5
84FA
330
1F
100
AcDbEntity
  8
saisen
100
AcDbLine
 10
726.2265080800585
 20
213.8859551845223
 30
0.0
 11
820.5511049600367
 21
213.8859551845223
 31
0.0
  0
LINE
  5
84FB
330
1F
100
AcDbEntity
  8
saisen
100
AcDbLine
 10
799.0321861324023
 20
237.8859551845224
 30
0.0
 11
738.6087020151985
 21
237.8859551845224
 31
0.0
  0
LINE
  5
84FC
330
1F
100
AcDbEntity
  8
saisen
100
AcDbLine
 10
840.3880008321989
 20
209.8859551845223
 30
0.0
 11
722.6906509126506
 21
209.8859551845223
 31
0.0
  0
LINE
  5
84FD
330
1F
100
AcDbEntity
  8
saisen
100
AcDbLine
 10
728.2265080800584
 20
211.8859551845223
 30
0.0
 11
822.5511049600367
 21
211.8859551845223
 31
0.0
  0
ARC
  5
84FE
330
1F
100
AcDbEntity
  8
saisen
100
AcDbCircle
 10
799.0321861324023
 20
237.3859551845224
 30
0.0
 40
0.5000000000000002
100
AcDbArc
 50
3.65966535063138
 51
90.0
  0
ARC
  5
84FF
330
1F
100
AcDbEntity
  8
saisen
100
AcDbCircle
 10
776.0539355462038
 20
238.8859551845251
 30
0.0
 40
23.0000000000464
100
AcDbArc
 50
357.5080936309975
 51
0.0
  0
ARC
  5
8500
330
1F
100
AcDbEntity
  8
saisen
100
AcDbCircle
 10
822.4842649315664
 20
238.8859551845251
 30
0.0
 40
23.0000000000464
100
AcDbArc
 50
183.6596653506314
 51
184.9885419755492
  0
ARC
  5
8501
330
1F
100
AcDbEntity
  8
hasen
100
AcDbCircle
 10
807.2444223241413
 20
234.8859551845223
 30
0.0
 40
2.0
100
AcDbArc
 50
90.0
 51
175.411434264166
  0
LINE
  5
8502
330
1F
100
AcDbEntity
  8
saisen
100
AcDbLine
 10
803.0762637262574
 20
491.9288717953195
 30
0.0
 11
803.0762637262574
 21
446.9395532301113
 31
0.0
  0
LINE
  5
8503
330
1F
100
AcDbEntity
  8
saisen
100
AcDbLine
 10
808.1615248924258
 20
491.9288717953195
 30
0.0
 11
808.1615248924258
 21
446.9395532301113
 31
0.0
  0
LINE
  5
8504
330
1F
100
AcDbEntity
  8
saisen
100
AcDbLine
 10
800.8514371449296
 20
491.9288717953195
 30
0.0
 11
800.8514371449296
 21
446.9395532301113
 31
0.0
  0
LINE
  5
8505
330
1F
100
AcDbEntity
  8
hasen
100
AcDbLine
 10
805.5511049600367
 20
491.9288717953195
 30
0.0
 11
805.5511049600367
 21
446.9395532301113
 31
0.0
  0
LINE
  5
8506
330
1F
100
AcDbEntity
  8
saisen
100
AcDbLine
 10
810.3245507353872
 20
238.8859551845223
 30
0.0
 11
810.3245507353872
 21
236.8859551845223
 31
0.0
  0
ARC
  5
8507
330
1F
100
AcDbEntity
  8
saisen
100
AcDbCircle
 10
780.8743931390831
 20
238.8859551845251
 30
0.0
 40
23.0000000000464
100
AcDbArc
 50
355.0114580244507
 51
0.0
  0
LINE
  5
8508
330
1F
100
AcDbEntity
  8
saisen
100
AcDbLine
 10
801.8967695112818
 20
238.8859551845223
 30
0.0
 11
801.8967695112818
 21
241.8859551845224
 31
0.0
  0
LINE
  5
8509
330
1F
100
AcDbEntity
  8
saisen
100
AcDbLine
 10
801.8967695112818
 20
238.8859551845223
 30
0.0
 11
810.3245507353872
 21
238.8859551845223
 31
0.0
  0
LINE
  5
850A
330
1F
100
AcDbEntity
  8
saisen
100
AcDbLine
 10
804.0538067433095
 20
241.8859551845224
 30
0.0
 11
804.0538067433095
 21
431.9395532301114
 31
0.0
  0
LINE
  5
850B
330
1F
100
AcDbEntity
  8
saisen
100
AcDbLine
 10
799.0539355462511
 20
241.8859551845224
 30
0.0
 11
808.1615248924258
 21
241.8859551845224
 31
0.0
  0
LINE
  5
850C
330
1F
100
AcDbEntity
  8
saisen
100
AcDbLine
 10
799.0539355462511
 20
238.8859551845223
 30
0.0
 11
799.0539355462511
 21
241.8859551845224
 31
0.0
  0
LINE
  5
850D
330
1F
100
AcDbEntity
  8
saisen
100
AcDbLine
 10
840.3880008321989
 20
211.8859551845223
 30
0.0
 11
840.3880008321989
 21
209.8859551845223
 31
0.0
  0
LINE
  5
850E
330
1F
100
AcDbEntity
  8
hasen
100
AcDbLine
 10
835.5511049600405
 20
491.9288717953199
 30
0.0
 11
835.5511049600405
 21
446.9395532301119
 31
0.0
  0
LINE
  5
850F
330
1F
100
AcDbEntity
  8
hasen
100
AcDbLine
 10
818.5511049600368
 20
208.8859551845223
 30
0.0
 11
818.5511049600368
 21
211.8859551845223
 31
0.0
  0
LINE
  5
8510
330
1F
100
AcDbEntity
  8
hasen
100
AcDbLine
 10
858.5511049600368
 20
208.8859551845223
 30
0.0
 11
818.5511049600368
 21
208.8859551845223
 31
0.0
  0
LINE
  5
8511
330
1F
100
AcDbEntity
  8
saisen
100
AcDbLine
 10
828.6312333712862
 20
236.8859551845223
 30
0.0
 11
902.4709765487946
 21
236.8859551845223
 31
0.0
  0
LWPOLYLINE
  5
8512
330
1F
100
AcDbEntity
  8
塗板・掲示板
100
AcDbPolyline
 90
        4
 70
     1
 43
0.0
 10
828.5511049600367
 20
199.3859551845223
 10
908.5511049600368
 20
199.3859551845223
 10
908.5511049600368
 20
211.8859551845223
 10
828.5511049600367
 20
211.8859551845223
  0
LWPOLYLINE
  5
8513
330
1F
100
AcDbEntity
  8
塗板・掲示板
100
AcDbPolyline
 90
        4
 70
     0
 43
0.0
 10
904.5511049600367
 20
199.3859551845223
 10
904.5511049600367
 20
180.8859551845223
 42
-0.4142135623730951
 10
889.5511049600369
 20
165.8859551845223
 10
828.5511049600367
 20
165.8859551845223
  0
LWPOLYLINE
  5
8514
330
1F
100
AcDbEntity
  8
塗板・掲示板
100
AcDbPolyline
 90
        9
 70
     0
 43
0.0
 10
828.5511049600367
 20
199.3859551845223
 10
828.5511049600359
 20
157.8859551845223
 42
-0.414213562373094
 10
827.5511049600359
 20
156.8859551845223
 10
825.5511049600368
 20
156.8859551845223
 42
-0.4142135623730951
 10
823.5511049600368
 20
158.8859551845223
 10
823.5511049600368
 20
208.8859551845223
 42
-0.4142135623730951
 10
825.5511049600368
 20
210.8859551845224
 10
827.5511049600368
 20
210.8859551845224
 42
-0.4142135623730961
 10
828.5511049600367
 20
209.8859551845223
  0
ARC
  5
8515
330
1F
100
AcDbEntity
  8
塗板・掲示板
100
AcDbCircle
 10
877.5511049600368
 20
236.8859551845223
 30
0.0
 40
25.00000000000024
100
AcDbArc
 50
270.0
 51
325.2280559680597
  0
ARC
  5
8516
330
1F
100
AcDbEntity
  8
塗板・掲示板
100
AcDbCircle
 10
877.5511049599712
 20
236.8859551845387
 30
0.0
 40
23.00000000006894
100
AcDbArc
 50
270.0000000002084
 51
355.4114342641661
  0
ARC
  5
8517
330
1F
100
AcDbEntity
  8
塗板・掲示板
100
AcDbCircle
 10
902.4709765487946
 20
234.8859551845223
 30
0.0
 40
2.0
100
AcDbArc
 50
90.0
 51
175.411434264166
  0
LINE
  5
8518
330
1F
100
AcDbEntity
  8
塗板・掲示板
100
AcDbLine
 10
902.4709765487946
 20
236.8859551845223
 30
0.0
 11
905.5511049600367
 21
236.8859551845223
 31
0.0
  0
ARC
  5
8519
330
1F
100
AcDbEntity
  8
塗板・掲示板
100
AcDbCircle
 10
900.5511049600368
 20
220.917235761847
 30
0.0
 40
3.000000000001223
100
AcDbArc
 50
0.0
 51
145.2280559680596
  0
LINE
  5
851A
330
1F
100
AcDbEntity
  8
塗板・掲示板
100
AcDbLine
 10
903.5511049600367
 20
220.9172357618515
 30
0.0
 11
903.5511049600405
 21
211.8859551845223
 31
0.0
  0
LINE
  5
851B
330
1F
100
AcDbEntity
  8
saisen
100
AcDbLine
 10
877.5511049600368
 20
211.8859551845223
 30
0.0
 11
903.5511049600405
 21
211.8859551845223
 31
0.0
  0
LINE
  5
851C
330
1F
100
AcDbEntity
  8
hasen
100
AcDbLine
 10
922.0511049613829
 20
223.8859551833227
 30
0.0
 11
922.0511049613829
 21
210.3859551846724
 31
0.0
  0
LINE
  5
851D
330
1F
100
AcDbEntity
  8
hasen
100
AcDbLine
 10
919.051104961683
 20
210.3859551846724
 30
0.0
 11
919.051104961683
 21
223.8859551833227
 31
0.0
  0
LINE
  5
851E
330
1F
100
AcDbEntity
  8
hasen
100
AcDbLine
 10
922.0511049613829
 20
210.3859551846724
 30
0.0
 11
925.0511049610826
 21
208.8859551848225
 31
0.0
  0
LINE
  5
851F
330
1F
100
AcDbEntity
  8
hasen
100
AcDbLine
 10
922.0511049613829
 20
210.3859551846724
 30
0.0
 11
919.051104961683
 21
210.3859551846724
 31
0.0
  0
LINE
  5
8520
330
1F
100
AcDbEntity
  8
hasen
100
AcDbLine
 10
919.051104961683
 20
210.3859551846724
 30
0.0
 11
916.0511049619831
 21
208.8859551848225
 31
0.0
  0
LINE
  5
8521
330
1F
100
AcDbEntity
  8
kijun
100
AcDbLine
 10
920.5511049615321
 20
229.4124577880282
 30
0.0
 11
920.5511049615321
 21
208.8859551848225
 31
0.0
  0
LINE
  5
8522
330
1F
100
AcDbEntity
  8
塗板・掲示板
100
AcDbLine
 10
935.5511049600332
 20
211.8859551845223
 30
0.0
 11
903.5511049600405
 21
211.8859551845223
 31
0.0
  0
LINE
  5
8523
330
1F
100
AcDbEntity
  8
saisen
100
AcDbLine
 10
800.8514371497128
 20
693.3644841942102
 30
0.0
 11
800.8514371382748
 21
506.9288717953209
 31
0.0
  0
LINE
  5
8524
330
1F
100
AcDbEntity
  8
saisen
100
AcDbLine
 10
803.0762637310417
 20
693.3644841942102
 30
0.0
 11
803.0762637196035
 21
506.9288717953209
 31
0.0
  0
LINE
  5
8525
330
1F
100
AcDbEntity
  8
saisen
100
AcDbLine
 10
804.0538067480909
 20
693.3644841942102
 30
0.0
 11
804.0538067366528
 21
506.9288717953209
 31
0.0
  0
LINE
  5
8526
330
1F
100
AcDbEntity
  8
saisen
100
AcDbLine
 10
808.1615248972092
 20
693.3644841942102
 30
0.0
 11
808.161524885771
 21
506.9288717953209
 31
0.0
  0
LINE
  5
8527
330
1F
100
AcDbEntity
  8
hasen
100
AcDbLine
 10
835.5511049600405
 20
431.9395532301121
 30
0.0
 11
835.5511049600405
 21
213.8859551845223
 31
0.0
  0
LINE
  5
8528
330
1F
100
AcDbEntity
  8
saisen
100
AcDbLine
 10
808.1615248924258
 20
431.9395532301114
 30
0.0
 11
808.1615248924258
 21
238.8859551845223
 31
0.0
  0
LINE
  5
8529
330
1F
100
AcDbEntity
  8
hasen
100
AcDbLine
 10
805.5511049600367
 20
431.9395532301114
 30
0.0
 11
805.5511049600367
 21
213.8859551845223
 31
0.0
  0
LINE
  5
852A
330
1F
100
AcDbEntity
  8
saisen
100
AcDbLine
 10
804.0538067433095
 20
446.9395532301113
 30
0.0
 11
804.0538067433095
 21
491.9288717953195
 31
0.0
  0
LINE
  5
852B
330
1F
100
AcDbEntity
  8
saisen
100
AcDbLine
 10
803.0762637262574
 20
431.9395532301114
 30
0.0
 11
803.0762637262574
 21
241.8859551845224
 31
0.0
  0
LINE
  5
852C
330
1F
100
AcDbEntity
  8
saisen
100
AcDbLine
 10
800.8514371449296
 20
431.9395532301114
 30
0.0
 11
800.8514371449287
 21
241.8859551845224
 31
0.0
  0
LWPOLYLINE
  5
852D
330
1F
100
AcDbEntity
  8
moji
100
AcDbPolyline
 90
        4
 70
     1
 43
0.0
 10
958.0953425226976
 20
488.1122419457672
 10
1038.095342522697
 20
488.1122419457672
 10
1038.095342522697
 20
478.1122419457672
 10
958.0953425226976
 20
478.1122419457672
  0
MTEXT
  5
852E
330
1F
100
AcDbEntity
  8
moji
100
AcDbMText
 10
998.0953425226976
 20
483.1122419457671
 30
0.0
 40
6.0
 41
80.0
 71
     5
 72
     5
  1
UDスライダー装置
  7
StdW
 73
     1
 44
1.0
  0
LINE
  5
8530
330
1F
100
AcDbEntity
  8
sunpo2
100
AcDbLine
 10
690.1846137572211
 20
551.420103886041
 30
0.0
 11
785.8459489019897
 21
551.420103886041
 31
0.0
  0
TEXT
  5
8531
330
1F
100
AcDbEntity
  8
sunpo2
100
AcDbText
 10
693.5211178193465
 20
553.110404789936
 30
0.0
 40
6.0
  1
耐水ラワン合板 ァ5.5下地
 41
0.8
  7
Std
100
AcDbText
  0
TEXT
  5
8532
330
1F
100
AcDbEntity
  8
sunpo2
100
AcDbText
 10
692.9308749213553
 20
542.6645138607312
 30
0.0
 40
6.0
  1
t0.4鋼板プレス加工 フラッシュ
 41
0.8
  7
Std
100
AcDbText
  0
LINE
  5
8533
330
1F
100
AcDbEntity
  8
sunpo2
100
AcDbLine
 10
690.1846137572211
 20
540.6201038860409
 30
0.0
 11
785.8459489019897
 21
540.6201038860409
 31
0.0
  0
LINE
  5
8534
330
1F
100
AcDbEntity
  8
sunpo2
100
AcDbLine
 10
690.1846137572211
 20
562.2201038860409
 30
0.0
 11
785.8459489019897
 21
562.2201038860409
 31
0.0
  0
LINE
  5
8535
330
1F
100
AcDbEntity
  8
sunpo2
100
AcDbLine
 10
851.5637273548806
 20
562.2201038860409
 30
0.0
 11
785.8459489019897
 21
562.2201038860409
 31
0.0
  0
INSERT
  5
8536
330
1F
100
AcDbEntity
  8
sunpo2
100
AcDbBlockReference
  2
ARRI
 10
857.0837273548811
 20
562.2201038860409
 30
0.0
 41
5.520000000000436
 42
5.520000000000027
 43
5.519999999999999
  0
LINE
  5
8537
330
1F
100
AcDbEntity
  8
sunpo2
100
AcDbLine
 10
734.1638141236952
 20
573.6201038860409
 30
0.0
 11
734.1638141236952
 21
564.0201038860409
 31
0.0
  0
TEXT
  5
8538
330
1F
100
AcDbEntity
  8
sunpo2
100
AcDbText
 10
697.9308905383616
 20
565.8857990397459
 30
0.0
 40
6.0
  1
曲面黒板
  7
Std
 72
     4
 11
711.7308905383615
 21
568.8857990397459
 31
0.0
100
AcDbText
  0
LINE
  5
8539
330
1F
100
AcDbEntity
  8
sunpo2
100
AcDbLine
 10
690.1846137572211
 20
564.0201038860409
 30
0.0
 11
690.1846137572211
 21
573.6201038860409
 31
0.0
  0
LINE
  5
853A
330
1F
100
AcDbEntity
  8
sunpo2
100
AcDbLine
 10
690.1846137572211
 20
573.6201038860409
 30
0.0
 11
734.1638141236952
 21
573.6201038860409
 31
0.0
  0
LINE
  5
853B
330
1F
100
AcDbEntity
  8
sunpo2
100
AcDbLine
 10
734.1638141236952
 20
564.0201038860409
 30
0.0
 11
690.1846137572211
 21
564.0201038860409
 31
0.0
  0
TEXT
  5
853C
330
1F
100
AcDbEntity
  8
sunpo2
100
AcDbText
 10
693.184613757221
 20
531.6201038860409
 30
0.0
 40
6.000000000000001
  1
規格塗板仕上
 41
0.8
  7
Std
100
AcDbText
  0
LINE
  5
853D
330
1F
100
AcDbEntity
  8
sunpo2
100
AcDbLine
 10
785.8459489019897
 20
529.820103886041
 30
0.0
 11
690.1846137572211
 21
529.820103886041
 31
0.0
  0
TEXT
  5
853E
330
1F
100
AcDbEntity
  8
sunpo2
100
AcDbText
 10
1089.867667421656
 20
635.1097974798112
 30
0.0
 40
5.0
  1
スプリングクッション
 41
0.8
  7
Std
100
AcDbText
  0
LINE
  5
853F
330
1F
100
AcDbEntity
  8
sunpo2
100
AcDbLine
 10
1005.463751662713
 20
633.6097974798112
 30
0.0
 11
1139.913620929155
 21
633.6097974798112
 31
0.0
  0
INSERT
  5
8540
330
1F
100
AcDbEntity
  8
sunpo2
100
AcDbBlockReference
  2
ARRI
 10
756.8987974191818
 20
235.6950914933634
 30
0.0
 41
4.600000000000132
 42
4.600000000000022
 43
4.6
 50
300.0000000000016
  0
LINE
  5
8541
330
1F
100
AcDbEntity
  8
sunpo2
100
AcDbLine
 10
754.5987974191826
 20
239.678808350772
 30
0.0
 11
740.612754148729
 21
263.9033458920546
 31
0.0
  0
TEXT
  5
8542
330
1F
100
AcDbEntity
  8
sunpo2
100
AcDbText
 10
700.928455470575
 20
265.8644446276992
 30
0.0
 40
6.0
  1
サイドキャップ
 41
0.8
  7
Std
100
AcDbText
  0
LINE
  5
8543
330
1F
100
AcDbEntity
  8
sunpo2
100
AcDbLine
 10
740.612754148729
 20
263.9033458920546
 30
0.0
 11
699.7871985614051
 21
263.9033458920546
 31
0.0
  0
TEXT
  5
8544
330
1F
100
AcDbEntity
  8
sunpo2
100
AcDbText
 10
737.1962637512346
 20
158.4793931657825
 30
0.0
 40
5.0
  1
チョークボックス（W型）
 41
0.8
  7
Std
100
AcDbText
  0
LINE
  5
8545
330
1F
100
AcDbEntity
  8
sunpo2
100
AcDbLine
 10
809.4838608911972
 20
156.8297264411478
 30
0.0
 11
736.6379331381126
 21
156.8297264411474
 31
0.0
  0
LINE
  5
8546
330
1F
100
AcDbEntity
  8
sunpo2
100
AcDbLine
 10
823.7995226794177
 20
185.3506230202567
 30
0.0
 11
809.4838608911972
 21
156.8297264411478
 31
0.0
  0
INSERT
  5
8547
330
1F
100
AcDbEntity
  8
sunpo2
100
AcDbBlockReference
  2
ARRI
 10
825.8630698047914
 20
189.4617996476179
 30
0.0
 41
-4.60000000000021
 42
4.600000000000022
 43
4.6
 50
243.346282602329
  0
TEXT
  5
8548
330
1F
100
AcDbEntity
  8
sunpo2
100
AcDbText
 10
746.1918448573137
 20
125.9004761481389
 30
0.0
 40
5.0
  1
ストッパーハンドル（クロームメッキ）
 41
0.8
  7
Std
100
AcDbText
  0
LINE
  5
8549
330
1F
100
AcDbEntity
  8
sunpo2
100
AcDbLine
 10
840.6118674733312
 20
124.2508094235043
 30
0.0
 11
745.6335142441917
 21
124.2508094235038
 31
0.0
  0
LINE
  5
854A
330
1F
100
AcDbEntity
  8
sunpo2
100
AcDbLine
 10
847.7696983674418
 20
138.5112577130587
 30
0.0
 11
840.6118674733312
 21
124.250809423504
 31
0.0
  0
INSERT
  5
854B
330
1F
100
AcDbEntity
  8
sunpo2
100
AcDbBlockReference
  2
ARRI
 10
849.8332454928155
 20
142.6224343404198
 30
0.0
 41
-4.60000000000021
 42
4.600000000000022
 43
4.6
 50
243.346282602329
  0
LINE
  5
854C
330
1F
100
AcDbEntity
  8
1
100
AcDbLine
 10
1057.551104947831
 20
788.4999999999999
 30
0.0
 11
1057.551104947831
 21
106.4999999999995
 31
0.0
  0
LINE
  5
854D
330
1F
100
AcDbEntity
  8
1
100
AcDbLine
 10
1082.551104947831
 20
788.4999999999999
 30
0.0
 11
1082.551104947831
 21
106.4999999999995
 31
0.0
  0
TEXT
  5
854E
330
1F
100
AcDbEntity
  8
moji
100
AcDbText
 10
837.6635211531567
 20
101.9997382111059
 30
0.0
 40
6.0
  1
縦 断 面 図
  7
StdW
 72
     4
 11
856.4635211531568
 21
104.9997382111059
 31
0.0
100
AcDbText
  0
LWPOLYLINE
  5
854F
330
1F
100
AcDbEntity
  8
saisen
370
    15
100
AcDbPolyline
 90
        4
 70
     1
 43
0.0
 10
885.3744288785819
 20
111.5761059804272
 10
885.3744288785819
 20
98.92924820208463
 10
829.5771460522738
 20
98.92924820208463
 10
829.5771460522738
 20
111.5761059804272
  0
LWPOLYLINE
  5
8550
330
1F
100
AcDbEntity
  8
saisen
370
    15
100
AcDbPolyline
 90
        4
 70
     1
 43
0.0
 10
829.0771460522737
 20
112.0761059804272
 10
885.8744288785819
 20
112.0761059804272
 10
885.8744288785819
 20
98.42924820208464
 10
829.0771460522737
 20
98.42924820208464
  0
LINE
  5
8551
330
1F
100
AcDbEntity
  8
moji
100
AcDbLine
 10
1051.551104947831
 20
160.1393335889554
 30
0.0
 11
1051.551104947831
 21
153.2111303586791
 31
0.0
  0
TEXT
  5
8552
330
1F
100
AcDbEntity
  8
moji
100
AcDbText
 10
1017.33398621224
 20
153.6752319738173
 30
0.0
 40
6.0
  1
壁 仕上面
  7
kanji
 72
     4
 11
1032.73398621224
 21
156.6752319738173
 31
0.0
100
AcDbText
  0
LINE
  5
8553
330
1F
100
AcDbEntity
  8
moji
100
AcDbLine
 10
1051.551104947831
 20
153.2111303586791
 30
0.0
 11
1057.551104947831
 21
156.6752319738173
 31
0.0
  0
LINE
  5
8554
330
1F
100
AcDbEntity
  8
moji
100
AcDbLine
 10
1057.551104947831
 20
156.6752319738173
 30
0.0
 11
1051.551104947831
 21
160.1393335889554
 31
0.0
  0
LINE
  5
8555
330
1F
100
AcDbEntity
  8
2
100
AcDbLine
 10
1082.551104947831
 20
189.4159363103192
 30
0.0
 11
1112.551104947831
 21
219.4159363103192
 31
0.0
  0
LINE
  5
8556
330
1F
100
AcDbEntity
  8
2
100
AcDbLine
 10
1082.551104947831
 20
180.2738006865884
 30
0.0
 11
1112.551104947831
 21
210.2738006865884
 31
0.0
  0
LINE
  5
8557
330
1F
100
AcDbEntity
  8
2
100
AcDbLine
 10
1082.551104947831
 20
171.1316650628575
 30
0.0
 11
1112.551104947831
 21
201.1316650628576
 31
0.0
  0
LINE
  5
8558
330
1F
100
AcDbEntity
  8
2
100
AcDbLine
 10
1082.551104947831
 20
711.4405342775423
 30
0.0
 11
1112.551104947831
 21
741.4405342775424
 31
0.0
  0
LINE
  5
8559
330
1F
100
AcDbEntity
  8
2
100
AcDbLine
 10
1082.551104947831
 20
720.5826699012732
 30
0.0
 11
1112.551104947831
 21
750.5826699012732
 31
0.0
  0
LINE
  5
855A
330
1F
100
AcDbEntity
  8
2
100
AcDbLine
 10
1082.551104947831
 20
729.724805525004
 30
0.0
 11
1112.551104947831
 21
759.724805525004
 31
0.0
  0
LEADER
  5
92BA
330
1F
100
AcDbEntity
  8
sunpo
100
AcDbLeader
  3
dim2_20
 73
     0
 74
     0
 75
     1
 40
9.142857142857144
 41
62.49142857142859
 76
     3
 10
368.9557009260534
 20
236.9955171249421
 30
0.0
 10
387.725389427349
 20
184.3661676227512
 30
0.0
 10
393.725389427349
 20
184.3661676227512
 30
0.0
340
92BB
213
0.0
223
-2.5
233
0.0
1001
ACAD
1000
DSTYLE
1002
{
1070
   147
1040
0.5
1070
    77
1070
     0
1002
}
  0
MTEXT
  5
92BB
102
{ACAD_REACTORS
330
92BA
102
}
330
1F
100
AcDbEntity
  8
sunpo
 62
     2
100
AcDbMText
 10
394.725389427349
 20
186.8661676227511
 30
0.0
 40
6.0
 41
0.0
 71
     1
 72
     1
  1
チョークボックス(W型)
  7
Std
 73
     1
 44
1.0
  0
LEADER
  5
942D
330
1F
100
AcDbEntity
  8
sunpo
100
AcDbLeader
  3
dim2_20
 73
     0
 75
     1
 40
9.14285714285714
 41
62.44571428571427
 76
     3
 10
184.8074846363997
 20
359.6013477665201
 30
0.0
 10
152.6905768378856
 20
302.8447945989992
 30
0.0
 10
146.6905768378856
 20
302.8447945989992
 30
0.0
340
942E
213
0.0
223
2.5
233
0.0
1001
ACAD
1000
DSTYLE
1002
{
1070
   147
1040
0.5
1070
    77
1070
     0
1002
}
  0
MTEXT
  5
942E
102
{ACAD_REACTORS
330
942D
102
}
330
1F
100
AcDbEntity
  8
sunpo
 62
     2
100
AcDbMText
 10
145.6905768378856
 20
300.3447945989992
 30
0.0
 40
6.0
 41
0.0
 71
     9
 72
     1
  1
コーナーキャップ(樹脂)
  7
Std
 73
     1
 44
1.0
  0
LWPOLYLINE
  5
9588
330
1F
100
AcDbEntity
  8
塗板・掲示板
100
AcDbPolyline
 90
        4
 70
   129
 43
0.0
 10
478.8494521605672
 20
658.7319643164862
 10
478.8494521605672
 20
644.9819643164866
 10
483.2494521605676
 20
644.9819643164866
 10
483.2494521605676
 20
658.7319643164862
  0
LWPOLYLINE
  5
9589
330
1F
100
AcDbEntity
  8
塗板・掲示板
100
AcDbPolyline
 90
        4
 70
   129
 43
0.0
 10
250.0494521605685
 20
658.7319643164862
 10
250.0494521605675
 20
644.9819643164866
 10
245.6494521605688
 20
644.9819643164866
 10
245.6494521605688
 20
658.7319643164862
  0
LINE
  5
958A
102
{ACAD_REACTORS
330
95EF
102
}
330
1F
100
AcDbEntity
  8
kijun
100
AcDbLine
 10
486.6994521605666
 20
661.0119643165055
 30
0.0
 11
486.6994521605666
 21
671.6819643164712
 31
0.0
  0
LINE
  5
958B
330
1F
100
AcDbEntity
  8
塗板・掲示板
100
AcDbLine
 10
484.4494521605676
 20
651.9319643169057
 30
0.0
 11
484.4494521605676
 21
664.1319643164877
 31
0.0
  0
LINE
  5
958C
330
1F
100
AcDbEntity
  8
塗板・掲示板
100
AcDbLine
 10
244.4494521605676
 20
664.131964316487
 30
0.0
 11
244.4494521605676
 21
651.9319643169057
 31
0.0
  0
LINE
  5
958D
330
1F
100
AcDbEntity
  8
塗板・掲示板
100
AcDbLine
 10
484.4494521605666
 20
663.8119643164866
 30
0.0
 11
487.9494521605669
 21
663.8119643164866
 31
0.0
  0
LINE
  5
958E
330
1F
100
AcDbEntity
  8
塗板・掲示板
100
AcDbLine
 10
487.9494521605669
 20
663.8119643164866
 30
0.0
 11
487.9494521605669
 21
664.1319643164868
 31
0.0
  0
LINE
  5
958F
102
{ACAD_REACTORS
330
95EF
102
}
330
1F
100
AcDbEntity
  8
kijun
100
AcDbLine
 10
242.1994521605687
 20
661.0119643164737
 30
0.0
 11
242.1994521605687
 21
671.6819643164712
 31
0.0
  0
LINE
  5
9590
330
1F
100
AcDbEntity
  8
塗板・掲示板
100
AcDbLine
 10
240.94945216057
 20
663.8119643164866
 30
0.0
 11
240.94945216057
 21
664.1319643164868
 31
0.0
  0
LINE
  5
9591
330
1F
100
AcDbEntity
  8
塗板・掲示板
100
AcDbLine
 10
244.4494521605687
 20
663.8119643164866
 30
0.0
 11
240.94945216057
 21
663.8119643164866
 31
0.0
  0
LINE
  5
9592
330
1F
100
AcDbEntity
  8
塗板・掲示板
100
AcDbLine
 10
244.4494521605676
 20
651.9319643169057
 30
0.0
 11
245.6494521605687
 21
651.9319643169057
 31
0.0
  0
LINE
  5
9593
330
1F
100
AcDbEntity
  8
塗板・掲示板
100
AcDbLine
 10
250.0494521605685
 20
651.9319643169057
 30
0.0
 11
478.8494521605672
 21
651.9319643169057
 31
0.0
  0
CIRCLE
  5
9594
330
1F
100
AcDbEntity
  8
塗板・掲示板
100
AcDbCircle
 10
481.0494521605669
 20
656.0319643164868
 30
0.0
 40
1.75
  0
LINE
  5
9595
330
1F
100
AcDbEntity
  8
塗板・掲示板
100
AcDbLine
 10
484.4494521605666
 20
651.9319643169057
 30
0.0
 11
483.2494521605676
 21
651.9319643169057
 31
0.0
  0
LINE
  5
9596
330
1F
100
AcDbEntity
  8
kijun
100
AcDbLine
 10
364.4494521605666
 20
616.7319643164876
 30
0.0
 11
364.4494521605676
 21
680.5319643164868
 31
0.0
  0
LINE
  5
9597
330
1F
100
AcDbEntity
  8
塗板・掲示板
  6
HIDS
 62
     4
100
AcDbLine
 10
250.0494521605685
 20
651.9319643169057
 30
0.0
 11
245.6494521605687
 21
651.9319643169057
 31
0.0
  0
LINE
  5
9598
330
1F
100
AcDbEntity
  8
塗板・掲示板
  6
HIDS
 62
     4
100
AcDbLine
 10
478.8494521605672
 20
651.9319643169057
 30
0.0
 11
483.2494521605676
 21
651.9319643169057
 31
0.0
  0
ARC
  5
9599
330
1F
100
AcDbEntity
  8
hojo
  6
HIDS
100
AcDbCircle
 10
364.449452145979
 20
-973.0680358856194
 30
0.0
 40
1625.000000203043
100
AcDbArc
 50
85.80749747413049
 51
85.96303778919338
  0
ARC
  5
959A
330
1F
100
AcDbEntity
  8
hojo
  6
HIDS
100
AcDbCircle
 10
230.1903548160302
 20
893.2138480066493
 30
0.0
 40
246.1162882044001
100
AcDbArc
 50
273.6012427497834
 51
274.6282219868825
  0
CIRCLE
  5
959B
330
1F
100
AcDbEntity
  8
塗板・掲示板
100
AcDbCircle
 10
247.8494521605694
 20
656.0319643164868
 30
0.0
 40
1.75
  0
CIRCLE
  5
959C
330
1F
100
AcDbEntity
  8
塗板・掲示板
100
AcDbCircle
 10
247.8494521605678
 20
646.1819643164865
 30
0.0
 40
0.45
  0
LINE
  5
959D
330
1F
100
AcDbEntity
  8
hasen
100
AcDbLine
 10
484.4494521605676
 20
652.6319643164863
 30
0.0
 11
244.4494521605676
 21
652.6319643164863
 31
0.0
  0
CIRCLE
  5
959E
330
1F
100
AcDbEntity
  8
塗板・掲示板
100
AcDbCircle
 10
317.4494521604745
 20
649.9319643164869
 30
0.0
 40
0.45
  0
CIRCLE
  5
959F
330
1F
100
AcDbEntity
  8
塗板・掲示板
100
AcDbCircle
 10
317.4494521604745
 20
656.0319643164868
 30
0.0
 40
0.45
  0
LWPOLYLINE
  5
95A0
330
1F
100
AcDbEntity
  8
塗板・掲示板
100
AcDbPolyline
 90
        4
 70
     1
 43
0.0
 10
319.6494521604748
 20
648.7319643164869
 10
319.6494521604748
 20
658.7319643164869
 10
315.2494521604749
 20
658.7319643164869
 10
315.2494521604749
 20
648.7319643164869
  0
CIRCLE
  5
95A1
330
1F
100
AcDbEntity
  8
塗板・掲示板
100
AcDbCircle
 10
411.449452160473
 20
649.9319643164869
 30
0.0
 40
0.45
  0
CIRCLE
  5
95A2
330
1F
100
AcDbEntity
  8
塗板・掲示板
100
AcDbCircle
 10
411.449452160473
 20
656.0319643164868
 30
0.0
 40
0.45
  0
LWPOLYLINE
  5
95A3
330
1F
100
AcDbEntity
  8
塗板・掲示板
100
AcDbPolyline
 90
        4
 70
     1
 43
0.0
 10
409.2494521604733
 20
648.7319643164869
 10
409.2494521604733
 20
658.7319643164869
 10
413.6494521604732
 20
658.7319643164869
 10
413.6494521604732
 20
648.7319643164869
  0
CIRCLE
  5
95A4
330
1F
100
AcDbEntity
  8
塗板・掲示板
100
AcDbCircle
 10
481.0494521605646
 20
646.1819643164865
 30
0.0
 40
0.45
  0
LINE
  5
95A5
330
1F
100
AcDbEntity
  8
塗板・掲示板
100
AcDbLine
 10
188.7576908030552
 20
639.3886009403852
 30
0.0
 11
189.7213860569612
 21
630.7421129678287
 31
0.0
  0
LINE
  5
95A6
330
1F
100
AcDbEntity
  8
塗板・掲示板
100
AcDbLine
 10
184.8371444681637
 20
638.453502778435
 30
0.0
 11
186.9475081278423
 21
631.2644186545483
 31
0.0
  0
LINE
  5
95A7
330
1F
100
AcDbEntity
  8
塗板・掲示板
100
AcDbLine
 10
186.7695887440411
 20
639.1707388587819
 30
0.0
 11
186.824836775856
 21
638.6750412399735
 31
0.0
  0
LINE
  5
95A8
330
1F
100
AcDbEntity
  8
塗板・掲示板
100
AcDbLine
 10
184.449452160471
 20
641.9319643169055
 30
0.0
 11
184.8371444681637
 21
638.453502778435
 31
0.0
  0
LINE
  5
95A9
330
1F
100
AcDbEntity
  8
塗板・掲示板
100
AcDbLine
 10
186.824836775856
 20
638.6750412399735
 30
0.0
 11
184.8371444681637
 21
638.453502778435
 31
0.0
  0
ARC
  5
95AA
330
1F
100
AcDbEntity
  8
塗板・掲示板
100
AcDbCircle
 10
187.9070206503861
 20
631.5460846253017
 30
0.0
 40
1.0
100
AcDbArc
 50
196.3596602392769
 51
276.3596602406421
  0
LINE
  5
95AB
330
1F
100
AcDbEntity
  8
塗板・掲示板
100
AcDbLine
 10
188.0177898811532
 20
630.5522384714568
 30
0.0
 11
189.7213860569612
 21
630.7421129678287
 31
0.0
  0
CIRCLE
  5
95AC
330
1F
100
AcDbEntity
  8
塗板・掲示板
100
AcDbCircle
 10
357.9494521604745
 20
644.9189080218941
 30
0.0
 40
1.25
  0
LINE
  5
95AD
330
1F
100
AcDbEntity
  8
塗板・掲示板
100
AcDbLine
 10
540.1412135178868
 20
639.3886009403825
 30
0.0
 11
539.1775182639808
 21
630.7421129678287
 31
0.0
  0
LINE
  5
95AE
330
1F
100
AcDbEntity
  8
塗板・掲示板
100
AcDbLine
 10
544.0617598527783
 20
638.4535027784322
 30
0.0
 11
541.9513961931024
 21
631.2644186545483
 31
0.0
  0
LINE
  5
95AF
330
1F
100
AcDbEntity
  8
塗板・掲示板
100
AcDbLine
 10
544.4494521604623
 20
641.9319643169028
 30
0.0
 11
544.0617598527669
 21
638.4535027784322
 31
0.0
  0
LINE
  5
95B0
330
1F
100
AcDbEntity
  8
塗板・掲示板
100
AcDbLine
 10
542.1293155769036
 20
639.170738858779
 30
0.0
 11
542.074067545086
 21
638.6750412399735
 31
0.0
  0
LINE
  5
95B1
330
1F
100
AcDbEntity
  8
塗板・掲示板
100
AcDbLine
 10
542.074067545086
 20
638.6750412399735
 30
0.0
 11
544.0617598527783
 21
638.4535027784322
 31
0.0
  0
LINE
  5
95B2
330
1F
100
AcDbEntity
  8
塗板・掲示板
100
AcDbLine
 10
540.8811144397888
 20
630.5522384714538
 30
0.0
 11
539.1775182639808
 21
630.7421129678287
 31
0.0
  0
ARC
  5
95B3
330
1F
100
AcDbEntity
  8
塗板・掲示板
100
AcDbCircle
 10
540.9918836705575
 20
631.5460846253015
 30
0.0
 40
1.0
100
AcDbArc
 50
263.6403397593579
 51
343.6403397607231
  0
ARC
  5
95B4
330
1F
100
AcDbEntity
  8
塗板・掲示板
100
AcDbCircle
 10
364.4494521604733
 20
-973.068035683049
 30
0.0
 40
1624.999999999954
100
AcDbArc
 50
83.64033975935795
 51
96.35966024064206
  0
ARC
  5
95B5
330
1F
100
AcDbEntity
  8
塗板・掲示板
100
AcDbCircle
 10
364.4494521604733
 20
-973.068035683049
 30
0.0
 40
1613.499999999896
100
AcDbArc
 50
83.78238088392761
 51
96.21761911607237
  0
ARC
  5
95B6
330
1F
100
AcDbEntity
  8
塗板・掲示板
100
AcDbCircle
 10
364.4494521604733
 20
-973.068035683049
 30
0.0
 40
1614.499999999896
100
AcDbArc
 50
83.7822929046273
 51
96.21770709537271
  0
ARC
  5
95B7
330
1F
100
AcDbEntity
  8
塗板・掲示板
100
AcDbCircle
 10
364.4494521604733
 20
-973.068035683049
 30
0.0
 40
1621.999999999894
100
AcDbArc
 50
83.64033975935795
 51
96.35966024064206
  0
LINE
  5
95B8
330
1F
100
AcDbEntity
  8
塗板・掲示板
100
AcDbLine
 10
484.4494521605676
 20
659.9319643169098
 30
0.0
 11
244.4494521605676
 21
659.9319643169098
 31
0.0
  0
LINE
  5
95B9
330
1F
100
AcDbEntity
  8
hasen
100
AcDbLine
 10
487.1994521613669
 20
663.8119643176048
 30
0.0
 11
487.1994521613669
 21
667.1319643175989
 31
0.0
  0
LINE
  5
95BA
330
1F
100
AcDbEntity
  8
hasen
100
AcDbLine
 10
486.1994521613673
 20
667.1319643176009
 30
0.0
 11
486.1994521613673
 21
663.8119643176048
 31
0.0
  0
LINE
  5
95BB
330
1F
100
AcDbEntity
  8
1
100
AcDbLine
 10
485.8994521605667
 20
662.7219643164864
 30
0.0
 11
485.7756917298632
 21
662.7934174344679
 31
0.0
  0
ARC
  5
95BC
330
1F
100
AcDbEntity
  8
1
100
AcDbCircle
 10
486.6994521605666
 20
664.2505111985049
 30
0.0
 40
1.528546882018338
100
AcDbArc
 50
252.4120462259799
 51
287.5879537740201
  0
ARC
  5
95BD
330
1F
100
AcDbEntity
  8
1
100
AcDbCircle
 10
485.8994521605667
 20
663.5576908754769
 30
0.0
 40
0.835726558990833
100
AcDbArc
 50
270.0
 51
293.864925416177
  0
LINE
  5
95BE
330
1F
100
AcDbEntity
  8
1
100
AcDbLine
 10
487.6232125912703
 20
662.7934174344679
 30
0.0
 11
487.4994521605668
 21
662.7219643164864
 31
0.0
  0
ARC
  5
95BF
330
1F
100
AcDbEntity
  8
1
100
AcDbCircle
 10
487.4994521605668
 20
663.5576908754769
 30
0.0
 40
0.835726558990833
100
AcDbArc
 50
246.1350745838231
 51
270.0
  0
LINE
  5
95C0
330
1F
100
AcDbEntity
  8
1
100
AcDbLine
 10
487.4994521605668
 20
662.7219643164864
 30
0.0
 11
485.8994521605667
 21
662.7219643164864
 31
0.0
  0
ARC
  5
95C1
330
1F
100
AcDbEntity
  8
1
100
AcDbCircle
 10
486.6994521605666
 20
662.8176685418382
 30
0.0
 40
0.8057042253520126
100
AcDbArc
 50
186.8218899108161
 51
353.1781100891838
  0
LINE
  5
95C2
330
1F
100
AcDbEntity
  8
1
100
AcDbLine
 10
487.1613323759182
 20
663.5619643164864
 30
0.0
 11
487.1613323759182
 21
662.7934174344679
 31
0.0
  0
LINE
  5
95C3
330
1F
100
AcDbEntity
  8
1
100
AcDbLine
 10
486.2375719452148
 20
662.7934174344679
 30
0.0
 11
486.2375719452148
 21
663.5619643164864
 31
0.0
  0
LINE
  5
95C4
330
1F
100
AcDbEntity
  8
1
100
AcDbLine
 10
485.7756917298632
 20
663.8119643164866
 30
0.0
 11
485.7756917298632
 21
662.7934174344679
 31
0.0
  0
LINE
  5
95C5
330
1F
100
AcDbEntity
  8
1
100
AcDbLine
 10
487.6232125912703
 20
662.7934174344679
 30
0.0
 11
487.6232125912703
 21
663.8119643164866
 31
0.0
  0
LINE
  5
95C6
330
1F
100
AcDbEntity
  8
1
100
AcDbLine
 10
487.6232125912703
 20
663.5619643164864
 30
0.0
 11
485.7756917298632
 21
663.5619643164864
 31
0.0
  0
LINE
  5
95C7
330
1F
100
AcDbEntity
  8
hasen
100
AcDbLine
 10
486.1994521613673
 20
667.1319643176009
 30
0.0
 11
485.8900492746128
 21
670.668455495826
 31
0.0
  0
LINE
  5
95C8
330
1F
100
AcDbEntity
  8
hasen
100
AcDbLine
 10
487.1994521613669
 20
667.1319643175989
 30
0.0
 11
487.5088550481214
 21
670.668455495825
 31
0.0
  0
LINE
  5
95C9
330
1F
100
AcDbEntity
  8
hasen
100
AcDbLine
 10
485.8900492746128
 20
670.668455495826
 30
0.0
 11
487.5088550481214
 21
670.668455495826
 31
0.0
  0
LINE
  5
95CA
330
1F
100
AcDbEntity
  8
hasen
100
AcDbLine
 10
242.6994521613691
 20
663.8119643176048
 30
0.0
 11
242.6994521613691
 21
667.1319643175989
 31
0.0
  0
LINE
  5
95CB
330
1F
100
AcDbEntity
  8
hasen
100
AcDbLine
 10
241.6994521613689
 20
667.1319643176009
 30
0.0
 11
241.6994521613689
 21
663.8119643176048
 31
0.0
  0
LINE
  5
95CC
330
1F
100
AcDbEntity
  8
1
100
AcDbLine
 10
241.3994521605689
 20
662.7219643164864
 30
0.0
 11
241.2756917298655
 21
662.7934174344679
 31
0.0
  0
ARC
  5
95CD
330
1F
100
AcDbEntity
  8
1
100
AcDbCircle
 10
242.1994521605687
 20
664.2505111985049
 30
0.0
 40
1.528546882018338
100
AcDbArc
 50
252.4120462259799
 51
287.5879537740201
  0
ARC
  5
95CE
330
1F
100
AcDbEntity
  8
1
100
AcDbCircle
 10
241.3994521605689
 20
663.5576908754769
 30
0.0
 40
0.835726558990833
100
AcDbArc
 50
270.0
 51
293.864925416177
  0
LINE
  5
95CF
330
1F
100
AcDbEntity
  8
1
100
AcDbLine
 10
243.1232125912725
 20
662.7934174344679
 30
0.0
 11
242.9994521605691
 21
662.7219643164864
 31
0.0
  0
ARC
  5
95D0
330
1F
100
AcDbEntity
  8
1
100
AcDbCircle
 10
242.9994521605691
 20
663.5576908754769
 30
0.0
 40
0.835726558990833
100
AcDbArc
 50
246.1350745838231
 51
270.0
  0
LINE
  5
95D1
330
1F
100
AcDbEntity
  8
1
100
AcDbLine
 10
242.9994521605691
 20
662.7219643164864
 30
0.0
 11
241.3994521605689
 21
662.7219643164864
 31
0.0
  0
ARC
  5
95D2
330
1F
100
AcDbEntity
  8
1
100
AcDbCircle
 10
242.1994521605687
 20
662.8176685418382
 30
0.0
 40
0.8057042253520126
100
AcDbArc
 50
186.8218899108161
 51
353.1781100891838
  0
LINE
  5
95D3
330
1F
100
AcDbEntity
  8
1
100
AcDbLine
 10
242.6613323759204
 20
663.5619643164864
 30
0.0
 11
242.6613323759204
 21
662.7934174344679
 31
0.0
  0
LINE
  5
95D4
330
1F
100
AcDbEntity
  8
1
100
AcDbLine
 10
241.7375719452171
 20
662.7934174344679
 30
0.0
 11
241.7375719452171
 21
663.5619643164864
 31
0.0
  0
LINE
  5
95D5
330
1F
100
AcDbEntity
  8
1
100
AcDbLine
 10
241.2756917298655
 20
663.8119643164866
 30
0.0
 11
241.2756917298655
 21
662.7934174344679
 31
0.0
  0
LINE
  5
95D6
330
1F
100
AcDbEntity
  8
1
100
AcDbLine
 10
243.1232125912725
 20
662.7934174344679
 30
0.0
 11
243.1232125912725
 21
663.8119643164866
 31
0.0
  0
LINE
  5
95D7
330
1F
100
AcDbEntity
  8
1
100
AcDbLine
 10
243.1232125912725
 20
663.5619643164864
 30
0.0
 11
241.2756917298655
 21
663.5619643164864
 31
0.0
  0
LINE
  5
95D8
330
1F
100
AcDbEntity
  8
hasen
100
AcDbLine
 10
241.6994521613689
 20
667.1319643176009
 30
0.0
 11
241.390049274615
 21
670.668455495826
 31
0.0
  0
LINE
  5
95D9
330
1F
100
AcDbEntity
  8
hasen
100
AcDbLine
 10
242.6994521613691
 20
667.1319643175989
 30
0.0
 11
243.008855048123
 21
670.668455495825
 31
0.0
  0
LINE
  5
95DA
330
1F
100
AcDbEntity
  8
hasen
100
AcDbLine
 10
241.390049274615
 20
670.668455495826
 30
0.0
 11
243.008855048123
 21
670.668455495826
 31
0.0
  0
LINE
  5
95DB
330
1F
100
AcDbEntity
  8
0
100
AcDbLine
 10
542.3494521604628
 20
662.131964316502
 30
0.0
 11
542.3494521604628
 21
659.131964316502
 31
0.0
  0
LINE
  5
95DC
330
1F
100
AcDbEntity
  8
0
100
AcDbLine
 10
542.5494521604621
 20
662.131964316502
 30
0.0
 11
542.3494521604628
 21
662.131964316502
 31
0.0
  0
LINE
  5
95DD
330
1F
100
AcDbEntity
  8
0
100
AcDbLine
 10
542.3494521604628
 20
659.131964316502
 30
0.0
 11
542.4494521604624
 21
659.131964316502
 31
0.0
  0
LINE
  5
95DE
330
1F
100
AcDbEntity
  8
0
100
AcDbLine
 10
542.5494521604621
 20
662.131964316502
 30
0.0
 11
542.5494521604621
 21
642.2099334867966
 31
0.0
  0
LINE
  5
95DF
330
1F
100
AcDbEntity
  8
0
100
AcDbLine
 10
542.4494521604624
 20
662.0319643165023
 30
0.0
 11
542.4494521604624
 21
642.118543672153
 31
0.0
  0
ARC
  5
95E0
330
1F
100
AcDbEntity
  8
0
100
AcDbCircle
 10
367.787169438714
 20
-1233.784509162982
 30
0.0
 40
1884.117035726541
100
AcDbArc
 50
84.6198173659854
 51
84.67784906013369
  0
LINE
  5
95E1
330
1F
100
AcDbEntity
  8
0
100
AcDbLine
 10
544.4494521604623
 20
642.0319643169025
 30
0.0
 11
544.4494521604623
 21
641.9319643169028
 31
0.0
  0
LINE
  5
95E2
330
1F
100
AcDbEntity
  8
0
100
AcDbLine
 10
186.5494521606729
 20
659.131964316502
 30
0.0
 11
186.4494521606733
 21
659.131964316502
 31
0.0
  0
LINE
  5
95E3
330
1F
100
AcDbEntity
  8
0
100
AcDbLine
 10
186.349452160672
 20
662.131964316502
 30
0.0
 11
186.5494521606729
 21
662.131964316502
 31
0.0
  0
LINE
  5
95E4
330
1F
100
AcDbEntity
  8
0
100
AcDbLine
 10
186.5494521606729
 20
662.131964316502
 30
0.0
 11
186.5494521606729
 21
659.131964316502
 31
0.0
  0
LINE
  5
95E5
330
1F
100
AcDbEntity
  8
0
100
AcDbLine
 10
184.449452160471
 20
642.031964316905
 30
0.0
 11
184.449452160471
 21
641.9319643169053
 31
0.0
  0
ARC
  5
95E6
330
1F
100
AcDbEntity
  8
0
100
AcDbCircle
 10
361.1117348822194
 20
-1233.784509162979
 30
0.0
 40
1884.117035726541
100
AcDbArc
 50
95.3221509398663
 51
95.38018263401461
  0
LINE
  5
95E7
330
1F
100
AcDbEntity
  8
0
100
AcDbLine
 10
186.4494521606733
 20
662.0319643165023
 30
0.0
 11
186.4494521604714
 21
642.1185436721555
 31
0.0
  0
LINE
  5
95E8
330
1F
100
AcDbEntity
  8
0
100
AcDbLine
 10
186.349452160672
 20
662.131964316502
 30
0.0
 11
186.3494521604701
 21
642.2099334867992
 31
0.0
  0
TEXT
  5
95E9
330
1F
100
AcDbEntity
  8
moji
100
AcDbText
 10
362.7694521605666
 20
611.8119643164876
 30
0.0
 40
3.6
  1
Ｃ
  7
kanji
 72
     4
 11
364.4494521605666
 21
613.7319643164876
 31
0.0
100
AcDbText
  0
TEXT
  5
95EA
330
1F
100
AcDbEntity
  8
moji
100
AcDbText
 10
363.8863215124906
 20
610.0254336444464
 30
0.0
 40
3.6
  1
Ｌ
  7
kanji
 72
     4
 11
365.5663215124906
 21
611.9454336444464
 31
0.0
100
AcDbText
  0
LINE
  5
95EB
330
1F
100
AcDbEntity
  8
1
  6
Continuous
100
AcDbLine
 10
171.6838179418736
 20
664.131964316487
 30
0.0
 11
586.5244521605687
 21
664.1319643164879
 31
0.0
  0
LINE
  5
95EC
330
1F
100
AcDbEntity
  8
2
  6
Continuous
100
AcDbLine
 10
171.6838179418736
 20
666.6319643164865
 30
0.0
 11
586.5244521605687
 21
666.6319643164881
 31
0.0
  0
DIMENSION
  5
95ED
102
{ACAD_XDICTIONARY
360
95EE
102
}
102
{ACAD_REACTORS
330
95EF
102
}
330
1F
100
AcDbEntity
  8
sunpo
100
AcDbDimension
  2
*D39
 10
486.6994521605666
 20
686.9123300736009
 30
0.0
 11
364.4494521605677
 21
691.4837586450295
 31
0.0
 70
    32
  1
取付穴（補強芯）ピッチ＝<>
 71
     5
 42
2444.999999999979
  3
dim2_20
100
AcDbAlignedDimension
 13
242.1994521605687
 23
671.6819643164712
 33
0.0
 14
486.6994521605666
 24
671.6819643164715
 34
0.0
100
AcDbRotatedDimension
  0
DIMENSION
  5
95F0
330
1F
100
AcDbEntity
  8
sunpo
100
AcDbDimension
  2
*D38
 10
244.4494521605671
 20
597.0342263168447
 30
0.0
 11
234.2966840988392
 21
596.9654142986223
 31
0.0
 70
   160
 71
     5
 42
34.99999999997101
  3
dim2_20
100
AcDbAlignedDimension
 13
240.94945216057
 23
630.7135532127572
 33
0.0
 14
244.4494521605671
 24
630.7135532127572
 34
0.0
100
AcDbRotatedDimension
  0
DIMENSION
  5
95F1
330
1F
100
AcDbEntity
  8
sunpo
100
AcDbDimension
  2
*D37
 10
484.4494521605666
 20
597.0342263168447
 30
0.0
 11
364.4494521605669
 21
601.6056548882732
 31
0.0
 70
    32
  1
UDスライダー装置W＝<>
 71
     5
 42
2399.999999999995
  3
dim2_20
100
AcDbAlignedDimension
 13
244.4494521605671
 23
630.7135532127572
 33
0.0
 14
484.4494521605666
 24
630.7135532127572
 34
0.0
100
AcDbRotatedDimension
  0
DIMENSION
  5
95F2
330
1F
100
AcDbEntity
  8
sunpo
100
AcDbDimension
  2
*D36
 10
544.44945218602
 20
581.5249465410476
 30
0.0
 11
364.4494521732456
 21
585.5249465410476
 31
0.0
 70
    32
  1
W
 71
     5
 42
3600.00000025549
  3
dim2_20
100
AcDbAlignedDimension
 13
184.449452160471
 23
630.7135532127572
 33
0.0
 14
544.44945218602
 24
630.7135532127572
 34
0.0
100
AcDbRotatedDimension
  0
DIMENSION
  5
95F3
330
1F
100
AcDbEntity
  8
sunpo
100
AcDbDimension
  2
*D35
 10
484.449452160566
 20
597.0342263168447
 30
0.0
 11
494.6022202222938
 21
596.9654142986223
 31
0.0
 70
   160
 71
     5
 42
34.99999999997158
  3
dim2_20
100
AcDbAlignedDimension
 13
487.9494521605631
 23
630.7135532127572
 33
0.0
 14
484.449452160566
 24
630.7135532127572
 34
0.0
 50
180.0
100
AcDbRotatedDimension
  0
TEXT
  5
95FA
330
1F
100
AcDbEntity
  8
moji
100
AcDbText
 10
334.6943287181169
 20
555.0735075272524
 30
0.0
 40
6.0
  1
平面図 S=1:20
  7
StdW
 72
     4
 11
363.4371858609741
 21
558.0735075272524
 31
0.0
100
AcDbText
  0
LWPOLYLINE
  5
95FB
330
1F
100
AcDbEntity
  8
saisen
370
    15
100
AcDbPolyline
 90
        4
 70
     1
 43
0.0
 10
326.5508107600912
 20
552.0030175182309
 10
326.5508107600912
 20
564.6498752965737
 10
402.3480935863993
 20
564.6498752965737
 10
402.3480935863993
 20
552.0030175182309
  0
LWPOLYLINE
  5
95FC
330
1F
100
AcDbEntity
  8
saisen
370
    15
100
AcDbPolyline
 90
        4
 70
     1
 43
0.0
 10
326.0508107600912
 20
565.1498752965735
 10
402.8480935863994
 20
565.1498752965735
 10
402.8480935863994
 20
551.503017518231
 10
326.0508107600912
 20
551.503017518231
  0
LWPOLYLINE
  5
9A29
330
1F
100
AcDbEntity
  8
saisen
370
    15
100
AcDbPolyline
 90
        4
 70
     1
 43
0.0
 10
326.0508107600912
 20
131.220064576989
 10
402.8480935863994
 20
131.220064576989
 10
402.8480935863994
 20
117.5732067986465
 10
326.0508107600912
 20
117.5732067986465
  0
LWPOLYLINE
  5
9A2A
330
1F
100
AcDbEntity
  8
saisen
370
    15
100
AcDbPolyline
 90
        4
 70
     1
 43
0.0
 10
326.5508107600912
 20
118.0732067986464
 10
326.5508107600912
 20
130.7200645769891
 10
402.3480935863993
 20
130.7200645769891
 10
402.3480935863993
 20
118.0732067986464
  0
TEXT
  5
9A2B
330
1F
100
AcDbEntity
  8
moji
100
AcDbText
 10
334.6943287181169
 20
121.1436968076678
 30
0.0
 40
6.0
  1
正面図 S=1:20
  7
StdW
 72
     4
 11
363.4371858609741
 21
124.1436968076679
 31
0.0
100
AcDbText
  0
DIMENSION
  5
9BA2
330
1F
100
AcDbEntity
  8
sunpo
100
AcDbDimension
  2
*D40
 10
682.8806969477596
 20
106.4999999999993
 30
0.0
 11
678.6806969477595
 21
159.192977592261
 31
0.0
 70
    32
  1
FLﾏﾃﾞ800
 71
     5
 42
105.385955184523
  3
dim2
100
AcDbAlignedDimension
 13
724.6270944666007
 23
211.8859551845223
 33
0.0
 14
682.8806969477596
 24
106.4999999999993
 34
0.0
 50
90.0
100
AcDbRotatedDimension
1001
ACAD
1000
DSTYLE
1002
{
1070
    76
1070
     1
1070
   344
1005
2D20
1070
   342
1005
0
1070
   173
1070
     1
1070
   343
1005
46
1002
}
  0
LINE
  5
9BC1
330
1F
100
AcDbEntity
  8
sunpo
370
     9
100
AcDbLine
 10
1140.125330420605
 20
106.5000000049997
 30
0.0
 11
1138.134083725636
 21
112.061476749308
 31
0.0
  0
LINE
  5
9BC2
330
1F
100
AcDbEntity
  8
sunpo
370
     9
100
AcDbLine
 10
1138.134083725636
 20
112.061476749308
 30
0.0
 11
1141.733580781383
 21
114.9252546645584
 31
0.0
  0
LINE
  5
9BE3
330
1F
100
AcDbEntity
  8
sunpo
370
     9
100
AcDbLine
 10
680.88945025279
 20
112.0614767443075
 30
0.0
 11
684.4889473085377
 21
114.925254659558
 31
0.0
  0
LINE
  5
9BE4
330
1F
100
AcDbEntity
  8
sunpo
370
     9
100
AcDbLine
 10
682.8806969477596
 20
106.4999999999993
 30
0.0
 11
680.88945025279
 21
112.0614767443075
 31
0.0
  0
LINE
  5
9BF4
330
1F
100
AcDbEntity
  8
moji
100
AcDbLine
 10
172.603472050785
 20
664.131964316487
 30
0.0
 11
169.1393704356469
 21
658.131964316487
 31
0.0
  0
LINE
  5
9BF5
330
1F
100
AcDbEntity
  8
moji
100
AcDbLine
 10
176.0675736659232
 20
658.131964316487
 30
0.0
 11
172.603472050785
 21
664.131964316487
 31
0.0
  0
TEXT
  5
9BF6
330
1F
100
AcDbEntity
  8
moji
100
AcDbText
 10
159.7701387174517
 20
648.2966379028558
 30
0.0
 40
5.0
  1
壁 仕上面
  7
kanji
 72
     4
 11
172.603472050785
 21
650.7966379028557
 31
0.0
100
AcDbText
  0
LINE
  5
9BF7
330
1F
100
AcDbEntity
  8
moji
100
AcDbLine
 10
169.1393704356469
 20
658.131964316487
 30
0.0
 11
176.0675736659232
 21
658.131964316487
 31
0.0
  0
MTEXT
  5
9C02
102
{ACAD_REACTORS
330
9C03
102
}
330
1F
100
AcDbEntity
  8
sunpo
 62
     2
100
AcDbMText
 10
595.5179588309697
 20
300.7052956843218
 30
0.0
 40
6.0
 41
0.0
 71
     7
 72
     1
  1
コーナーキャップ(樹脂)
  7
Std
 73
     1
 44
1.0
  0
LEADER
  5
9C03
330
1F
100
AcDbEntity
  8
sunpo
100
AcDbLeader
  3
dim2_20
 73
     0
 74
     0
 75
     1
 40
9.14285714285714
 41
62.44571428571427
 76
     3
 10
545.1074846364067
 20
359.7125480276627
 30
0.0
 10
588.5179588309697
 20
303.2052956843218
 30
0.0
 10
594.5179588309697
 20
303.2052956843218
 30
0.0
340
9C02
213
0.0
223
2.5
233
0.0
1001
ACAD
1000
DSTYLE
1002
{
1070
   147
1040
0.5
1070
    77
1070
     0
1002
}
  0
LEADER
  5
9C04
330
1F
100
AcDbEntity
  8
sunpo
100
AcDbLeader
  3
dim2_20
 73
     0
 74
     0
 75
     1
 40
6.000000000000001
 41
33.23428571428573
 76
     3
 10
542.5612460385194
 20
651.8901345818294
 30
0.0
 10
562.3995197815814
 20
676.1427316884374
 30
0.0
 10
568.3995197815813
 20
676.1427316884374
 30
0.0
340
9C05
213
0.0
223
2.5
233
0.0
1001
ACAD
1000
DSTYLE
1002
{
1070
   147
1040
0.5
1070
    77
1070
     0
1002
}
  0
MTEXT
  5
9C05
102
{ACAD_REACTORS
330
9C04
102
}
330
1F
100
AcDbEntity
  8
sunpo
 62
     2
100
AcDbMText
 10
569.3995197815813
 20
673.6427316884373
 30
0.0
 40
6.0
 41
0.0
 71
     7
 72
     1
  1
目隠しカバー
  7
Std
 73
     1
 44
1.0
  0
VIEWPORT
  5
24C
330
1B
100
AcDbEntity
 67
     1
  8
0
100
AcDbViewport
 10
579.0621378589341
 20
383.550019396431
 30
0.0
 40
1411.597673073116
 41
880.2002074220428
 68
     1
 69
     1
 12
579.0621378589341
 22
383.550019396431
 13
0.0
 23
0.0
 14
10.0
 24
10.0
 15
10.0
 25
10.0
 16
0.0
 26
0.0
 36
1.0
 17
0.0
 27
0.0
 37
0.0
 42
50.0
 43
0.0
 44
0.0
 45
880.2002074220428
 50
0.0
 51
0.0
 72
   100
 90
    32800
  1

281
     0
 71
     1
 74
     0
110
0.0
120
0.0
130
0.0
111
1.0
121
0.0
131
0.0
112
0.0
122
1.0
132
0.0
 79
     0
146
0.0
170
     0
  0
VIEWPORT
  5
2C4
330
1B
100
AcDbEntity
 67
     1
  8
0
100
AcDbViewport
 10
579.0698083852025
 20
383.5379149631606
 30
0.0
 40
1209.974379128347
 41
873.1909598778374
 68
     2
 69
     2
 12
594.0
 22
420.0
 13
0.0
 23
0.0
 14
10.0
 24
10.0
 15
10.0
 25
10.0
 16
0.0
 26
0.0
 36
1.0
 17
0.0
 27
0.0
 37
0.0
 42
50.0
 43
0.0
 44
0.0
 45
873.1909598778374
 50
0.0
 51
0.0
 72
   100
 90
    32864
  1

281
     0
 71
     1
 74
     0
110
0.0
120
0.0
130
0.0
111
1.0
121
0.0
131
0.0
112
0.0
122
1.0
132
0.0
 79
     0
146
0.0
170
     0
  0
ENDSEC
  0
SECTION
  2
OBJECTS
  0
DICTIONARY
  5
C
330
0
100
AcDbDictionary
281
     1
  3
ACAD_COLOR
350
2F1
  3
ACAD_GROUP
350
D
  3
ACAD_LAYOUT
350
1A
  3
ACAD_MATERIAL
350
2F0
  3
ACAD_MLINESTYLE
350
17
  3
ACAD_PLOTSETTINGS
350
19
  3
ACAD_PLOTSTYLENAME
350
E
  3
AcadDim
350
9162
  0
DICTIONARY
  5
307
330
2
100
AcDbDictionary
280
     1
281
     1
  3
ACAD_LAYERFILTERS
360
3AA
  3
ACAD_LAYERSTATES
360
308
  0
DICTIONARY
  5
6AEB
330
6AEA
100
AcDbDictionary
280
     1
281
     1
  3
ACAD_XREC_ROUNDTRIP
360
6AEC
  3
ADSK_XREC_LAYER_RECONCILED
360
6AED
  0
DICTIONARY
  5
95EE
330
95ED
100
AcDbDictionary
280
     1
281
     1
  3
ACAD_DIMASSOC
360
95EF
  0
DICTIONARY
  5
2F1
102
{ACAD_REACTORS
330
C
102
}
330
C
100
AcDbDictionary
281
     1
  0
DICTIONARY
  5
D
102
{ACAD_REACTORS
330
C
102
}
330
C
100
AcDbDictionary
281
     1
  0
DICTIONARY
  5
1A
102
{ACAD_REACTORS
330
C
102
}
330
C
100
AcDbDictionary
281
     1
  3
Model
350
22
  3
ﾚｲｱｳﾄ1
350
1E
  3
ﾚｲｱｳﾄ2
350
26
  0
DICTIONARY
  5
2F0
102
{ACAD_REACTORS
330
C
102
}
330
C
100
AcDbDictionary
281
     1
  3
Global
350
6AF4
  0
DICTIONARY
  5
17
102
{ACAD_REACTORS
330
C
102
}
330
C
100
AcDbDictionary
281
     1
  3
Standard
350
18
  0
DICTIONARY
  5
19
102
{ACAD_REACTORS
330
C
102
}
330
C
100
AcDbDictionary
281
     1
  0
ACDBDICTIONARYWDFLT
  5
E
102
{ACAD_REACTORS
330
C
102
}
330
C
100
AcDbDictionary
281
     1
  3
Normal
350
F
100
AcDbDictionaryWithDefault
340
F
  0
XRECORD
  5
9162
102
{ACAD_REACTORS
330
C
102
}
330
C
100
AcDbXrecord
280
     1
 90
   990106
  3

 60
     0
 61
     0
 62
     1
 63
     3
 64
     0
 65
     0
 66
     0
 67
     3
 68
     1
 69
     0
 70
     0
 71
     0
 72
     0
 40
0.0
170
     0
340
942E
  0
DICTIONARY
  5
3AA
102
{ACAD_REACTORS
330
307
102
}
330
307
100
AcDbDictionary
281
     1
  0
DICTIONARY
  5
308
102
{ACAD_REACTORS
330
307
102
}
330
307
100
AcDbDictionary
281
     1
  0
XRECORD
  5
6AEC
102
{ACAD_REACTORS
330
6AEB
102
}
330
6AEB
100
AcDbXrecord
280
     1
102
MATERIAL
340
6AF4
  0
XRECORD
  5
6AED
102
{ACAD_REACTORS
330
6AEB
102
}
330
6AEB
100
AcDbXrecord
280
     1
290
     1
  0
DIMASSOC
  5
95EF
102
{ACAD_REACTORS
330
95EE
102
}
330
95EE
100
AcDbDimAssoc
330
95ED
 90
        3
 70
     0
 71
     0
  1
AcDbOsnapPointRef
 72
     1
331
958F
 73
     2
 91
        0
 40
1.0
 10
0.0
 20
0.0
 30
2.000000000000000E+50
 75
     0
  1
AcDbOsnapPointRef
 72
     8
331
958A
 73
     2
 91
        0
 40
1.0
 10
0.0
 20
0.0
 30
0.0
 75
     1
  1
AcDbOsnapPointRef
 72
     1
331
958F
 73
     2
 91
        0
 40
1.0
 10
0.0
 20
0.0
 30
2.000000000000000E+50
 75
     0
  0
LAYOUT
  5
22
102
{ACAD_REACTORS
330
1A
102
}
330
1A
100
AcDbPlotSettings
  1

  2
HP DesignJet 800 24 by HP
  4
User1294
  6

 40
4.995333194732666
 41
16.97565841674804
 42
4.99530029296875
 43
16.97567749023437
 44
593.97900390625
 45
419.9466552734374
 46
-75.48
 47
-19.34
 48
0.0
 49
0.0
140
0.0
141
0.0
142
1.0
143
2.0
 70
 11956
 72
     1
 73
     2
 74
     0
  7

 75
    17
147
0.5
 76
     0
 77
     2
 78
   300
148
140.9399608439263
149
4.666800044856984
100
AcDbLayout
  1
Model
 70
     1
 71
     0
 10
0.0
 20
0.0
 11
12.0
 21
9.0
 12
0.0
 22
0.0
 32
0.0
 14
0.0
 24
0.0
 34
0.0
 15
0.0
 25
0.0
 35
0.0
146
0.0
 13
0.0
 23
0.0
 33
0.0
 16
1.0
 26
0.0
 36
0.0
 17
0.0
 27
1.0
 37
0.0
 76
     0
330
1F
  0
LAYOUT
  5
1E
102
{ACAD_REACTORS
330
1A
102
}
330
1A
100
AcDbPlotSettings
  1

  2
HP DesignJet 800 24 by HP
  4
User1294
  6

 40
4.995333194732666
 41
16.97565841674804
 42
4.99530029296875
 43
16.97567749023437
 44
593.97900390625
 45
419.9466552734374
 46
0.0
 47
0.0
 48
0.0
 49
0.0
140
0.0
141
0.0
142
1.0
143
2.0
 70
   688
 72
     1
 73
     2
 74
     5
  7
monochrome.ctb
 75
    17
147
0.5
 76
     1
 77
     2
 78
   300
148
0.0
149
0.0
100
AcDbLayout
  1
ﾚｲｱｳﾄ1
 70
     1
 71
     1
 10
-9.9906005859375
 20
-33.95135498046875
 11
1177.967407226562
 21
805.9419555664062
 12
0.0
 22
0.0
 32
0.0
 14
-25.93123167385193
 24
-53.05770098799053
 34
-0.000000000000013
 15
1184.147841776788
 25
820.157747913802
 35
0.0000000000000023
146
0.0
 13
0.0
 23
0.0
 33
0.0
 16
1.0
 26
0.0
 36
0.0
 17
0.0
 27
1.0
 37
0.0
 76
     0
330
1B
331
24C
  0
LAYOUT
  5
26
102
{ACAD_REACTORS
330
1A
102
}
330
1A
100
AcDbPlotSettings
  1

  2
C:\PROGRAM FILES\AUTOCAD LT 2000I\plotters\DWF Classic.pc3
  4

  6

 40
0.0
 41
0.0
 42
0.0
 43
0.0
 44
0.0
 45
0.0
 46
0.0
 47
0.0
 48
0.0
 49
0.0
140
0.0
141
0.0
142
1.0
143
1.0
 70
   688
 72
     0
 73
     0
 74
     5
  7
monochrome.ctb
 75
    16
147
1.0
 76
     0
 77
     2
 78
   300
148
0.0
149
0.0
100
AcDbLayout
  1
ﾚｲｱｳﾄ2
 70
     1
 71
     2
 10
0.0
 20
0.0
 11
12.0
 21
9.0
 12
0.0
 22
0.0
 32
0.0
 14
0.0
 24
0.0
 34
0.0
 15
0.0
 25
0.0
 35
0.0
146
0.0
 13
0.0
 23
0.0
 33
0.0
 16
1.0
 26
0.0
 36
0.0
 17
0.0
 27
1.0
 37
0.0
 76
     0
330
23
  0
MATERIAL
  5
6AF4
102
{ACAD_XDICTIONARY
360
6AF5
102
}
102
{ACAD_REACTORS
330
2F0
102
}
330
2F0
100
AcDbMaterial
  1
Global
  0
MLINESTYLE
  5
18
102
{ACAD_REACTORS
330
17
102
}
330
17
100
AcDbMlineStyle
  2
STANDARD
 70
     0
  3

 62
   256
 51
90.0
 52
90.0
 71
     2
 49
0.5
 62
   256
  6
BYLAYER
 49
-0.5
 62
   256
  6
BYLAYER
  0
ACDBPLACEHOLDER
  5
F
102
{ACAD_REACTORS
330
E
102
}
330
E
  0
DICTIONARY
  5
6AF5
330
6AF4
100
AcDbDictionary
280
     1
281
     1
  3
ACAD_XREC_ROUNDTRIP
360
6AF6
  0
XRECORD
  5
6AF6
102
{ACAD_REACTORS
330
6AF5
102
}
330
6AF5
100
AcDbXrecord
280
     1
102
MATERIAL
148
0.0
149
0.0
149
0.0
 93
        0
 94
       63
282
     0
 72
     1
 77
     1
171
     1
175
     1
179
     1
273
     0
  0
ENDSEC
  0
EOF
