  0
SECTION
  2
HEADER
  9
$ACADVER
  1
AC1018
  9
$ACADMAINTVER
 70
     0
  9
$DWGCODEPAGE
  3
ANSI_932
  9
$INSBASE
 10
0.0
 20
0.0
 30
0.0
  9
$EXTMIN
 10
-0.06361516171728
 20
-0.0640780957635343
 30
0.0
  9
$EXTMAX
 10
1188.055277839419
 20
840.0000039120333
 30
0.0000000000000152
  9
$LIMMIN
 10
0.0
 20
0.0
  9
$LIMMAX
 10
594.0
 20
420.0
  9
$ORTHOMODE
 70
     1
  9
$REGENMODE
 70
     1
  9
$FILLMODE
 70
     1
  9
$QTEXTMODE
 70
     0
  9
$MIRRTEXT
 70
     0
  9
$LTSCALE
 40
2.0
  9
$ATTMODE
 70
     1
  9
$TEXTSIZE
 40
2.5
  9
$TRACEWID
 40
1.0
  9
$TEXTSTYLE
  7
Std
  9
$CLAYER
  8
hatch
  9
$CELTYPE
  6
ByLayer
  9
$CECOLOR
 62
   256
  9
$CELTSCALE
 40
1.0
  9
$DISPSILH
 70
     0
  9
$DIMSCALE
 40
2.0
  9
$DIMASZ
 40
2.299999999999998
  9
$DIMEXO
 40
2.0
  9
$DIMDLI
 40
8.0
  9
$DIMRND
 40
0.0
  9
$DIMDLE
 40
0.0
  9
$DIMEXE
 40
1.0
  9
$DIMTP
 40
0.0
  9
$DIMTM
 40
0.0
  9
$DIMTXT
 40
3.0
  9
$DIMCEN
 40
0.0
  9
$DIMTSZ
 40
0.0
  9
$DIMTOL
 70
     0
  9
$DIMLIM
 70
     0
  9
$DIMTIH
 70
     0
  9
$DIMTOH
 70
     0
  9
$DIMSE1
 70
     0
  9
$DIMSE2
 70
     0
  9
$DIMTAD
 70
     1
  9
$DIMZIN
 70
     8
  9
$DIMBLK
  1
ARRI
  9
$DIMASO
 70
     1
  9
$DIMSHO
 70
     1
  9
$DIMPOST
  1

  9
$DIMAPOST
  1

  9
$DIMALT
 70
     0
  9
$DIMALTD
 70
     3
  9
$DIMALTF
 40
0.03937007874016
  9
$DIMLFAC
 40
1.0
  9
$DIMTOFL
 70
     1
  9
$DIMTVP
 40
0.0
  9
$DIMTIX
 70
     0
  9
$DIMSOXD
 70
     0
  9
$DIMSAH
 70
     0
  9
$DIMBLK1
  1

  9
$DIMBLK2
  1

  9
$DIMSTYLE
  2
Std2
  9
$DIMCLRD
 70
     3
  9
$DIMCLRE
 70
     3
  9
$DIMCLRT
 70
     2
  9
$DIMTFAC
 40
1.0
  9
$DIMGAP
 40
0.6
  9
$DIMJUST
 70
     0
  9
$DIMSD1
 70
     0
  9
$DIMSD2
 70
     0
  9
$DIMTOLJ
 70
     0
  9
$DIMTZIN
 70
     8
  9
$DIMALTZ
 70
     0
  9
$DIMALTTZ
 70
     0
  9
$DIMUPT
 70
     0
  9
$DIMDEC
 70
     1
  9
$DIMTDEC
 70
     1
  9
$DIMALTU
 70
     2
  9
$DIMALTTD
 70
     3
  9
$DIMTXSTY
  7
Std
  9
$DIMAUNIT
 70
     0
  9
$DIMADEC
 70
     0
  9
$DIMALTRND
 40
0.0
  9
$DIMAZIN
 70
     0
  9
$DIMDSEP
 70
    46
  9
$DIMATFIT
 70
     3
  9
$DIMFRAC
 70
     0
  9
$DIMLDRBLK
  1
ARRI
  9
$DIMLUNIT
 70
     6
  9
$DIMLWD
 70
     9
  9
$DIMLWE
 70
     9
  9
$DIMTMOVE
 70
     2
  9
$LUNITS
 70
     2
  9
$LUPREC
 70
     2
  9
$SKETCHINC
 40
1.0
  9
$FILLETRAD
 40
0.0
  9
$AUNITS
 70
     0
  9
$AUPREC
 70
     2
  9
$MENU
  1
.
  9
$ELEVATION
 40
0.0
  9
$PELEVATION
 40
0.0
  9
$THICKNESS
 40
0.0
  9
$LIMCHECK
 70
     0
  9
$CHAMFERA
 40
10.0
  9
$CHAMFERB
 40
10.0
  9
$CHAMFERC
 40
20.0
  9
$CHAMFERD
 40
0.0
  9
$SKPOLY
 70
     0
  9
$TDCREATE
 40
2451935.570731713
  9
$TDUCREATE
 40
2451935.195731713
  9
$TDUPDATE
 40
2455741.443552153
  9
$TDUUPDATE
 40
2455741.068552153
  9
$TDINDWG
 40
3.4409453588
  9
$TDUSRTIMER
 40
3.4409451736
  9
$USRTIMER
 70
     1
  9
$ANGBASE
 50
0.0
  9
$ANGDIR
 70
     0
  9
$PDMODE
 70
     0
  9
$PDSIZE
 40
0.0
  9
$PLINEWID
 40
0.0
  9
$SPLFRAME
 70
     0
  9
$SPLINETYPE
 70
     6
  9
$SPLINESEGS
 70
     8
  9
$HANDSEED
  5
2ACD0
  9
$SURFTAB1
 70
     6
  9
$SURFTAB2
 70
     6
  9
$SURFTYPE
 70
     6
  9
$SURFU
 70
     6
  9
$SURFV
 70
     6
  9
$UCSBASE
  2

  9
$UCSNAME
  2

  9
$UCSORG
 10
0.0
 20
0.0
 30
0.0
  9
$UCSXDIR
 10
1.0
 20
0.0
 30
0.0
  9
$UCSYDIR
 10
0.0
 20
1.0
 30
0.0
  9
$UCSORTHOREF
  2

  9
$UCSORTHOVIEW
 70
     0
  9
$UCSORGTOP
 10
0.0
 20
0.0
 30
0.0
  9
$UCSORGBOTTOM
 10
0.0
 20
0.0
 30
0.0
  9
$UCSORGLEFT
 10
0.0
 20
0.0
 30
0.0
  9
$UCSORGRIGHT
 10
0.0
 20
0.0
 30
0.0
  9
$UCSORGFRONT
 10
0.0
 20
0.0
 30
0.0
  9
$UCSORGBACK
 10
0.0
 20
0.0
 30
0.0
  9
$PUCSBASE
  2

  9
$PUCSNAME
  2

  9
$PUCSORG
 10
0.0
 20
0.0
 30
0.0
  9
$PUCSXDIR
 10
1.0
 20
0.0
 30
0.0
  9
$PUCSYDIR
 10
0.0
 20
1.0
 30
0.0
  9
$PUCSORTHOREF
  2

  9
$PUCSORTHOVIEW
 70
     0
  9
$PUCSORGTOP
 10
0.0
 20
0.0
 30
0.0
  9
$PUCSORGBOTTOM
 10
0.0
 20
0.0
 30
0.0
  9
$PUCSORGLEFT
 10
0.0
 20
0.0
 30
0.0
  9
$PUCSORGRIGHT
 10
0.0
 20
0.0
 30
0.0
  9
$PUCSORGFRONT
 10
0.0
 20
0.0
 30
0.0
  9
$PUCSORGBACK
 10
0.0
 20
0.0
 30
0.0
  9
$USERI1
 70
     0
  9
$USERI2
 70
     0
  9
$USERI3
 70
     0
  9
$USERI4
 70
     0
  9
$USERI5
 70
     0
  9
$USERR1
 40
0.0
  9
$USERR2
 40
0.0
  9
$USERR3
 40
0.0
  9
$USERR4
 40
0.0
  9
$USERR5
 40
0.0
  9
$WORLDVIEW
 70
     1
  9
$SHADEDGE
 70
     3
  9
$SHADEDIF
 70
    70
  9
$TILEMODE
 70
     1
  9
$MAXACTVP
 70
    64
  9
$PINSBASE
 10
0.0
 20
0.0
 30
0.0
  9
$PLIMCHECK
 70
     0
  9
$PEXTMIN
 10
-12.77114157850405
 20
-40.11102863875668
 30
0.0
  9
$PEXTMAX
 10
1188.670531187168
 20
814.0841606449789
 30
0.0
  9
$PLIMMIN
 10
-9.9906005859375
 20
-33.95135498046875
  9
$PLIMMAX
 10
1177.967407226562
 20
805.9419555664062
  9
$UNITMODE
 70
     0
  9
$VISRETAIN
 70
     1
  9
$PLINEGEN
 70
     0
  9
$PSLTSCALE
 70
     1
  9
$TREEDEPTH
 70
  3020
  9
$CMLSTYLE
  2
Standard
  9
$CMLJUST
 70
     0
  9
$CMLSCALE
 40
20.0
  9
$PROXYGRAPHICS
 70
     1
  9
$MEASUREMENT
 70
     1
  9
$CELWEIGHT
370
    -1
  9
$ENDCAPS
280
     0
  9
$JOINSTYLE
280
     0
  9
$LWDISPLAY
290
     0
  9
$INSUNITS
 70
     4
  9
$HYPERLINKBASE
  1

  9
$STYLESHEET
  1
monochrome.ctb
  9
$XEDIT
290
     1
  9
$CEPSNTYPE
380
     0
  9
$PSTYLEMODE
290
     1
  9
$FINGERPRINTGUID
  2
{1128C918-EA32-49CA-A447-4FB40908B966}
  9
$VERSIONGUID
  2
{1F344347-4852-4F4C-824D-64A5B1441096}
  9
$EXTNAMES
290
     1
  9
$PSVPSCALE
 40
0.0
  9
$OLESTARTUP
290
     0
  9
$SORTENTS
280
   127
  9
$INDEXCTL
280
     0
  9
$HIDETEXT
280
     0
  9
$XCLIPFRAME
290
     0
  9
$HALOGAP
280
     0
  9
$OBSCOLOR
 70
   257
  9
$OBSLTYPE
280
     0
  9
$INTERSECTIONDISPLAY
280
     0
  9
$INTERSECTIONCOLOR
 70
   257
  9
$DIMASSOC
280
     1
  9
$PROJECTNAME
  1

  0
ENDSEC
  0
SECTION
  2
CLASSES
  0
CLASS
  1
ACDBDICTIONARYWDFLT
  2
AcDbDictionaryWithDefault
  3
ObjectDBX Classes
 90
        0
 91
        1
280
     0
281
     0
  0
CLASS
  1
DICTIONARYVAR
  2
AcDbDictionaryVar
  3
ObjectDBX Classes
 90
        0
 91
        0
280
     0
281
     0
  0
CLASS
  1
SORTENTSTABLE
  2
AcDbSortentsTable
  3
ObjectDBX Classes
 90
        0
 91
        1
280
     0
281
     0
  0
ENDSEC
  0
SECTION
  2
TABLES
  0
TABLE
  2
VPORT
  5
8
330
0
100
AcDbSymbolTable
 70
     5
  0
VPORT
  5
2ACCF
330
8
100
AcDbSymbolTableRecord
100
AcDbViewportTableRecord
  2
*Active
 70
     0
 10
0.0
 20
0.0
 11
1.0
 21
1.0
 12
593.9958313388507
 22
419.9679629081349
 13
0.0
 23
0.0
 14
10.0
 24
10.0
 15
10.0
 25
10.0
 16
0.0
 26
0.0
 36
1.0
 17
0.0
 27
0.0
 37
0.0
 40
846.4282038411893
 41
1.458912768647282
 42
50.0
 43
0.0
 44
0.0
 50
0.0
 51
0.0
 71
     0
 72
   100
 73
     1
 74
     3
 75
     0
 76
     0
 77
     0
 78
     0
281
     0
 65
     1
110
0.0
120
0.0
130
0.0
111
1.0
121
0.0
131
0.0
112
0.0
122
1.0
132
0.0
 79
     0
146
0.0
  0
ENDTAB
  0
TABLE
  2
LTYPE
  5
5
330
0
100
AcDbSymbolTable
 70
    19
  0
LTYPE
  5
14
330
5
100
AcDbSymbolTableRecord
100
AcDbLinetypeTableRecord
  2
ByBlock
 70
     0
  3

 72
    65
 73
     0
 40
0.0
  0
LTYPE
  5
15
330
5
100
AcDbSymbolTableRecord
100
AcDbLinetypeTableRecord
  2
ByLayer
 70
     0
  3

 72
    65
 73
     0
 40
0.0
  0
LTYPE
  5
16
330
5
100
AcDbSymbolTableRecord
100
AcDbLinetypeTableRecord
  2
Continuous
 70
     0
  3
Solid line
 72
    65
 73
     0
 40
0.0
  0
LTYPE
  5
2F
330
5
100
AcDbSymbolTableRecord
100
AcDbLinetypeTableRecord
  2
ACAD_ISO04W100
 70
     0
  3
ISO long-dash dot ____ . ____ . ____ . ____ . _
 72
    65
 73
     4
 40
30.0
 49
24.0
 74
     0
 49
-3.0
 74
     0
 49
0.0
 74
     0
 49
-3.0
 74
     0
  0
LTYPE
  5
31
330
5
100
AcDbSymbolTableRecord
100
AcDbLinetypeTableRecord
  2
HIDDEN2
 70
     0
  3
Hidden (.5x) _ _ _ _ _ _ _ _ _ _ _ _ _ _ _ _ _
 72
    65
 73
     2
 40
4.762499999999998
 49
3.174999999999998
 74
     0
 49
-1.587499999999999
 74
     0
  0
LTYPE
  5
1757
330
5
100
AcDbSymbolTableRecord
100
AcDbLinetypeTableRecord
  2
ACAD_ISO05W100
 70
     0
  3
ISO long-dash double-dot ____ .. ____ .. ____ .
 72
    65
 73
     6
 40
33.0
 49
24.0
 74
     0
 49
-3.0
 74
     0
 49
0.0
 74
     0
 49
-3.0
 74
     0
 49
0.0
 74
     0
 49
-3.0
 74
     0
  0
LTYPE
  5
181B
330
5
100
AcDbSymbolTableRecord
100
AcDbLinetypeTableRecord
  2
CENS
 70
     0
  3
(一点鎖線１)---- - ---- - ---- - ---- - ---- - 
 72
    65
 73
     4
 40
13.0
 49
10.0
 74
     0
 49
-1.0
 74
     0
 49
1.0
 74
     0
 49
-1.0
 74
     0
  0
LTYPE
  5
181C
330
5
100
AcDbSymbolTableRecord
100
AcDbLinetypeTableRecord
  2
HOJO
 70
     0
  3
-----------------------------------------------
 72
    65
 73
     2
 40
0.0
 49
0.0
 74
     0
 49
0.0
 74
     0
  0
LTYPE
  5
181D
330
5
100
AcDbSymbolTableRecord
100
AcDbLinetypeTableRecord
  2
HIDS
 70
     0
  3
(破線１)- - - - - - - - - - - - - - - - - - - -
 72
    65
 73
     2
 40
2.5
 49
1.5
 74
     0
 49
-1.0
 74
     0
  0
LTYPE
  5
181E
330
5
100
AcDbSymbolTableRecord
100
AcDbLinetypeTableRecord
  2
HIDDEN3
 70
     0
  3
DASH 0.10
 72
    65
 73
     2
 40
0.2
 49
0.1
 74
     0
 49
-0.1
 74
     0
  0
LTYPE
  5
181F
330
5
100
AcDbSymbolTableRecord
100
AcDbLinetypeTableRecord
  2
PHAS
 70
     0
  3
(二点鎖線１)---- - - ---- - - ---- - - ---- - -
 72
    65
 73
     6
 40
15.0
 49
10.0
 74
     0
 49
-1.0
 74
     0
 49
1.0
 74
     0
 49
-1.0
 74
     0
 49
1.0
 74
     0
 49
-1.0
 74
     0
  0
LTYPE
  5
1820
330
5
100
AcDbSymbolTableRecord
100
AcDbLinetypeTableRecord
  2
DASHED1
 70
     0
  3
--  --  --  --  --  --  --  --  
 72
    65
 73
     2
 40
2.5
 49
1.25
 74
     0
 49
-1.25
 74
     0
  0
LTYPE
  5
1CF1
330
5
100
AcDbSymbolTableRecord
100
AcDbLinetypeTableRecord
  2
CENTER2
 70
     0
  3
----------  --  ----------  --  
 72
    65
 73
     4
 40
20.0
 49
12.5
 74
     0
 49
-2.5
 74
     0
 49
2.5
 74
     0
 49
-2.5
 74
     0
  0
LTYPE
  5
1CF2
330
5
100
AcDbSymbolTableRecord
100
AcDbLinetypeTableRecord
  2
DASHED3
 70
     0
  3
------  ------  ------  ------  
 72
    65
 73
     2
 40
5.0
 49
3.75
 74
     0
 49
-1.25
 74
     0
  0
LTYPE
  5
38CC
330
5
100
AcDbSymbolTableRecord
100
AcDbLinetypeTableRecord
  2
HIDDEN
 70
     0
  3
Hidden __ __ __ __ __ __ __ __ __ __ __ __ __ _
 72
    65
 73
     2
 40
0.375
 49
0.25
 74
     0
 49
-0.125
 74
     0
  0
LTYPE
  5
489D
330
5
100
AcDbSymbolTableRecord
100
AcDbLinetypeTableRecord
  2
CENTER
 70
     0
  3
Center ____ _ ____ _ ____ _ ____ _ ____ _ ____
 72
    65
 73
     4
 40
2.0
 49
1.25
 74
     0
 49
-0.25
 74
     0
 49
0.25
 74
     0
 49
-0.25
 74
     0
  0
LTYPE
  5
52E4
330
5
100
AcDbSymbolTableRecord
100
AcDbLinetypeTableRecord
  2
CENTERX2
 70
     0
  3
Center (2x) ________  __  ________  __  _____
 72
    65
 73
     4
 40
101.6
 49
63.5
 74
     0
 49
-12.7
 74
     0
 49
12.7
 74
     0
 49
-12.7
 74
     0
  0
LTYPE
  5
A968
330
5
100
AcDbSymbolTableRecord
100
AcDbLinetypeTableRecord
  2
DASHED
 70
     0
  3
__ __ __ __ __ __ __ __ __ __ __ __ __ __ __
 72
    65
 73
     2
 40
0.75
 49
0.5
 74
     0
 49
-0.25
 74
     0
  0
LTYPE
  5
B8EC
330
5
100
AcDbSymbolTableRecord
100
AcDbLinetypeTableRecord
  2
DASHED2
 70
     0
  3
CADPAC LINETYPE
 72
    65
 73
     2
 40
14.22744361
 49
9.484962409999999
 74
     0
 49
-4.7424812
 74
     0
  0
LTYPE
  5
D85C
330
5
100
AcDbSymbolTableRecord
100
AcDbLinetypeTableRecord
  2
DOT
 70
     0
  3
...............................................
 72
    65
 73
     2
 40
0.25
 49
0.0
 74
     0
 49
-0.25
 74
     0
  0
LTYPE
  5
145EF
330
5
100
AcDbSymbolTableRecord
100
AcDbLinetypeTableRecord
  2
CENTER1
 70
     0
  3
----- - ----- - ----- - ----- - 
 72
    65
 73
     4
 40
10.0
 49
6.25
 74
     0
 49
-1.25
 74
     0
 49
1.25
 74
     0
 49
-1.25
 74
     0
  0
ENDTAB
  0
TABLE
  2
LAYER
  5
2
102
{ACAD_XDICTIONARY
360
178E
102
}
330
0
100
AcDbSymbolTable
 70
    18
  0
LAYER
  5
10
330
2
100
AcDbSymbolTableRecord
100
AcDbLayerTableRecord
  2
0
 70
     0
 62
     7
  6
Continuous
370
    -3
390
F
  0
LAYER
  5
2C
330
2
100
AcDbSymbolTableRecord
100
AcDbLayerTableRecord
  2
kijun
 70
     0
 62
     1
  6
CENS
370
     9
390
F
  0
LAYER
  5
32
330
2
100
AcDbSymbolTableRecord
100
AcDbLayerTableRecord
  2
Defpoints
 70
     0
 62
   177
  6
Continuous
290
     0
370
    20
390
F
  0
LAYER
  5
33
330
2
100
AcDbSymbolTableRecord
100
AcDbLayerTableRecord
  2
hojo
 70
     0
 62
     6
  6
HOJO
290
     0
370
     9
390
F
  0
LAYER
  5
34
330
2
100
AcDbSymbolTableRecord
100
AcDbLayerTableRecord
  2
hatch
 70
     0
 62
     8
  6
Continuous
370
     9
390
F
  0
LAYER
  5
35
330
2
100
AcDbSymbolTableRecord
100
AcDbLayerTableRecord
  2
moji
 70
     0
 62
     7
  6
Continuous
370
    20
390
F
  0
LAYER
  5
36
330
2
100
AcDbSymbolTableRecord
100
AcDbLayerTableRecord
  2
size
 70
     0
 62
     7
  6
Continuous
370
    20
390
F
  0
LAYER
  5
37
330
2
100
AcDbSymbolTableRecord
100
AcDbLayerTableRecord
  2
sunpo
 70
     0
 62
   111
  6
Continuous
370
    20
390
F
  0
LAYER
  5
1756
330
2
100
AcDbSymbolTableRecord
100
AcDbLayerTableRecord
  2
hasen
 70
     0
 62
    41
  6
HIDS
370
     9
390
F
  0
LAYER
  5
1758
330
2
100
AcDbSymbolTableRecord
100
AcDbLayerTableRecord
  2
2tensasen
 70
     0
 62
   131
  6
PHAS
370
     9
390
F
  0
LAYER
  5
1774
330
2
100
AcDbSymbolTableRecord
100
AcDbLayerTableRecord
  2
saisen
 70
     0
 62
   134
  6
Continuous
370
     9
390
F
  0
LAYER
  5
1782E
330
2
100
AcDbSymbolTableRecord
100
AcDbLayerTableRecord
  2
wakumoji
 70
     0
 62
     7
  6
Continuous
370
    20
390
F
  0
LAYER
  5
212B3
330
2
100
AcDbSymbolTableRecord
100
AcDbLayerTableRecord
  2
kagu
 70
     0
 62
   163
  6
ACAD_ISO05W100
370
    15
390
F
  0
LAYER
  5
263E9
330
2
100
AcDbSymbolTableRecord
100
AcDbLayerTableRecord
  2
中心線
 70
     0
 62
    14
  6
CENS
370
     9
390
F
  0
LAYER
  5
263EA
330
2
100
AcDbSymbolTableRecord
100
AcDbLayerTableRecord
  2
ハッチング
 70
     0
 62
   195
  6
Continuous
370
     5
390
F
  0
LAYER
  5
27EAF
330
2
100
AcDbSymbolTableRecord
100
AcDbLayerTableRecord
  2
sunpo2
 70
     0
 62
   111
  6
Continuous
370
    18
390
F
  0
LAYER
  5
290B6
330
2
100
AcDbSymbolTableRecord
100
AcDbLayerTableRecord
  2
躯体
 70
     0
 62
     9
  6
Continuous
370
    15
390
F
  0
LAYER
  5
290B7
330
2
100
AcDbSymbolTableRecord
100
AcDbLayerTableRecord
  2
塗板･掲示板
 70
     0
 62
     7
  6
Continuous
370
    -3
390
F
  0
ENDTAB
  0
TABLE
  2
STYLE
  5
3
330
0
100
AcDbSymbolTable
 70
     7
  0
STYLE
  5
11
330
3
100
AcDbSymbolTableRecord
100
AcDbTextStyleTableRecord
  2
Standard
 70
     0
 40
0.0
 41
1.0
 50
0.0
 71
     0
 42
2.5
  3
txt.shx
  4
bigfont.shx
  0
STYLE
  5
3D
330
3
100
AcDbSymbolTableRecord
100
AcDbTextStyleTableRecord
  2
kanji
 70
     0
 40
0.0
 41
1.0
 50
0.0
 71
     0
 42
2.5
  3
romans.shx
  4
bigfont.shx
  0
STYLE
  5
41
330
3
100
AcDbSymbolTableRecord
100
AcDbTextStyleTableRecord
  2
gothic
 70
     0
 40
0.0
 41
1.0
 50
0.0
 71
     0
 42
2.5
  3
MS PGothic.ttf
  4

1001
ACAD
1000
MS PGothic
1071
    32818
  0
STYLE
  5
43
330
3
100
AcDbSymbolTableRecord
100
AcDbTextStyleTableRecord
  2
dim
 70
     0
 40
0.0
 41
0.75
 50
0.0
 71
     0
 42
2.5
  3
txt.shx
  4
bigfont.shx
  0
STYLE
  5
1780
330
3
100
AcDbSymbolTableRecord
100
AcDbTextStyleTableRecord
  2
Std
 70
     0
 40
0.0
 41
0.8
 50
0.0
 71
     0
 42
2.5
  3
romans.shx
  4
bigfont.shx
  0
STYLE
  5
17B8
330
3
100
AcDbSymbolTableRecord
100
AcDbTextStyleTableRecord
  2
mincho
 70
     0
 40
0.0
 41
1.0
 50
0.0
 71
     0
 42
2.5
  3
MS PMincho.ttf
  4

1001
ACAD
1000
MS PMincho
1071
    32786
  0
STYLE
  5
D684
330
3
100
AcDbSymbolTableRecord
100
AcDbTextStyleTableRecord
  2
StdW
 70
     0
 40
0.0
 41
1.0
 50
0.0
 71
     0
 42
2.5
  3
romans.shx
  4
bigfont.shx
  0
ENDTAB
  0
TABLE
  2
VIEW
  5
6
330
0
100
AcDbSymbolTable
 70
     0
  0
ENDTAB
  0
TABLE
  2
UCS
  5
7
330
0
100
AcDbSymbolTable
 70
     0
  0
ENDTAB
  0
TABLE
  2
APPID
  5
9
330
0
100
AcDbSymbolTable
 70
     4
  0
APPID
  5
12
330
9
100
AcDbSymbolTableRecord
100
AcDbRegAppTableRecord
  2
ACAD
 70
     0
  0
APPID
  5
48A5
330
9
100
AcDbSymbolTableRecord
100
AcDbRegAppTableRecord
  2
X_OBJNAME
 70
     0
  0
APPID
  5
48A6
330
9
100
AcDbSymbolTableRecord
100
AcDbRegAppTableRecord
  2
X_UNIONHANDLE
 70
     0
  0
APPID
  5
48A7
330
9
100
AcDbSymbolTableRecord
100
AcDbRegAppTableRecord
  2
X_PARENTHANDLE
 70
     0
  0
ENDTAB
  0
TABLE
  2
DIMSTYLE
  5
A
330
0
100
AcDbSymbolTable
 70
    16
100
AcDbDimStyleTable
 71
     5
340
174BF
340
38CE
340
38CF
340
1822
340
27
  0
DIMSTYLE
105
27
330
A
100
AcDbSymbolTableRecord
100
AcDbDimStyleTableRecord
  2
ISO-25
 70
     0
 41
2.5
 42
0.625
 43
3.75
 44
1.25
 73
     0
 74
     0
 77
     1
 78
     8
140
2.5
141
2.5
143
0.03937007874016
147
0.625
171
     3
172
     1
271
     2
272
     2
274
     3
283
     0
284
     8
340
11
  0
DIMSTYLE
105
4A
330
A
100
AcDbSymbolTableRecord
100
AcDbDimStyleTableRecord
  2
dim
 70
     0
 40
20.0
 41
2.5
 42
3.0
 43
5.0
 44
1.0
 73
     0
 74
     0
 77
     1
 78
     8
140
2.5
141
0.0
143
0.03937007874016
147
0.3
171
     3
172
     1
271
     2
272
     2
274
     3
277
     6
279
     2
283
     0
284
     8
340
43
341
46
342
46
  0
DIMSTYLE
105
1822
330
A
100
AcDbSymbolTableRecord
100
AcDbDimStyleTableRecord
  2
Standard
 70
     0
340
11
  0
DIMSTYLE
105
38CE
330
A
100
AcDbSymbolTableRecord
100
AcDbDimStyleTableRecord
  2
Std2
 70
     0
 40
2.0
 41
2.299999999999998
 42
2.0
 43
8.0
 44
1.0
 73
     0
 74
     0
 77
     1
 78
     8
140
3.0
141
0.0
143
0.03937007874016
147
0.6
171
     3
172
     1
176
     3
177
     3
178
     2
271
     1
272
     1
274
     3
277
     6
279
     2
283
     0
284
     8
340
1780
341
17E4
342
17E4
371
     9
372
     9
  0
DIMSTYLE
105
38CF
330
A
100
AcDbSymbolTableRecord
100
AcDbDimStyleTableRecord
  2
dim2
 70
     0
 40
2.0
 41
3.5
 42
2.0
 43
8.0
 44
1.0
 73
     0
 74
     0
 77
     1
 78
     8
140
3.0
141
0.0
143
0.03937007874016
147
0.6
171
     3
172
     1
176
     3
177
     3
178
     2
271
     1
272
     1
274
     3
277
     6
279
     2
283
     0
284
     8
289
     0
340
1780
341
17E4
342
46
371
     9
372
     9
  0
DIMSTYLE
105
174BF
330
A
100
AcDbSymbolTableRecord
100
AcDbDimStyleTableRecord
  2
dim2de
 70
     0
 40
2.0
 41
3.5
 42
2.0
 43
8.0
 44
1.0
 73
     0
 74
     0
 77
     1
 78
     8
140
3.0
141
0.0
143
0.03937007874016
147
0.6
171
     3
172
     1
176
   256
177
   256
178
   256
271
     1
272
     1
274
     3
277
     6
279
     2
283
     0
284
     8
340
1780
341
46
342
46
371
     9
372
     9
  0
DIMSTYLE
105
2104B
330
A
100
AcDbSymbolTableRecord
100
AcDbDimStyleTableRecord
  2
dim2引出線
 70
     0
 40
2.0
 41
3.0
 42
2.0
 43
8.0
 44
1.0
 73
     0
 74
     0
 76
     1
 77
     1
 78
     8
140
2.5
141
0.0
143
0.03937007874016
147
0.5
171
     3
172
     1
173
     1
176
     3
177
     3
178
     2
271
     1
272
     1
274
     3
277
     6
279
     2
283
     0
284
     8
340
1780
341
46
343
46
344
1CF2B
371
     9
372
     9
  0
DIMSTYLE
105
2104C
330
A
100
AcDbSymbolTableRecord
100
AcDbDimStyleTableRecord
  2
dim2延長線上
 70
     0
 40
2.0
 41
3.0
 42
2.0
 43
8.0
 44
1.0
 73
     0
 74
     0
 76
     1
 77
     1
 78
     8
140
2.5
141
0.0
143
0.03937007874016
147
0.5
171
     3
172
     1
176
     3
177
     3
178
     2
271
     1
272
     1
274
     3
277
     6
279
     2
283
     0
284
     8
340
1780
341
46
342
1CF2B
371
     9
372
     9
  0
DIMSTYLE
105
27EB0
330
A
100
AcDbSymbolTableRecord
100
AcDbDimStyleTableRecord
  2
Std10
 70
     0
 40
10.0
 41
2.299999999999998
 42
2.0
 43
8.0
 44
1.0
 73
     0
 74
     0
 77
     1
 78
     8
140
3.0
141
0.0
143
0.03937007874016
147
1.0
171
     3
172
     1
176
     3
177
     3
178
     2
271
     1
272
     1
274
     3
277
     6
279
     2
283
     0
284
     8
340
1780
341
17E4
342
17E4
371
     9
372
     9
  0
DIMSTYLE
105
27EB2
330
A
100
AcDbSymbolTableRecord
100
AcDbDimStyleTableRecord
  2
dim10de
 70
     0
 40
10.0
 41
3.5
 42
2.0
 43
8.0
 44
1.0
 73
     0
 74
     0
 77
     1
 78
     8
140
3.0
141
0.0
143
0.03937007874016
147
0.6
171
     3
172
     1
176
   256
177
   256
178
   256
271
     1
272
     1
274
     3
277
     6
279
     2
283
     0
284
     8
340
1780
341
46
342
46
371
     9
372
     9
  0
DIMSTYLE
105
283F1
102
{ACAD_REACTORS
330
289F7
330
28732
330
28737
330
28738
330
2873A
330
2873D
330
28740
330
28743
330
2874F
330
28754
330
28763
330
28766
330
28770
330
287A6
330
287AE
330
287B5
330
287C7
330
287CA
330
287FE
330
2880F
330
28823
330
28826
330
28833
330
288CE
330
288DC
330
288DD
330
28900
330
28902
102
}
330
A
100
AcDbSymbolTableRecord
100
AcDbDimStyleTableRecord
  2
寸法線
 70
     0
 40
2.0
 41
4.0
 42
0.625
 43
3.75
 44
1.25
 73
     0
 74
     0
 77
     1
 78
     8
140
3.0
141
2.5
143
0.0394
147
0.625
171
     4
172
     1
173
     1
273
     8
274
     4
340
43
341
46
343
46
344
46
  0
DIMSTYLE
105
283F2
102
{ACAD_REACTORS
330
28827
102
}
330
A
100
AcDbSymbolTableRecord
100
AcDbDimStyleTableRecord
  2
延長線
 70
     0
 40
2.0
 41
3.0
 42
0.625
 43
3.75
 44
1.25
 73
     0
 74
     0
 76
     1
 77
     1
 78
     8
140
3.0
141
2.5
143
0.0394
147
0.625
171
     4
172
     1
173
     1
273
     8
274
     4
340
43
341
46
343
46
344
1CF2B
  0
DIMSTYLE
105
283F3
330
A
100
AcDbSymbolTableRecord
100
AcDbDimStyleTableRecord
  2
dim2$7
 70
     0
 40
2.0
 41
2.5
 42
3.0
 43
5.0
 44
1.0
 73
     0
 74
     0
 77
     1
 78
     8
140
2.5
141
0.0
143
0.03937007874016
147
0.3
171
     3
172
     1
271
     2
272
     2
274
     3
277
     6
279
     2
283
     0
284
     8
340
43
341
2106C
342
46
  0
DIMSTYLE
105
2A4C2
330
A
100
AcDbSymbolTableRecord
100
AcDbDimStyleTableRecord
  2
dim20_10
 70
     0
 40
20.0
 41
3.0
 42
2.0
 43
8.0
 44
1.0
 73
     0
 74
     0
 77
     1
 78
     8
140
3.0
141
0.0
143
0.03937007874016
144
0.5
147
0.6
171
     3
172
     1
176
     3
177
     3
178
     2
271
     1
272
     1
274
     3
277
     6
279
     2
283
     0
284
     8
340
1780
341
46
342
46
371
     9
372
     9
  0
DIMSTYLE
105
2A4C3
330
A
100
AcDbSymbolTableRecord
100
AcDbDimStyleTableRecord
  2
dim20de10
 70
     0
 40
20.0
 41
3.5
 42
2.0
 43
8.0
 44
1.0
 73
     0
 74
     0
 77
     1
 78
     8
140
3.0
141
0.0
143
0.03937007874016
144
0.5
147
0.5999999999999997
171
     3
172
     1
176
   256
177
   256
178
   256
271
     1
272
     1
274
     3
277
     6
279
     2
283
     0
284
     8
340
1780
341
46
342
46
371
     9
372
     9
  0
DIMSTYLE
105
2A4C4
102
{ACAD_REACTORS
330
2A759
330
2A75F
102
}
330
A
100
AcDbSymbolTableRecord
100
AcDbDimStyleTableRecord
  2
dim2-20
 70
     0
 40
2.0
 41
3.0
 42
2.0
 43
8.0
 44
1.0
 73
     0
 74
     0
 77
     1
 78
     8
140
3.0
141
0.0
143
0.03937007874016
144
10.0
147
0.6
171
     3
172
     1
176
     3
177
     3
178
     2
271
     1
272
     1
274
     3
277
     6
279
     2
283
     0
284
     8
340
1780
341
2A4B0
342
46
371
     9
372
     9
  0
ENDTAB
  0
TABLE
  2
BLOCK_RECORD
  5
1
330
0
100
AcDbSymbolTable
 70
   100
  0
BLOCK_RECORD
  5
1F
102
{ACAD_XDICTIONARY
360
1A9D4
102
}
330
1
100
AcDbSymbolTableRecord
100
AcDbBlockTableRecord
  2
*Model_Space
340
22
  0
BLOCK_RECORD
  5
1B
330
1
100
AcDbSymbolTableRecord
100
AcDbBlockTableRecord
  2
*Paper_Space
340
1E
  0
BLOCK_RECORD
  5
23
330
1
100
AcDbSymbolTableRecord
100
AcDbBlockTableRecord
  2
*Paper_Space0
340
26
  0
BLOCK_RECORD
  5
46
330
1
100
AcDbSymbolTableRecord
100
AcDbBlockTableRecord
  2
_DotSmall
340
0
310
2800000020000000200000000100080000000000000400000000000000000000000000000000000000000000000080000080000000808000800000008000800080800000C0C0C000C0DCC000F0CAA6000020400000206000002080000020A0000020C0000020E00000400000004020000040400000406000004080000040A0
310
000040C0000040E00000600000006020000060400000606000006080000060A0000060C0000060E00000800000008020000080400000806000008080000080A0000080C0000080E00000A0000000A0200000A0400000A0600000A0800000A0A00000A0C00000A0E00000C0000000C0200000C0400000C0600000C0800000C0
310
A00000C0C00000C0E00000E0000000E0200000E0400000E0600000E0800000E0A00000E0C00000E0E00040000000400020004000400040006000400080004000A0004000C0004000E00040200000402020004020400040206000402080004020A0004020C0004020E000404000004040200040404000404060004040800040
310
40A0004040C0004040E00040600000406020004060400040606000406080004060A0004060C0004060E00040800000408020004080400040806000408080004080A0004080C0004080E00040A0000040A0200040A0400040A0600040A0800040A0A00040A0C00040A0E00040C0000040C0200040C0400040C0600040C08000
310
40C0A00040C0C00040C0E00040E0000040E0200040E0400040E0600040E0800040E0A00040E0C00040E0E00080000000800020008000400080006000800080008000A0008000C0008000E00080200000802020008020400080206000802080008020A0008020C0008020E00080400000804020008040400080406000804080
310
008040A0008040C0008040E00080600000806020008060400080606000806080008060A0008060C0008060E00080800000808020008080400080806000808080008080A0008080C0008080E00080A0000080A0200080A0400080A0600080A0800080A0A00080A0C00080A0E00080C0000080C0200080C0400080C0600080C0
310
800080C0A00080C0C00080C0E00080E0000080E0200080E0400080E0600080E0800080E0A00080E0C00080E0E000C0000000C0002000C0004000C0006000C0008000C000A000C000C000C000E000C0200000C0202000C0204000C0206000C0208000C020A000C020C000C020E000C0400000C0402000C0404000C0406000C0
310
408000C040A000C040C000C040E000C0600000C0602000C0604000C0606000C0608000C060A000C060C000C060E000C0800000C0802000C0804000C0806000C0808000C080A000C080C000C080E000C0A00000C0A02000C0A04000C0A06000C0A08000C0A0A000C0A0C000C0A0E000C0C00000C0C02000C0C04000C0C06000
310
C0C08000C0C0A000F0FBFF00A4A0A000808080000000FF0000FF000000FFFF00FF000000FF00FF00FFFF0000FFFFFF0000000000000000000000FFFF0000000000000000FFFF00000000000000000000FF000000000000000000FFFF0000000000000000FFFF000000000000000000FFFFFF000000000000000000FF000000
310
0000000000FF000000000000000000FFFF00FF000000000000000000FFFF000000000000FFFF000000000000000000FF0000FFFF0000000000000000FFFFFF00000000FFFFFF0000000000000000FFFF000000FFFF00000000000000FF00FFFF0000FFFF00FF00000000000000FFFF0000FFFF00FF00000000000000FF0000
310
FF0000FF0000FF00000000000000FF00FFFF00FFFFFFFFFF0000000000FF000000FFFF000000FF0000000000FFFFFFFFFF0000000000FFFFFFFFFF0000FF000000FFFF000000FF0000FFFFFFFFFF000000000000000000FFFF00FFFFFFFF000000FFFF000000FFFFFFFF00FFFF0000000000000000000000FF00000000FFFF
310
FFFF0000FFFFFFFF00000000FF00000000000000000000000000FF000000FF00FFFFFFFFFFFF00FF000000FF0000000000000000000000000000FFFF0000FFFFFFFF0000FFFFFFFF0000FFFF000000000000000000000000000000FFFFFFFFFF000000000000FFFFFFFFFF00000000000000000000000000FFFFFFFFFF00FF
310
0000000000000000FF00FFFFFFFFFF0000000000FFFFFFFFFFFF000000FFFFFF0000000000000000FFFFFF000000FFFFFFFFFFFFFFFFFFFFFFFF000000FFFFFF0000000000000000FFFFFF000000FFFFFFFFFFFF0000000000FFFFFFFFFF00FF0000000000000000FF00FFFFFFFFFF00000000000000000000000000FFFFFF
310
FFFF000000000000FFFFFFFFFF000000000000000000000000000000FFFF0000FFFFFFFF0000FFFFFFFF0000FFFF0000000000000000000000000000FF000000FF00FFFFFFFFFFFF00FF000000FF00000000000000000000000000FF00000000FFFFFFFF0000FFFFFFFF00000000FF0000000000000000000000FFFF00FFFF
310
FFFF000000FFFF000000FFFFFFFF00FFFF000000000000000000FFFFFFFFFF0000FF000000FFFF000000FF0000FFFFFFFFFF0000000000FFFFFFFFFF0000000000FF000000FFFF000000FF0000000000FFFFFFFFFF00FFFF00FF00000000000000FF0000FF0000FF0000FF00000000000000FF00FFFF0000FFFF0000000000
310
0000FF00FFFF0000FFFF00FF00000000000000FFFF000000FFFF0000000000000000FFFFFF00000000FFFFFF0000000000000000FFFF0000FF000000000000000000FFFF000000000000FFFF000000000000000000FF00FFFF000000000000000000FF0000000000000000FF000000000000000000FFFFFF00000000000000
310
0000FFFF0000000000000000FFFF000000000000000000FF00000000000000000000FFFF0000000000000000FFFF00000000000000000000
102
{BLKREFS
331
29DF7
331
29DF8
331
29E00
331
29E01
331
29E09
331
29E0A
331
29E12
331
29E13
331
29E1B
331
29E1C
331
29E2D
331
29E2E
331
29E3D
331
29E3E
331
29E46
331
29E47
331
29F03
331
29F04
331
29F0C
331
29F0D
331
29F1E
331
29F1F
331
29F27
331
29F28
331
29F30
331
29F31
331
29F37
331
29F38
331
29F40
331
29F41
331
29F49
331
29F4A
331
29F52
331
29F53
331
29F5B
331
29F5C
331
29F64
331
29F65
331
29F76
331
29F77
331
2A2DA
331
2A2E2
331
2A2E3
331
2A2EB
331
2A2EC
331
2A4BB
331
2A4BC
331
2A4A9
331
2A4AA
331
2A40D
331
2A40E
331
2A418
331
2A419
331
2A424
331
2A425
331
2A430
331
2A431
331
2A43C
331
2A43D
331
2A447
331
2A452
331
2A453
331
2A45E
331
2A45F
331
2A46C
331
2A46D
331
2A477
331
2A478
331
2A483
331
2A484
331
2A48F
331
2A490
331
2A49E
331
2A49F
331
2A347
331
2A348
331
2A352
331
2A353
331
2A35D
331
2A35E
331
2A368
331
2A369
331
2A375
331
2A376
331
2A380
331
2A381
331
2A38C
331
2A38D
331
2A399
331
2A39A
331
2A3A4
331
2A3A5
331
2A3AE
331
2A3AF
331
2A3BA
331
2A3BB
331
2A3C4
331
2A3C5
331
2A3D0
331
2A3D1
331
2A3DC
331
2A3DD
331
2A3E6
331
2A3E7
331
2A3F2
331
2A3F3
331
2A3FE
331
2A3FF
331
2AB64
331
2AB65
331
2AB6C
331
2AB6D
331
2AB74
331
2AB75
331
2AB7C
331
2AB7D
331
2AB88
331
2AB89
331
2AB90
331
2AB91
331
2AB99
331
2AB9A
331
2ABA5
331
2ABA6
331
2ABAD
331
2ABAE
331
2ABB4
331
2ABB5
331
2ABBD
331
2ABBE
331
2ABC4
331
2ABC5
331
2ABCD
331
2ABCE
331
2ABD6
331
2ABD7
331
2ABDD
331
2ABDE
331
2ABE6
331
2ABE7
331
2ABEF
331
2ABF0
331
2ABFB
331
2ABFC
331
2AC03
331
2AC04
331
2AC0C
331
2AC0D
331
2AC15
331
2AC16
331
2AC1E
331
2AC1F
331
2AC26
331
2AC2E
331
2AC2F
331
2AC37
331
2AC38
331
2AC42
331
2AC43
331
2AC4A
331
2AC4B
331
2AC53
331
2AC54
331
2AC5C
331
2AC5D
331
2AC68
331
2AC69
331
2AC70
331
2AC71
331
2AC7A
331
2AC7B
331
2AC83
331
2AC84
331
2AC8C
331
2AC8D
331
2AC96
331
2AC97
331
2AC9F
331
2ACA0
331
2ACA8
331
2ACA9
331
2ACB1
331
2ACB2
102
}
  0
BLOCK_RECORD
  5
17E4
330
1
100
AcDbSymbolTableRecord
100
AcDbBlockTableRecord
  2
ARRI
340
0
310
2800000020000000200000000100080000000000000400000000000000000000000000000000000000000000000080000080000000808000800000008000800080800000C0C0C000C0DCC000F0CAA6000020400000206000002080000020A0000020C0000020E00000400000004020000040400000406000004080000040A0
310
000040C0000040E00000600000006020000060400000606000006080000060A0000060C0000060E00000800000008020000080400000806000008080000080A0000080C0000080E00000A0000000A0200000A0400000A0600000A0800000A0A00000A0C00000A0E00000C0000000C0200000C0400000C0600000C0800000C0
310
A00000C0C00000C0E00000E0000000E0200000E0400000E0600000E0800000E0A00000E0C00000E0E00040000000400020004000400040006000400080004000A0004000C0004000E00040200000402020004020400040206000402080004020A0004020C0004020E000404000004040200040404000404060004040800040
310
40A0004040C0004040E00040600000406020004060400040606000406080004060A0004060C0004060E00040800000408020004080400040806000408080004080A0004080C0004080E00040A0000040A0200040A0400040A0600040A0800040A0A00040A0C00040A0E00040C0000040C0200040C0400040C0600040C08000
310
40C0A00040C0C00040C0E00040E0000040E0200040E0400040E0600040E0800040E0A00040E0C00040E0E00080000000800020008000400080006000800080008000A0008000C0008000E00080200000802020008020400080206000802080008020A0008020C0008020E00080400000804020008040400080406000804080
310
008040A0008040C0008040E00080600000806020008060400080606000806080008060A0008060C0008060E00080800000808020008080400080806000808080008080A0008080C0008080E00080A0000080A0200080A0400080A0600080A0800080A0A00080A0C00080A0E00080C0000080C0200080C0400080C0600080C0
310
800080C0A00080C0C00080C0E00080E0000080E0200080E0400080E0600080E0800080E0A00080E0C00080E0E000C0000000C0002000C0004000C0006000C0008000C000A000C000C000C000E000C0200000C0202000C0204000C0206000C0208000C020A000C020C000C020E000C0400000C0402000C0404000C0406000C0
310
408000C040A000C040C000C040E000C0600000C0602000C0604000C0606000C0608000C060A000C060C000C060E000C0800000C0802000C0804000C0806000C0808000C080A000C080C000C080E000C0A00000C0A02000C0A04000C0A06000C0A08000C0A0A000C0A0C000C0A0E000C0C00000C0C02000C0C04000C0C06000
310
C0C08000C0C0A000F0FBFF00A4A0A000808080000000FF0000FF000000FFFF00FF000000FF00FF00FFFF0000FFFFFF0000000000000000000000000000000000000000000000000000000000000000000000000000000000000000000000000000000000000000000000000000000000000000000000000000000000000000
310
00000000000000000000000000000000000000000000000000000000000000000000000000000000000000000000000000000000000000000000000000000000000000000000000000000000000000000000000000000000000000000000000000000000000000000000000000000000000000000000000000000000000000
310
00000000000000000000000000000000000000000000000000000000000000000000000000000000000000000000000000000000000000000000000000000000000000000000000000000000000000000000000000000000000000000000000000000000000000000000000000000000000000FFFFFF000000000000000000
310
0000000000000000000000000000000000000000000000FFFFFFFFFF0000000000000000000000000000000000000000000000000000000000000000FFFFFFFFFF0000000000000000000000000000000000000000000000000000000000000000FFFFFFFF0000000000000000000000000000000000000000000000000000
310
000000000000FFFFFFFFFF0000000000000000000000000000000000000000000000000000000000000000FFFFFFFFFF0000000000FFFFFFFFFFFFFFFFFFFFFFFFFFFFFFFFFFFFFFFFFFFFFFFFFFFFFFFFFFFF0000000000000000000000000000000000000000000000FFFFFFFFFFFF000000000000000000000000000000
310
0000000000FFFFFFFFFFFF0000000000000000000000000000000000000000FFFFFFFFFFFF0000000000000000000000000000000000000000FFFFFFFFFFFF0000000000000000000000000000000000000000000000FFFFFF0000000000000000000000000000000000000000000000000000000000000000000000000000
310
00000000000000000000000000000000000000000000000000000000000000000000000000000000000000000000000000000000000000000000000000000000000000000000000000000000000000000000000000000000000000000000000000000000000000000000000000000000000000000000000000000000000000
310
00000000000000000000000000000000000000000000000000000000000000000000000000000000000000000000000000000000000000000000000000000000000000000000000000000000000000000000000000000000000000000000000000000000000000000000000000000000000000000000000000000000000000
310
0000000000000000000000000000000000000000000000000000000000000000000000000000000000000000000000000000000000000000
102
{BLKREFS
331
28739
102
}
  0
BLOCK_RECORD
  5
1CF2B
330
1
100
AcDbSymbolTableRecord
100
AcDbBlockTableRecord
  2
_NONE
340
0
  0
BLOCK_RECORD
  5
2106C
330
1
100
AcDbSymbolTableRecord
100
AcDbBlockTableRecord
  2
_OPEN
340
0
  0
BLOCK_RECORD
  5
28A49
330
1
100
AcDbSymbolTableRecord
100
AcDbBlockTableRecord
  2
*D5
340
0
  0
BLOCK_RECORD
  5
28A55
330
1
100
AcDbSymbolTableRecord
100
AcDbBlockTableRecord
  2
*D6
340
0
  0
BLOCK_RECORD
  5
28A61
330
1
100
AcDbSymbolTableRecord
100
AcDbBlockTableRecord
  2
*D7
340
0
  0
BLOCK_RECORD
  5
28A6E
330
1
100
AcDbSymbolTableRecord
100
AcDbBlockTableRecord
  2
*D8
340
0
  0
BLOCK_RECORD
  5
28A7A
330
1
100
AcDbSymbolTableRecord
100
AcDbBlockTableRecord
  2
*D9
340
0
  0
BLOCK_RECORD
  5
28A86
330
1
100
AcDbSymbolTableRecord
100
AcDbBlockTableRecord
  2
*D10
340
0
  0
BLOCK_RECORD
  5
28A93
330
1
100
AcDbSymbolTableRecord
100
AcDbBlockTableRecord
  2
*D11
340
0
  0
BLOCK_RECORD
  5
28A9F
330
1
100
AcDbSymbolTableRecord
100
AcDbBlockTableRecord
  2
*D12
340
0
  0
BLOCK_RECORD
  5
28AAB
330
1
100
AcDbSymbolTableRecord
100
AcDbBlockTableRecord
  2
*D13
340
0
  0
BLOCK_RECORD
  5
28AB7
330
1
100
AcDbSymbolTableRecord
100
AcDbBlockTableRecord
  2
*D14
340
0
  0
BLOCK_RECORD
  5
28AC3
330
1
100
AcDbSymbolTableRecord
100
AcDbBlockTableRecord
  2
*D15
340
0
  0
BLOCK_RECORD
  5
28ACF
330
1
100
AcDbSymbolTableRecord
100
AcDbBlockTableRecord
  2
*D16
340
0
  0
BLOCK_RECORD
  5
28ADB
330
1
100
AcDbSymbolTableRecord
100
AcDbBlockTableRecord
  2
*D17
340
0
  0
BLOCK_RECORD
  5
28AE7
330
1
100
AcDbSymbolTableRecord
100
AcDbBlockTableRecord
  2
*D18
340
0
  0
BLOCK_RECORD
  5
28AF3
330
1
100
AcDbSymbolTableRecord
100
AcDbBlockTableRecord
  2
*D19
340
0
  0
BLOCK_RECORD
  5
28AFD
330
1
100
AcDbSymbolTableRecord
100
AcDbBlockTableRecord
  2
*D20
340
0
  0
BLOCK_RECORD
  5
28B09
330
1
100
AcDbSymbolTableRecord
100
AcDbBlockTableRecord
  2
*D21
340
0
  0
BLOCK_RECORD
  5
28B15
330
1
100
AcDbSymbolTableRecord
100
AcDbBlockTableRecord
  2
*D22
340
0
  0
BLOCK_RECORD
  5
28B2D
330
1
100
AcDbSymbolTableRecord
100
AcDbBlockTableRecord
  2
*D23
340
0
  0
BLOCK_RECORD
  5
28B39
330
1
100
AcDbSymbolTableRecord
100
AcDbBlockTableRecord
  2
*D24
340
0
  0
BLOCK_RECORD
  5
28B45
330
1
100
AcDbSymbolTableRecord
100
AcDbBlockTableRecord
  2
*D25
340
0
  0
BLOCK_RECORD
  5
28B51
330
1
100
AcDbSymbolTableRecord
100
AcDbBlockTableRecord
  2
*D26
340
0
  0
BLOCK_RECORD
  5
28B5D
330
1
100
AcDbSymbolTableRecord
100
AcDbBlockTableRecord
  2
*D27
340
0
  0
BLOCK_RECORD
  5
28B67
330
1
100
AcDbSymbolTableRecord
100
AcDbBlockTableRecord
  2
*D28
340
0
  0
BLOCK_RECORD
  5
28B73
330
1
100
AcDbSymbolTableRecord
100
AcDbBlockTableRecord
  2
*D29
340
0
  0
BLOCK_RECORD
  5
28B7F
330
1
100
AcDbSymbolTableRecord
100
AcDbBlockTableRecord
  2
*D30
340
0
  0
BLOCK_RECORD
  5
28B8B
330
1
100
AcDbSymbolTableRecord
100
AcDbBlockTableRecord
  2
*D31
340
0
  0
BLOCK_RECORD
  5
28B97
330
1
100
AcDbSymbolTableRecord
100
AcDbBlockTableRecord
  2
*D32
340
0
  0
BLOCK_RECORD
  5
28BA3
330
1
100
AcDbSymbolTableRecord
100
AcDbBlockTableRecord
  2
*D33
340
0
  0
BLOCK_RECORD
  5
2A337
330
1
100
AcDbSymbolTableRecord
100
AcDbBlockTableRecord
  2
二葉ﾛｺﾞ
340
0
310
2800000020000000200000000100080000000000000400000000000000000000000000000000000000000000000080000080000000808000800000008000800080800000C0C0C000C0DCC000F0CAA6000020400000206000002080000020A0000020C0000020E00000400000004020000040400000406000004080000040A0
310
000040C0000040E00000600000006020000060400000606000006080000060A0000060C0000060E00000800000008020000080400000806000008080000080A0000080C0000080E00000A0000000A0200000A0400000A0600000A0800000A0A00000A0C00000A0E00000C0000000C0200000C0400000C0600000C0800000C0
310
A00000C0C00000C0E00000E0000000E0200000E0400000E0600000E0800000E0A00000E0C00000E0E00040000000400020004000400040006000400080004000A0004000C0004000E00040200000402020004020400040206000402080004020A0004020C0004020E000404000004040200040404000404060004040800040
310
40A0004040C0004040E00040600000406020004060400040606000406080004060A0004060C0004060E00040800000408020004080400040806000408080004080A0004080C0004080E00040A0000040A0200040A0400040A0600040A0800040A0A00040A0C00040A0E00040C0000040C0200040C0400040C0600040C08000
310
40C0A00040C0C00040C0E00040E0000040E0200040E0400040E0600040E0800040E0A00040E0C00040E0E00080000000800020008000400080006000800080008000A0008000C0008000E00080200000802020008020400080206000802080008020A0008020C0008020E00080400000804020008040400080406000804080
310
008040A0008040C0008040E00080600000806020008060400080606000806080008060A0008060C0008060E00080800000808020008080400080806000808080008080A0008080C0008080E00080A0000080A0200080A0400080A0600080A0800080A0A00080A0C00080A0E00080C0000080C0200080C0400080C0600080C0
310
800080C0A00080C0C00080C0E00080E0000080E0200080E0400080E0600080E0800080E0A00080E0C00080E0E000C0000000C0002000C0004000C0006000C0008000C000A000C000C000C000E000C0200000C0202000C0204000C0206000C0208000C020A000C020C000C020E000C0400000C0402000C0404000C0406000C0
310
408000C040A000C040C000C040E000C0600000C0602000C0604000C0606000C0608000C060A000C060C000C060E000C0800000C0802000C0804000C0806000C0808000C080A000C080C000C080E000C0A00000C0A02000C0A04000C0A06000C0A08000C0A0A000C0A0C000C0A0E000C0C00000C0C02000C0C04000C0C06000
310
C0C08000C0C0A000F0FBFF00A4A0A000808080000000FF0000FF000000FFFF00FF000000FF00FF00FFFF0000FFFFFF000000000000000000000000000000000000000000000000000000000000000000000000000000000000000000000000FFFFFF000000000000000000000000000000000000000000000000FFFFFFFFFF
310
000000FFFFFF0000000000000000000000000000000000000000FF0000FFFF000000FFFFFF00FFFF0000000000000000000000000000000000FF000000FFFF000000FFFFFFFF0000FFFF00000000000000000000000000FFFFFFFF000000FFFF0000FFFFFFFF00FFFF00FF0000000000000000000000FF00FFFFFFFF0000FF
310
FFFF00FFFFFF00FFFFFFFFFFFF000000000000000000FF0000FFFFFFFFFFFFFFFFFF00FFFF00FFFFFFFFFFFF00FF00000000000000FF000000FFFF00FFFF0000000000000000FFFFFFFFFFFF00FF00000000000000FF000000FFFFFF0000000000000000000000FFFFFF000000FFFF0000000000FF000000FFFFFFFF000000
310
000000000000000000000000FFFFFFFF0000000000FF00FFFFFFFFFF000000000000000000000000000000FFFFFFFFFFFF00000000FFFFFFFFFFFFFF000000000000000000000000000000FFFFFFFFFFFF000000FF00000000FFFF000000000000000000000000000000000000000000FF000000FF00000000000000000000
310
000000000000000000000000000000000000FF0000FF0000FFFFFFFFFFFFFFFFFFFFFFFFFFFFFFFFFFFFFFFFFFFFFFFFFF00FF0000FF00FFFFFFFFFFFFFFFFFFFFFFFFFFFFFFFFFFFFFFFFFFFFFFFFFFFF00FF0000FF00FFFFFFFFFFFFFFFFFFFFFFFFFFFFFFFFFFFFFFFFFFFFFFFFFFFF00FF0000FF00FFFFFFFFFFFFFFFF
310
FFFFFFFF0000FFFFFFFFFFFFFFFFFFFFFFFFFF00000000FF00FFFFFFFFFFFFFFFFFFFFFF000000FFFFFFFFFFFFFFFFFFFF00FF00000000FF00FFFFFFFFFFFFFFFFFFFF0000000000FFFFFFFFFFFFFFFFFF00FF00000000FF00FFFFFFFFFFFFFFFFFFFF0000000000FFFFFFFFFFFFFFFFFFFF000000000000FF00FFFFFFFFFF
310
FFFFFF000000000000FFFFFFFFFFFFFFFF00FF000000000000FF00FFFFFFFFFFFFFFFF00000000000000FFFFFFFFFFFFFFFF0000000000000000FF00FFFFFFFFFFFF000000000000000000FFFFFFFFFF00FF000000000000000000FF00FFFFFFFFFF000000000000000000FFFFFFFF00FF0000000000000000000000FFFFFF
310
FFFF0000000000000000000000FFFF00FF0000000000000000000000000000FF0000000000000000000000000000FFFF00000000000000000000000000000000FF0000000000000000000000FFFF00000000000000000000000000000000000000FFFFFFFFFF000000FFFFFF00000000000000000000000000000000000000
310
00000000000000FFFFFF00000000000000000000000000000000000000000000000000000000000000000000000000000000000000000000
102
{BLKREFS
331
2A95D
102
}
1001
ACAD
1000
DesignCenter Data
1002
{
1070
     1
1070
     4
1002
}
  0
BLOCK_RECORD
  5
2A4B0
330
1
100
AcDbSymbolTableRecord
100
AcDbBlockTableRecord
  2
_Open30
340
0
  0
BLOCK_RECORD
  5
2A9D1
330
1
100
AcDbSymbolTableRecord
100
AcDbBlockTableRecord
  2
*D68
340
0
  0
BLOCK_RECORD
  5
2A9DD
330
1
100
AcDbSymbolTableRecord
100
AcDbBlockTableRecord
  2
*D69
340
0
  0
ENDTAB
  0
ENDSEC
  0
SECTION
  2
BLOCKS
  0
BLOCK
  5
20
330
1F
100
AcDbEntity
  8
0
100
AcDbBlockBegin
  2
*Model_Space
 70
     0
 10
0.0
 20
0.0
 30
0.0
  3
*Model_Space
  1

  0
ENDBLK
  5
21
330
1F
100
AcDbEntity
  8
0
100
AcDbBlockEnd
  0
BLOCK
  5
1C
330
1B
100
AcDbEntity
 67
     1
  8
0
100
AcDbBlockBegin
  2
*Paper_Space
 70
     0
 10
0.0
 20
0.0
 30
0.0
  3
*Paper_Space
  1

  0
ENDBLK
  5
1D
330
1B
100
AcDbEntity
 67
     1
  8
0
100
AcDbBlockEnd
  0
BLOCK
  5
24
330
23
100
AcDbEntity
  8
0
100
AcDbBlockBegin
  2
*Paper_Space0
 70
     0
 10
0.0
 20
0.0
 30
0.0
  3
*Paper_Space0
  1

  0
ENDBLK
  5
25
330
23
100
AcDbEntity
  8
0
100
AcDbBlockEnd
  0
BLOCK
  5
48
330
46
100
AcDbEntity
  8
0
100
AcDbBlockBegin
  2
_DotSmall
 70
     0
 10
0.0
 20
0.0
 30
0.0
  3
_DotSmall
  1

  0
LWPOLYLINE
  5
47
330
46
100
AcDbEntity
  8
0
  6
ByBlock
 62
     0
100
AcDbPolyline
 90
        2
 70
     1
 43
0.5
 10
-0.0625
 20
0.0
 42
1.0
 10
0.0625
 20
0.0
 42
1.0
  0
ENDBLK
  5
49
330
46
100
AcDbEntity
  8
0
100
AcDbBlockEnd
  0
BLOCK
  5
17E5
330
17E4
100
AcDbEntity
  8
0
100
AcDbBlockBegin
  2
ARRI
 70
     0
 10
0.0
 20
0.0
 30
0.0
  3
ARRI
  1

  0
LINE
  5
17E6
330
17E4
100
AcDbEntity
  8
0
  6
ByBlock
 62
     0
100
AcDbLine
 10
-0.9999999999995168
 20
-0.2125565616699987
 30
0.0
 11
0.0000000000005826
 21
0.0000000000000142
 31
0.0
  0
LINE
  5
17E7
330
17E4
100
AcDbEntity
  8
0
  6
ByBlock
 62
     0
100
AcDbLine
 10
0.0000000000005826
 20
0.0000000000000142
 30
0.0
 11
-0.9999999999995168
 21
0.2125565616699276
 31
0.0
  0
LINE
  5
17E8
330
17E4
100
AcDbEntity
  8
0
  6
ByBlock
 62
     0
100
AcDbLine
 10
0.0000000000004832
 20
0.0
 30
0.0
 11
-0.9999999999995168
 21
0.0000000000000284
 31
0.0
  0
ENDBLK
  5
17E9
330
17E4
100
AcDbEntity
  8
0
100
AcDbBlockEnd
  0
BLOCK
  5
1CF2C
330
1CF2B
100
AcDbEntity
  8
0
100
AcDbBlockBegin
  2
_NONE
 70
     0
 10
0.0
 20
0.0
 30
0.0
  3
_NONE
  1

  0
CIRCLE
  5
1CF2D
330
1CF2B
100
AcDbEntity
  8
0
  6
ByBlock
 62
     0
100
AcDbCircle
 10
0.0
 20
0.0
 30
0.0
 40
0.25
  0
ENDBLK
  5
1CF2E
330
1CF2B
100
AcDbEntity
  8
0
100
AcDbBlockEnd
  0
BLOCK
  5
2106D
330
2106C
100
AcDbEntity
  8
0
 48
2.0
100
AcDbBlockBegin
  2
_OPEN
 70
     0
 10
0.0
 20
0.0
 30
0.0
  3
_OPEN
  1

  0
LINE
  5
2106E
330
2106C
100
AcDbEntity
  8
0
  6
ByBlock
 62
     0
 48
2.0
100
AcDbLine
 10
-1.0
 20
0.1666666666666666
 30
0.0
 11
0.0
 21
0.0
 31
0.0
  0
LINE
  5
2106F
330
2106C
100
AcDbEntity
  8
0
  6
ByBlock
 62
     0
 48
2.0
100
AcDbLine
 10
0.0
 20
0.0
 30
0.0
 11
-1.0
 21
-0.1666666666666666
 31
0.0
  0
LINE
  5
21070
330
2106C
100
AcDbEntity
  8
0
  6
ByBlock
 62
     0
 48
2.0
100
AcDbLine
 10
0.0
 20
0.0
 30
0.0
 11
-1.0
 21
0.0
 31
0.0
  0
ENDBLK
  5
21071
330
2106C
100
AcDbEntity
  8
0
 48
2.0
100
AcDbBlockEnd
  0
BLOCK
  5
28A53
330
28A49
100
AcDbEntity
  8
0
100
AcDbBlockBegin
  2
*D5
 70
     1
 10
0.0
 20
0.0
 30
0.0
  3
*D5
  1

  0
LINE
  5
29F00
330
28A49
100
AcDbEntity
  8
sunpo
 62
     0
370
    -2
100
AcDbLine
 10
326.3686326431523
 20
617.4746024044747
 30
0.0
 11
327.6186326431527
 21
617.4746024044747
 31
0.0
  0
LINE
  5
29F01
330
28A49
100
AcDbEntity
  8
sunpo
 62
     0
370
    -2
100
AcDbLine
 10
326.3686326431516
 20
647.4746024046208
 30
0.0
 11
327.6186326431528
 21
647.4746024046208
 31
0.0
  0
LINE
  5
29F02
330
28A49
100
AcDbEntity
  8
sunpo
 62
     0
370
    -2
100
AcDbLine
 10
325.1186326431527
 20
617.4746024044747
 30
0.0
 11
325.1186326431528
 21
647.4746024046208
 31
0.0
  0
INSERT
  5
29F03
330
28A49
100
AcDbEntity
  8
sunpo
 62
     0
370
    -2
100
AcDbBlockReference
  2
_DotSmall
 10
325.1186326431527
 20
617.4746024044747
 30
0.0
 41
8.0
 42
8.0
 43
8.0
 50
270.0
  0
INSERT
  5
29F04
330
28A49
100
AcDbEntity
  8
sunpo
 62
     0
370
    -2
100
AcDbBlockReference
  2
_DotSmall
 10
325.1186326431528
 20
647.4746024046208
 30
0.0
 41
8.0
 42
8.0
 43
8.0
 50
90.0
  0
MTEXT
  5
29F05
330
28A49
100
AcDbEntity
  8
sunpo
 62
     0
100
AcDbMText
 10
320.8686326431526
 20
632.4746024045479
 30
0.0
 40
6.0
 41
0.0
 71
     5
 72
     1
  1
\A1;30
  7
dim
 11
0.0000000000000001
 21
1.0
 31
0.0
 73
     1
 44
1.0
  0
POINT
  5
29F06
330
28A49
100
AcDbEntity
  8
Defpoints
 62
     0
100
AcDbPoint
 10
325.1186326431523
 20
617.4746024044747
 30
0.0
  0
POINT
  5
29F07
330
28A49
100
AcDbEntity
  8
Defpoints
 62
     0
100
AcDbPoint
 10
325.1186326431516
 20
647.4746024046208
 30
0.0
  0
POINT
  5
29F08
330
28A49
100
AcDbEntity
  8
Defpoints
 62
     0
100
AcDbPoint
 10
325.1186326431528
 20
647.4746024046208
 30
0.0
  0
ENDBLK
  5
28A54
330
28A49
100
AcDbEntity
  8
0
100
AcDbBlockEnd
  0
BLOCK
  5
28A5F
330
28A55
100
AcDbEntity
  8
0
100
AcDbBlockBegin
  2
*D6
 70
     1
 10
0.0
 20
0.0
 30
0.0
  3
*D6
  1

  0
LINE
  5
2AC9C
330
28A55
100
AcDbEntity
  8
sunpo
 62
     0
370
    -2
100
AcDbLine
 10
145.2347602267468
 20
272.1513296831183
 30
0.0
 11
145.2347602267468
 21
303.4013296831183
 31
0.0
  0
LINE
  5
2AC9D
330
28A55
100
AcDbEntity
  8
sunpo
 62
     0
370
    -2
100
AcDbLine
 10
101.2347602267468
 20
272.1513296831183
 30
0.0
 11
101.2347602267468
 21
303.4013296831183
 31
0.0
  0
LINE
  5
2AC9E
330
28A55
100
AcDbEntity
  8
sunpo
 62
     0
370
    -2
100
AcDbLine
 10
145.2347602267468
 20
300.9013296831183
 30
0.0
 11
101.2347602267468
 21
300.9013296831183
 31
0.0
  0
INSERT
  5
2AC9F
330
28A55
100
AcDbEntity
  8
sunpo
 62
     0
370
    -2
100
AcDbBlockReference
  2
_DotSmall
 10
145.2347602267468
 20
300.9013296831183
 30
0.0
 41
8.0
 42
8.0
 43
8.0
  0
INSERT
  5
2ACA0
330
28A55
100
AcDbEntity
  8
sunpo
 62
     0
370
    -2
100
AcDbBlockReference
  2
_DotSmall
 10
101.2347602267468
 20
300.9013296831183
 30
0.0
 41
8.0
 42
8.0
 43
8.0
 50
180.0
  0
MTEXT
  5
2ACA1
330
28A55
100
AcDbEntity
  8
sunpo
 62
     0
100
AcDbMText
 10
123.2347602267468
 20
304.6513296831183
 30
0.0
 40
5.0
 41
0.0
 71
     5
 72
     1
  1
\A1;44
  7
dim
 73
     1
 44
1.0
  0
POINT
  5
2ACA2
330
28A55
100
AcDbEntity
  8
Defpoints
 62
     0
100
AcDbPoint
 10
145.2347602267468
 20
270.9013296831183
 30
0.0
  0
POINT
  5
2ACA3
330
28A55
100
AcDbEntity
  8
Defpoints
 62
     0
100
AcDbPoint
 10
101.2347602267468
 20
270.9013296831183
 30
0.0
  0
POINT
  5
2ACA4
330
28A55
100
AcDbEntity
  8
Defpoints
 62
     0
100
AcDbPoint
 10
101.2347602267468
 20
300.9013296831183
 30
0.0
  0
ENDBLK
  5
28A60
330
28A55
100
AcDbEntity
  8
0
100
AcDbBlockEnd
  0
BLOCK
  5
28A6C
330
28A61
100
AcDbEntity
  8
0
100
AcDbBlockBegin
  2
*D7
 70
     1
 10
0.0
 20
0.0
 30
0.0
  3
*D7
  1

  0
LINE
  5
2AC92
330
28A61
100
AcDbEntity
  8
sunpo
 62
     0
370
    -2
100
AcDbLine
 10
104.2347602267441
 20
188.1513296831183
 30
0.0
 11
104.2347602267441
 21
189.4013296831183
 31
0.0
  0
LINE
  5
2AC93
330
28A61
100
AcDbEntity
  8
sunpo
 62
     0
370
    -2
100
AcDbLine
 10
101.2347602267468
 20
215.6513296831183
 30
0.0
 11
101.2347602267468
 21
184.4013296831183
 31
0.0
  0
LINE
  5
2AC94
330
28A61
100
AcDbEntity
  8
sunpo
 62
     0
370
    -2
100
AcDbLine
 10
104.2347602267441
 20
186.9013296831183
 30
0.0
 11
101.2347602267468
 21
186.9013296831183
 31
0.0
  0
LINE
  5
2AC95
330
28A61
100
AcDbEntity
  8
sunpo
 62
     0
370
    -2
100
AcDbLine
 10
101.2347602267468
 20
186.9013296831183
 30
0.0
 11
88.23476022674682
 21
186.9013296831183
 31
0.0
  0
INSERT
  5
2AC96
330
28A61
100
AcDbEntity
  8
sunpo
 62
     0
370
    -2
100
AcDbBlockReference
  2
_DotSmall
 10
104.2347602267441
 20
186.9013296831183
 30
0.0
 41
8.0
 42
8.0
 43
8.0
  0
INSERT
  5
2AC97
330
28A61
100
AcDbEntity
  8
sunpo
 62
     0
370
    -2
100
AcDbBlockReference
  2
_DotSmall
 10
101.2347602267468
 20
186.9013296831183
 30
0.0
 41
8.0
 42
8.0
 43
8.0
 50
180.0
  0
MTEXT
  5
2AC98
330
28A61
100
AcDbEntity
  8
sunpo
 62
     0
100
AcDbMText
 10
90.73476022674682
 20
190.6513296831183
 30
0.0
 40
5.0
 41
0.0
 71
     5
 72
     1
  1
\A1;3
  7
dim
 73
     1
 44
1.0
  0
POINT
  5
2AC99
330
28A61
100
AcDbEntity
  8
Defpoints
 62
     0
100
AcDbPoint
 10
104.2347602267441
 20
186.9013296831183
 30
0.0
  0
POINT
  5
2AC9A
330
28A61
100
AcDbEntity
  8
Defpoints
 62
     0
100
AcDbPoint
 10
101.2347602267468
 20
216.9013296831183
 30
0.0
  0
POINT
  5
2AC9B
330
28A61
100
AcDbEntity
  8
Defpoints
 62
     0
100
AcDbPoint
 10
101.2347602267468
 20
186.9013296831183
 30
0.0
  0
ENDBLK
  5
28A6D
330
28A61
100
AcDbEntity
  8
0
100
AcDbBlockEnd
  0
BLOCK
  5
28A78
330
28A6E
100
AcDbEntity
  8
0
100
AcDbBlockBegin
  2
*D8
 70
     1
 10
0.0
 20
0.0
 30
0.0
  3
*D8
  1

  0
LINE
  5
2AC89
330
28A6E
100
AcDbEntity
  8
sunpo
 62
     0
370
    -2
100
AcDbLine
 10
104.2347602267468
 20
188.1513296831183
 30
0.0
 11
104.2347602267468
 21
189.4013296831183
 31
0.0
  0
LINE
  5
2AC8A
330
28A6E
100
AcDbEntity
  8
sunpo
 62
     0
370
    -2
100
AcDbLine
 10
124.2347602267468
 20
188.1513296831183
 30
0.0
 11
124.2347602267468
 21
189.4013296831183
 31
0.0
  0
LINE
  5
2AC8B
330
28A6E
100
AcDbEntity
  8
sunpo
 62
     0
370
    -2
100
AcDbLine
 10
104.2347602267468
 20
186.9013296831183
 30
0.0
 11
124.2347602267468
 21
186.9013296831183
 31
0.0
  0
INSERT
  5
2AC8C
330
28A6E
100
AcDbEntity
  8
sunpo
 62
     0
370
    -2
100
AcDbBlockReference
  2
_DotSmall
 10
104.2347602267468
 20
186.9013296831183
 30
0.0
 41
8.0
 42
8.0
 43
8.0
 50
180.0
  0
INSERT
  5
2AC8D
330
28A6E
100
AcDbEntity
  8
sunpo
 62
     0
370
    -2
100
AcDbBlockReference
  2
_DotSmall
 10
124.2347602267468
 20
186.9013296831183
 30
0.0
 41
8.0
 42
8.0
 43
8.0
  0
MTEXT
  5
2AC8E
330
28A6E
100
AcDbEntity
  8
sunpo
 62
     0
100
AcDbMText
 10
114.2347602267468
 20
190.6513296831183
 30
0.0
 40
5.0
 41
0.0
 71
     5
 72
     1
  1
\A1;20
  7
dim
 73
     1
 44
1.0
  0
POINT
  5
2AC8F
330
28A6E
100
AcDbEntity
  8
Defpoints
 62
     0
100
AcDbPoint
 10
104.2347602267468
 20
186.9013296831183
 30
0.0
  0
POINT
  5
2AC90
330
28A6E
100
AcDbEntity
  8
Defpoints
 62
     0
100
AcDbPoint
 10
124.2347602267468
 20
186.9013296831183
 30
0.0
  0
POINT
  5
2AC91
330
28A6E
100
AcDbEntity
  8
Defpoints
 62
     0
100
AcDbPoint
 10
124.2347602267468
 20
186.9013296831183
 30
0.0
  0
ENDBLK
  5
28A79
330
28A6E
100
AcDbEntity
  8
0
100
AcDbBlockEnd
  0
BLOCK
  5
28A84
330
28A7A
100
AcDbEntity
  8
0
100
AcDbBlockBegin
  2
*D9
 70
     1
 10
0.0
 20
0.0
 30
0.0
  3
*D9
  1

  0
LINE
  5
2AC80
330
28A7A
100
AcDbEntity
  8
sunpo
 62
     0
370
    -2
100
AcDbLine
 10
94.98476022674683
 20
221.9013296831183
 30
0.0
 11
63.73476022674682
 21
221.9013296831183
 31
0.0
  0
LINE
  5
2AC81
330
28A7A
100
AcDbEntity
  8
sunpo
 62
     0
370
    -2
100
AcDbLine
 10
94.98476022674683
 20
265.9013296831183
 30
0.0
 11
63.73476022674683
 21
265.9013296831183
 31
0.0
  0
LINE
  5
2AC82
330
28A7A
100
AcDbEntity
  8
sunpo
 62
     0
370
    -2
100
AcDbLine
 10
66.23476022674681
 20
221.9013296831183
 30
0.0
 11
66.23476022674683
 21
265.9013296831183
 31
0.0
  0
INSERT
  5
2AC83
330
28A7A
100
AcDbEntity
  8
sunpo
 62
     0
370
    -2
100
AcDbBlockReference
  2
_DotSmall
 10
66.23476022674681
 20
221.9013296831183
 30
0.0
 41
8.0
 42
8.0
 43
8.0
 50
270.0
  0
INSERT
  5
2AC84
330
28A7A
100
AcDbEntity
  8
sunpo
 62
     0
370
    -2
100
AcDbBlockReference
  2
_DotSmall
 10
66.23476022674683
 20
265.9013296831183
 30
0.0
 41
8.0
 42
8.0
 43
8.0
 50
90.0
  0
MTEXT
  5
2AC85
330
28A7A
100
AcDbEntity
  8
sunpo
 62
     0
100
AcDbMText
 10
62.48476022674679
 20
243.9013296831183
 30
0.0
 40
5.0
 41
0.0
 71
     5
 72
     1
  1
\A1;44
  7
dim
 11
0.0000000000000001
 21
1.0
 31
0.0
 73
     1
 44
1.0
  0
POINT
  5
2AC86
330
28A7A
100
AcDbEntity
  8
Defpoints
 62
     0
100
AcDbPoint
 10
96.23476022674683
 20
221.9013296831183
 30
0.0
  0
POINT
  5
2AC87
330
28A7A
100
AcDbEntity
  8
Defpoints
 62
     0
100
AcDbPoint
 10
96.23476022674683
 20
265.9013296831183
 30
0.0
  0
POINT
  5
2AC88
330
28A7A
100
AcDbEntity
  8
Defpoints
 62
     0
100
AcDbPoint
 10
66.23476022674683
 20
265.9013296831183
 30
0.0
  0
ENDBLK
  5
28A85
330
28A7A
100
AcDbEntity
  8
0
100
AcDbBlockEnd
  0
BLOCK
  5
28A91
330
28A86
100
AcDbEntity
  8
0
100
AcDbBlockBegin
  2
*D10
 70
     1
 10
0.0
 20
0.0
 30
0.0
  3
*D10
  1

  0
LINE
  5
2AC76
330
28A86
100
AcDbEntity
  8
sunpo
 62
     0
370
    -2
100
AcDbLine
 10
178.9847602267468
 20
262.9013296831213
 30
0.0
 11
177.7347602267468
 21
262.9013296831213
 31
0.0
  0
LINE
  5
2AC77
330
28A86
100
AcDbEntity
  8
sunpo
 62
     0
370
    -2
100
AcDbLine
 10
151.4847602267468
 20
265.9013296831183
 30
0.0
 11
182.7347602267468
 21
265.9013296831183
 31
0.0
  0
LINE
  5
2AC78
330
28A86
100
AcDbEntity
  8
sunpo
 62
     0
370
    -2
100
AcDbLine
 10
180.2347602267468
 20
262.9013296831213
 30
0.0
 11
180.2347602267468
 21
265.9013296831183
 31
0.0
  0
LINE
  5
2AC79
330
28A86
100
AcDbEntity
  8
sunpo
 62
     0
370
    -2
100
AcDbLine
 10
180.2347602267468
 20
265.9013296831183
 30
0.0
 11
180.2347602267468
 21
278.9013296831183
 31
0.0
  0
INSERT
  5
2AC7A
330
28A86
100
AcDbEntity
  8
sunpo
 62
     0
370
    -2
100
AcDbBlockReference
  2
_DotSmall
 10
180.2347602267468
 20
262.9013296831213
 30
0.0
 41
8.0
 42
8.0
 43
8.0
 50
270.0
  0
INSERT
  5
2AC7B
330
28A86
100
AcDbEntity
  8
sunpo
 62
     0
370
    -2
100
AcDbBlockReference
  2
_DotSmall
 10
180.2347602267468
 20
265.9013296831183
 30
0.0
 41
8.0
 42
8.0
 43
8.0
 50
90.0
  0
MTEXT
  5
2AC7C
330
28A86
100
AcDbEntity
  8
sunpo
 62
     0
100
AcDbMText
 10
176.4847602267467
 20
276.4013296831184
 30
0.0
 40
5.0
 41
0.0
 71
     5
 72
     1
  1
\A1;3
  7
dim
 11
0.0000000000000001
 21
1.0
 31
0.0
 73
     1
 44
1.0
  0
POINT
  5
2AC7D
330
28A86
100
AcDbEntity
  8
Defpoints
 62
     0
100
AcDbPoint
 10
180.2347602267468
 20
262.9013296831213
 30
0.0
  0
POINT
  5
2AC7E
330
28A86
100
AcDbEntity
  8
Defpoints
 62
     0
100
AcDbPoint
 10
150.2347602267468
 20
265.9013296831183
 30
0.0
  0
POINT
  5
2AC7F
330
28A86
100
AcDbEntity
  8
Defpoints
 62
     0
100
AcDbPoint
 10
180.2347602267468
 20
265.9013296831183
 30
0.0
  0
ENDBLK
  5
28A92
330
28A86
100
AcDbEntity
  8
0
100
AcDbBlockEnd
  0
BLOCK
  5
28A9D
330
28A93
100
AcDbEntity
  8
0
100
AcDbBlockBegin
  2
*D11
 70
     1
 10
0.0
 20
0.0
 30
0.0
  3
*D11
  1

  0
LINE
  5
2AC6D
330
28A93
100
AcDbEntity
  8
sunpo
 62
     0
370
    -2
100
AcDbLine
 10
178.9847602267468
 20
262.9013296831183
 30
0.0
 11
177.7347602267468
 21
262.9013296831183
 31
0.0
  0
LINE
  5
2AC6E
330
28A93
100
AcDbEntity
  8
sunpo
 62
     0
370
    -2
100
AcDbLine
 10
178.9847602267468
 20
242.9013296831183
 30
0.0
 11
177.7347602267468
 21
242.9013296831183
 31
0.0
  0
LINE
  5
2AC6F
330
28A93
100
AcDbEntity
  8
sunpo
 62
     0
370
    -2
100
AcDbLine
 10
180.2347602267468
 20
262.9013296831183
 30
0.0
 11
180.2347602267468
 21
242.9013296831183
 31
0.0
  0
INSERT
  5
2AC70
330
28A93
100
AcDbEntity
  8
sunpo
 62
     0
370
    -2
100
AcDbBlockReference
  2
_DotSmall
 10
180.2347602267468
 20
262.9013296831183
 30
0.0
 41
8.0
 42
8.0
 43
8.0
 50
90.0
  0
INSERT
  5
2AC71
330
28A93
100
AcDbEntity
  8
sunpo
 62
     0
370
    -2
100
AcDbBlockReference
  2
_DotSmall
 10
180.2347602267468
 20
242.9013296831183
 30
0.0
 41
8.0
 42
8.0
 43
8.0
 50
270.0
  0
MTEXT
  5
2AC72
330
28A93
100
AcDbEntity
  8
sunpo
 62
     0
100
AcDbMText
 10
176.4847602267467
 20
252.9013296831184
 30
0.0
 40
5.0
 41
0.0
 71
     5
 72
     1
  1
\A1;20
  7
dim
 11
0.0000000000000001
 21
1.0
 31
0.0
 73
     1
 44
1.0
  0
POINT
  5
2AC73
330
28A93
100
AcDbEntity
  8
Defpoints
 62
     0
100
AcDbPoint
 10
180.2347602267468
 20
262.9013296831183
 30
0.0
  0
POINT
  5
2AC74
330
28A93
100
AcDbEntity
  8
Defpoints
 62
     0
100
AcDbPoint
 10
180.2347602267468
 20
242.9013296831183
 30
0.0
  0
POINT
  5
2AC75
330
28A93
100
AcDbEntity
  8
Defpoints
 62
     0
100
AcDbPoint
 10
180.2347602267468
 20
242.9013296831183
 30
0.0
  0
ENDBLK
  5
28A9E
330
28A93
100
AcDbEntity
  8
0
100
AcDbBlockEnd
  0
BLOCK
  5
28AA9
330
28A9F
100
AcDbEntity
  8
0
100
AcDbBlockBegin
  2
*D12
 70
     1
 10
0.0
 20
0.0
 30
0.0
  3
*D12
  1

  0
LINE
  5
29F73
330
28A9F
100
AcDbEntity
  8
sunpo
 62
     0
370
    -2
100
AcDbLine
 10
200.5084583476757
 20
528.1602074997431
 30
0.0
 11
203.7412398087309
 21
528.494309318142
 31
0.0
  0
LINE
  5
29F74
330
28A9F
100
AcDbEntity
  8
sunpo
 62
     0
370
    -2
100
AcDbLine
 10
209.2465059677152
 20
443.6105379192526
 30
0.0
 11
212.4792874287703
 21
443.9446397376518
 31
0.0
  0
LINE
  5
29F75
330
28A9F
100
AcDbEntity
  8
sunpo
 62
     0
370
    -2
100
AcDbLine
 10
201.2544848386884
 20
528.2373079193737
 30
0.0
 11
209.9925324587278
 21
443.6876383388833
 31
0.0
  0
INSERT
  5
29F76
330
28A9F
100
AcDbEntity
  8
sunpo
 62
     0
370
    -2
100
AcDbBlockReference
  2
_DotSmall
 10
201.2544848386884
 20
528.2373079193737
 30
0.0
 41
8.0
 42
8.0
 43
8.0
 50
95.90046211611021
  0
INSERT
  5
29F77
330
28A9F
100
AcDbEntity
  8
sunpo
 62
     0
370
    -2
100
AcDbBlockReference
  2
_DotSmall
 10
209.9925324587278
 20
443.6876383388833
 30
0.0
 41
8.0
 42
8.0
 43
8.0
 50
275.9004621161103
  0
MTEXT
  5
29F78
330
28A9F
100
AcDbEntity
  8
sunpo
 62
     0
100
AcDbMText
 10
209.8509920977803
 20
486.399375507035
 30
0.0
 40
6.0
 41
0.0
 71
     5
 72
     1
  1
\A1;85
  7
dim
 11
0.1028005595074022
 21
-0.9947019880169966
 31
0.0
 73
     1
 44
1.0
  0
POINT
  5
29F79
330
28A9F
100
AcDbEntity
  8
Defpoints
 62
     0
100
AcDbPoint
 10
199.2650808626544
 20
528.0317068003588
 30
0.0
  0
POINT
  5
29F7A
330
28A9F
100
AcDbEntity
  8
Defpoints
 62
     0
100
AcDbPoint
 10
208.0031284826939
 20
443.4820372198684
 30
0.0
  0
POINT
  5
29F7B
330
28A9F
100
AcDbEntity
  8
Defpoints
 62
     0
100
AcDbPoint
 10
209.9925324587278
 20
443.6876383388833
 30
0.0
  0
ENDBLK
  5
28AAA
330
28A9F
100
AcDbEntity
  8
0
100
AcDbBlockEnd
  0
BLOCK
  5
28AB5
330
28AAB
100
AcDbEntity
  8
0
100
AcDbBlockBegin
  2
*D13
 70
     1
 10
0.0
 20
0.0
 30
0.0
  3
*D13
  1

  0
LINE
  5
2A2E8
330
28AAB
100
AcDbEntity
  8
sunpo
 62
     0
370
    -2
100
AcDbLine
 10
674.3421669292443
 20
483.1248190441133
 30
0.0
 11
674.3421669292443
 21
395.2046442680558
 31
0.0
  0
LINE
  5
2A2E9
330
28AAB
100
AcDbEntity
  8
sunpo
 62
     0
370
    -2
100
AcDbLine
 10
132.7778609218339
 20
483.1248190441133
 30
0.0
 11
132.7778609218339
 21
395.2046442680558
 31
0.0
  0
LINE
  5
2A2EA
330
28AAB
100
AcDbEntity
  8
sunpo
 62
     0
370
    -2
100
AcDbLine
 10
674.3421669292443
 20
397.7046442680558
 30
0.0
 11
132.7778609218339
 21
397.7046442680558
 31
0.0
  0
INSERT
  5
2A2EB
330
28AAB
100
AcDbEntity
  8
sunpo
 62
     0
370
    -2
100
AcDbBlockReference
  2
_DotSmall
 10
674.3421669292443
 20
397.7046442680558
 30
0.0
 41
8.0
 42
8.0
 43
8.0
  0
INSERT
  5
2A2EC
330
28AAB
100
AcDbEntity
  8
sunpo
 62
     0
370
    -2
100
AcDbBlockReference
  2
_DotSmall
 10
132.7778609218339
 20
397.7046442680558
 30
0.0
 41
8.0
 42
8.0
 43
8.0
 50
180.0
  0
MTEXT
  5
2A2ED
330
28AAB
100
AcDbEntity
  8
sunpo
 62
     0
100
AcDbMText
 10
403.560013925539
 20
401.9546442680557
 30
0.0
 40
6.0
 41
0.0
 71
     5
 72
     1
  1
\A1;W
  7
dim
 73
     1
 44
1.0
  0
POINT
  5
2A2EE
330
28AAB
100
AcDbEntity
  8
Defpoints
 62
     0
100
AcDbPoint
 10
674.3421669292443
 20
484.3748190441133
 30
0.0
  0
POINT
  5
2A2EF
330
28AAB
100
AcDbEntity
  8
Defpoints
 62
     0
100
AcDbPoint
 10
132.7778609218339
 20
484.3748190441133
 30
0.0
  0
POINT
  5
2A2F0
330
28AAB
100
AcDbEntity
  8
Defpoints
 62
     0
100
AcDbPoint
 10
132.7778609218339
 20
397.7046442680558
 30
0.0
  0
ENDBLK
  5
28AB6
330
28AAB
100
AcDbEntity
  8
0
100
AcDbBlockEnd
  0
BLOCK
  5
28AC1
330
28AB7
100
AcDbEntity
  8
0
100
AcDbBlockBegin
  2
*D14
 70
     1
 10
0.0
 20
0.0
 30
0.0
  3
*D14
  1

  0
LINE
  5
29F61
330
28AB7
100
AcDbEntity
  8
sunpo
 62
     0
370
    -2
100
AcDbLine
 10
141.5278609217798
 20
677.4746024046208
 30
0.0
 11
109.6841140941797
 21
677.4746024046208
 31
0.0
  0
LINE
  5
29F62
330
28AB7
100
AcDbEntity
  8
sunpo
 62
     0
370
    -2
100
AcDbLine
 10
141.5278609217798
 20
552.4746024046208
 30
0.0
 11
109.6841140941796
 21
552.4746024046208
 31
0.0
  0
LINE
  5
29F63
330
28AB7
100
AcDbEntity
  8
sunpo
 62
     0
370
    -2
100
AcDbLine
 10
112.1841140941797
 20
677.4746024046208
 30
0.0
 11
112.1841140941796
 21
552.4746024046208
 31
0.0
  0
INSERT
  5
29F64
330
28AB7
100
AcDbEntity
  8
sunpo
 62
     0
370
    -2
100
AcDbBlockReference
  2
_DotSmall
 10
112.1841140941797
 20
677.4746024046208
 30
0.0
 41
8.0
 42
8.0
 43
8.0
 50
90.0
  0
INSERT
  5
29F65
330
28AB7
100
AcDbEntity
  8
sunpo
 62
     0
370
    -2
100
AcDbBlockReference
  2
_DotSmall
 10
112.1841140941796
 20
552.4746024046208
 30
0.0
 41
8.0
 42
8.0
 43
8.0
 50
270.0
  0
MTEXT
  5
29F66
330
28AB7
100
AcDbEntity
  8
sunpo
 62
     0
100
AcDbMText
 10
107.9341140941796
 20
606.5273872102355
 30
0.0
 40
6.0
 41
0.0
 71
     5
 72
     1
  1
\A1;125
  7
dim
 11
0.0000000000000001
 21
1.0
 31
0.0
 73
     1
 44
1.0
  0
POINT
  5
29F67
330
28AB7
100
AcDbEntity
  8
Defpoints
 62
     0
100
AcDbPoint
 10
142.7778609217798
 20
677.4746024046208
 30
0.0
  0
POINT
  5
29F68
330
28AB7
100
AcDbEntity
  8
Defpoints
 62
     0
100
AcDbPoint
 10
142.7778609217798
 20
552.4746024046208
 30
0.0
  0
POINT
  5
29F69
330
28AB7
100
AcDbEntity
  8
Defpoints
 62
     0
100
AcDbPoint
 10
112.1841140941796
 20
552.4746024046208
 30
0.0
  0
ENDBLK
  5
28AC2
330
28AB7
100
AcDbEntity
  8
0
100
AcDbBlockEnd
  0
BLOCK
  5
28ACD
330
28AC3
100
AcDbEntity
  8
0
100
AcDbBlockBegin
  2
*D15
 70
     1
 10
0.0
 20
0.0
 30
0.0
  3
*D15
  1

  0
LINE
  5
29F58
330
28AC3
100
AcDbEntity
  8
sunpo
 62
     0
370
    -2
100
AcDbLine
 10
197.4244415406888
 20
558.0012673508506
 30
0.0
 11
200.6572230017447
 21
558.3353691692496
 31
0.0
  0
LINE
  5
29F59
330
28AC3
100
AcDbEntity
  8
sunpo
 62
     0
370
    -2
100
AcDbLine
 10
200.5084583476758
 20
528.1602074997432
 30
0.0
 11
203.7412398087316
 21
528.4943093181423
 31
0.0
  0
LINE
  5
29F5A
330
28AC3
100
AcDbEntity
  8
sunpo
 62
     0
370
    -2
100
AcDbLine
 10
198.1704680317022
 20
558.0783677704812
 30
0.0
 11
201.2544848386891
 21
528.2373079193737
 31
0.0
  0
INSERT
  5
29F5B
330
28AC3
100
AcDbEntity
  8
sunpo
 62
     0
370
    -2
100
AcDbBlockReference
  2
_DotSmall
 10
198.1704680317022
 20
558.0783677704812
 30
0.0
 41
8.0
 42
8.0
 43
8.0
 50
95.90046211611026
  0
INSERT
  5
29F5C
330
28AC3
100
AcDbEntity
  8
sunpo
 62
     0
370
    -2
100
AcDbBlockReference
  2
_DotSmall
 10
201.2544848386891
 20
528.2373079193737
 30
0.0
 41
8.0
 42
8.0
 43
8.0
 50
275.9004621161103
  0
MTEXT
  5
29F5D
330
28AC3
100
AcDbEntity
  8
sunpo
 62
     0
100
AcDbMText
 10
203.939959884268
 20
543.5947402228338
 30
0.0
 40
6.0
 41
0.0
 71
     5
 72
     1
  1
\A1;30
  7
dim
 11
0.1028005595074026
 21
-0.9947019880169966
 31
0.0
 73
     1
 44
1.0
  0
POINT
  5
29F5E
330
28AC3
100
AcDbEntity
  8
Defpoints
 62
     0
100
AcDbPoint
 10
196.1810640556675
 20
557.8727666514663
 30
0.0
  0
POINT
  5
29F5F
330
28AC3
100
AcDbEntity
  8
Defpoints
 62
     0
100
AcDbPoint
 10
199.2650808626545
 20
528.0317068003588
 30
0.0
  0
POINT
  5
29F60
330
28AC3
100
AcDbEntity
  8
Defpoints
 62
     0
100
AcDbPoint
 10
201.2544848386891
 20
528.2373079193737
 30
0.0
  0
ENDBLK
  5
28ACE
330
28AC3
100
AcDbEntity
  8
0
100
AcDbBlockEnd
  0
BLOCK
  5
28AD9
330
28ACF
100
AcDbEntity
  8
0
100
AcDbBlockBegin
  2
*D16
 70
     1
 10
0.0
 20
0.0
 30
0.0
  3
*D16
  1

  0
LINE
  5
29F4F
330
28ACF
100
AcDbEntity
  8
sunpo
 62
     0
370
    -2
100
AcDbLine
 10
132.7778609217071
 20
552.4414843553214
 30
0.0
 11
132.7778609217071
 21
566.7006251565972
 31
0.0
  0
LINE
  5
29F50
330
28ACF
100
AcDbEntity
  8
sunpo
 62
     0
370
    -2
100
AcDbLine
 10
142.7778609217716
 20
565.4506251565972
 30
0.0
 11
142.7778609217716
 21
566.7006251565972
 31
0.0
  0
LINE
  5
29F51
330
28ACF
100
AcDbEntity
  8
sunpo
 62
     0
370
    -2
100
AcDbLine
 10
132.7778609217071
 20
564.2006251565971
 30
0.0
 11
142.7778609217716
 21
564.2006251565971
 31
0.0
  0
INSERT
  5
29F52
330
28ACF
100
AcDbEntity
  8
sunpo
 62
     0
370
    -2
100
AcDbBlockReference
  2
_DotSmall
 10
132.7778609217071
 20
564.2006251565971
 30
0.0
 41
8.0
 42
8.0
 43
8.0
 50
180.0
  0
INSERT
  5
29F53
330
28ACF
100
AcDbEntity
  8
sunpo
 62
     0
370
    -2
100
AcDbBlockReference
  2
_DotSmall
 10
142.7778609217716
 20
564.2006251565971
 30
0.0
 41
8.0
 42
8.0
 43
8.0
  0
MTEXT
  5
29F54
330
28ACF
100
AcDbEntity
  8
sunpo
 62
     0
100
AcDbMText
 10
137.7778609217394
 20
568.4506251565972
 30
0.0
 40
6.0
 41
0.0
 71
     5
 72
     1
  1
\A1;10
  7
dim
 73
     1
 44
1.0
  0
POINT
  5
29F55
330
28ACF
100
AcDbEntity
  8
Defpoints
 62
     0
100
AcDbPoint
 10
132.7778609217071
 20
551.1914843553214
 30
0.0
  0
POINT
  5
29F56
330
28ACF
100
AcDbEntity
  8
Defpoints
 62
     0
100
AcDbPoint
 10
142.7778609217716
 20
564.2006251565971
 30
0.0
  0
POINT
  5
29F57
330
28ACF
100
AcDbEntity
  8
Defpoints
 62
     0
100
AcDbPoint
 10
142.7778609217716
 20
564.2006251565971
 30
0.0
  0
ENDBLK
  5
28ADA
330
28ACF
100
AcDbEntity
  8
0
100
AcDbBlockEnd
  0
BLOCK
  5
28AE5
330
28ADB
100
AcDbEntity
  8
0
100
AcDbBlockBegin
  2
*D17
 70
     1
 10
0.0
 20
0.0
 30
0.0
  3
*D17
  1

  0
LINE
  5
29F46
330
28ADB
100
AcDbEntity
  8
sunpo
 62
     0
370
    -2
100
AcDbLine
 10
136.5394571532394
 20
516.1308204717728
 30
0.0
 11
139.446378586347
 21
489.036313504831
 31
0.0
  0
LINE
  5
29F47
330
28ADB
100
AcDbEntity
  8
sunpo
 62
     0
370
    -2
100
AcDbLine
 10
156.4253303215451
 20
518.2643404136394
 30
0.0
 11
159.3322517546528
 21
491.1698334466974
 31
0.0
  0
LINE
  5
29F48
330
28ADB
100
AcDbEntity
  8
sunpo
 62
     0
370
    -2
100
AcDbLine
 10
139.1796885466123
 20
491.5220480889541
 30
0.0
 11
159.0655617149181
 21
493.6555680308206
 31
0.0
  0
INSERT
  5
29F49
330
28ADB
100
AcDbEntity
  8
sunpo
 62
     0
370
    -2
100
AcDbBlockReference
  2
_DotSmall
 10
139.1796885466123
 20
491.5220480889541
 30
0.0
 41
8.0
 42
8.0
 43
8.0
 50
186.1237376114286
  0
INSERT
  5
29F4A
330
28ADB
100
AcDbEntity
  8
sunpo
 62
     0
370
    -2
100
AcDbBlockReference
  2
_DotSmall
 10
159.0655617149181
 20
493.6555680308206
 30
0.0
 41
8.0
 42
8.0
 43
8.0
 50
6.123737611428652
  0
MTEXT
  5
29F4B
330
28ADB
100
AcDbEntity
  8
sunpo
 62
     0
100
AcDbMText
 10
148.6692520632163
 20
496.8145568528968
 30
0.0
 40
6.0
 41
0.0
 71
     5
 72
     1
  1
\A1;20
  7
dim
 11
0.9942938336492955
 21
0.1066760158938608
 31
0.0
 73
     1
 44
1.0
  0
POINT
  5
29F4C
330
28ADB
100
AcDbEntity
  8
Defpoints
 62
     0
100
AcDbPoint
 10
136.4061121333721
 20
517.3736877638344
 30
0.0
  0
POINT
  5
29F4D
330
28ADB
100
AcDbEntity
  8
Defpoints
 62
     0
100
AcDbPoint
 10
156.2919853016779
 20
519.5072077057009
 30
0.0
  0
POINT
  5
29F4E
330
28ADB
100
AcDbEntity
  8
Defpoints
 62
     0
100
AcDbPoint
 10
159.0655617149181
 20
493.6555680308206
 30
0.0
  0
ENDBLK
  5
28AE6
330
28ADB
100
AcDbEntity
  8
0
100
AcDbBlockEnd
  0
BLOCK
  5
28AF1
330
28AE7
100
AcDbEntity
  8
0
100
AcDbBlockBegin
  2
*D18
 70
     1
 10
0.0
 20
0.0
 30
0.0
  3
*D18
  1

  0
LINE
  5
29F3D
330
28AE7
100
AcDbEntity
  8
sunpo
 62
     0
370
    -2
100
AcDbLine
 10
212.3455869863863
 20
559.537306881037
 30
0.0
 11
215.5786641754659
 21
559.8685347323083
 31
0.0
  0
LINE
  5
29F3E
330
28AE7
100
AcDbEntity
  8
sunpo
 62
     0
370
    -2
100
AcDbLine
 10
224.0659571912482
 20
445.1361132269958
 30
0.0
 11
227.2990343803278
 21
445.4673410782673
 31
0.0
  0
LINE
  5
29F3F
330
28AE7
100
AcDbEntity
  8
sunpo
 62
     0
370
    -2
100
AcDbLine
 10
213.0916817223283
 20
559.6137440774842
 30
0.0
 11
224.8120519271902
 21
445.2125504234431
 31
0.0
  0
INSERT
  5
29F40
330
28AE7
100
AcDbEntity
  8
sunpo
 62
     0
370
    -2
100
AcDbBlockReference
  2
_DotSmall
 10
213.0916817223283
 20
559.6137440774842
 30
0.0
 41
8.0
 42
8.0
 43
8.0
 50
95.84952806853932
  0
INSERT
  5
29F41
330
28AE7
100
AcDbEntity
  8
sunpo
 62
     0
370
    -2
100
AcDbBlockReference
  2
_DotSmall
 10
224.8120519271902
 20
445.2125504234431
 30
0.0
 41
8.0
 42
8.0
 43
8.0
 50
275.8495280685393
  0
MTEXT
  5
29F42
330
28AE7
100
AcDbEntity
  8
sunpo
 62
     0
100
AcDbMText
 10
223.1797369950931
 20
502.8462913636646
 30
0.0
 40
6.0
 41
0.0
 71
     5
 72
     1
  1
\A1;115
  7
dim
 11
0.1019162619296275
 21
-0.9947929812550405
 31
0.0
 73
     1
 44
1.0
  0
POINT
  5
29F43
330
28AE7
100
AcDbEntity
  8
Defpoints
 62
     0
100
AcDbPoint
 10
211.1020957598175
 20
559.4099115536248
 30
0.0
  0
POINT
  5
29F44
330
28AE7
100
AcDbEntity
  8
Defpoints
 62
     0
100
AcDbPoint
 10
222.8224659646794
 20
445.0087178995838
 30
0.0
  0
POINT
  5
29F45
330
28AE7
100
AcDbEntity
  8
Defpoints
 62
     0
100
AcDbPoint
 10
224.8120519271902
 20
445.2125504234431
 30
0.0
  0
ENDBLK
  5
28AF2
330
28AE7
100
AcDbEntity
  8
0
100
AcDbBlockEnd
  0
BLOCK
  5
28AFB
330
28AF3
100
AcDbEntity
  8
0
100
AcDbBlockBegin
  2
*D19
 70
     1
 10
0.0
 20
0.0
 30
0.0
  3
*D19
  1

  0
LINE
  5
29F36
330
28AF3
100
AcDbEntity
  8
sunpo
 62
     0
370
    -2
100
AcDbLine
 10
295.2315809029815
 20
571.1042835047723
 30
0.0
 11
316.8884469481039
 21
583.5934849645782
 31
0.0
  0
INSERT
  5
29F37
330
28AF3
100
AcDbEntity
  8
sunpo
 62
     0
370
    -2
100
AcDbBlockReference
  2
_DotSmall
 10
295.2315809029815
 20
571.1042835047723
 30
0.0
 41
8.0
 42
8.0
 43
8.0
 50
209.9714270854281
  0
INSERT
  5
29F38
330
28AF3
100
AcDbEntity
  8
sunpo
 62
     0
370
    -2
100
AcDbBlockReference
  2
_DotSmall
 10
316.8884469481039
 20
583.5934849645782
 30
0.0
 41
8.0
 42
8.0
 43
8.0
 50
29.97142708542808
  0
MTEXT
  5
29F39
330
28AF3
100
AcDbEntity
  8
sunpo
 62
     0
100
AcDbMText
 10
303.9368496773757
 20
581.0305514623462
 30
0.0
 40
6.0
 41
0.0
 71
     5
 72
     1
  1
\A1;%%c25
  7
dim
 11
0.8662746418048991
 21
0.4995680583922412
 31
0.0
 73
     1
 44
1.0
  0
POINT
  5
29F3A
330
28AF3
100
AcDbEntity
  8
Defpoints
 62
     0
100
AcDbPoint
 10
295.2315809029792
 20
571.1042835047762
 30
0.0
  0
POINT
  5
29F3B
330
28AF3
100
AcDbEntity
  8
Defpoints
 62
     0
100
AcDbPoint
 10
316.8884469481038
 20
583.5934849645783
 30
0.0
  0
POINT
  5
29F3C
330
28AF3
100
AcDbEntity
  8
Defpoints
 62
     0
100
AcDbPoint
 10
316.8884469481039
 20
583.5934849645782
 30
0.0
  0
ENDBLK
  5
28AFC
330
28AF3
100
AcDbEntity
  8
0
100
AcDbBlockEnd
  0
BLOCK
  5
28B07
330
28AFD
100
AcDbEntity
  8
0
100
AcDbBlockBegin
  2
*D20
 70
     1
 10
0.0
 20
0.0
 30
0.0
  3
*D20
  1

  0
LINE
  5
29F2D
330
28AFD
100
AcDbEntity
  8
sunpo
 62
     0
370
    -2
100
AcDbLine
 10
306.0600139255405
 20
501.2246024044743
 30
0.0
 11
306.0600139255405
 21
502.4746024044743
 31
0.0
  0
LINE
  5
29F2E
330
28AFD
100
AcDbEntity
  8
sunpo
 62
     0
370
    -2
100
AcDbLine
 10
371.0600139255407
 20
501.2246024044743
 30
0.0
 11
371.0600139255407
 21
502.4746024044743
 31
0.0
  0
LINE
  5
29F2F
330
28AFD
100
AcDbEntity
  8
sunpo
 62
     0
370
    -2
100
AcDbLine
 10
306.0600139255405
 20
499.9746024044743
 30
0.0
 11
371.0600139255407
 21
499.9746024044743
 31
0.0
  0
INSERT
  5
29F30
330
28AFD
100
AcDbEntity
  8
sunpo
 62
     0
370
    -2
100
AcDbBlockReference
  2
_DotSmall
 10
306.0600139255405
 20
499.9746024044743
 30
0.0
 41
8.0
 42
8.0
 43
8.0
 50
180.0
  0
INSERT
  5
29F31
330
28AFD
100
AcDbEntity
  8
sunpo
 62
     0
370
    -2
100
AcDbBlockReference
  2
_DotSmall
 10
371.0600139255407
 20
499.9746024044743
 30
0.0
 41
8.0
 42
8.0
 43
8.0
  0
MTEXT
  5
29F32
330
28AFD
100
AcDbEntity
  8
sunpo
 62
     0
100
AcDbMText
 10
338.5600139255406
 20
504.2246024044743
 30
0.0
 40
6.0
 41
0.0
 71
     5
 72
     1
  1
\A1;65
  7
dim
 73
     1
 44
1.0
  0
POINT
  5
29F33
330
28AFD
100
AcDbEntity
  8
Defpoints
 62
     0
100
AcDbPoint
 10
306.0600139255405
 20
499.9746024044743
 30
0.0
  0
POINT
  5
29F34
330
28AFD
100
AcDbEntity
  8
Defpoints
 62
     0
100
AcDbPoint
 10
371.0600139255407
 20
499.9746024044743
 30
0.0
  0
POINT
  5
29F35
330
28AFD
100
AcDbEntity
  8
Defpoints
 62
     0
100
AcDbPoint
 10
371.0600139255407
 20
499.9746024044743
 30
0.0
  0
ENDBLK
  5
28B08
330
28AFD
100
AcDbEntity
  8
0
100
AcDbBlockEnd
  0
BLOCK
  5
28B13
330
28B09
100
AcDbEntity
  8
0
100
AcDbBlockBegin
  2
*D21
 70
     1
 10
0.0
 20
0.0
 30
0.0
  3
*D21
  1

  0
LINE
  5
29F24
330
28B09
100
AcDbEntity
  8
sunpo
 62
     0
370
    -2
100
AcDbLine
 10
674.3421669309598
 20
552.4414843564752
 30
0.0
 11
674.3421669309598
 21
566.7006251565972
 31
0.0
  0
LINE
  5
29F25
330
28B09
100
AcDbEntity
  8
sunpo
 62
     0
370
    -2
100
AcDbLine
 10
664.3421669293066
 20
565.4506251565972
 30
0.0
 11
664.3421669293066
 21
566.7006251565972
 31
0.0
  0
LINE
  5
29F26
330
28B09
100
AcDbEntity
  8
sunpo
 62
     0
370
    -2
100
AcDbLine
 10
674.3421669309598
 20
564.2006251565971
 30
0.0
 11
664.3421669293066
 21
564.2006251565971
 31
0.0
  0
INSERT
  5
29F27
330
28B09
100
AcDbEntity
  8
sunpo
 62
     0
370
    -2
100
AcDbBlockReference
  2
_DotSmall
 10
674.3421669309598
 20
564.2006251565971
 30
0.0
 41
8.0
 42
8.0
 43
8.0
  0
INSERT
  5
29F28
330
28B09
100
AcDbEntity
  8
sunpo
 62
     0
370
    -2
100
AcDbBlockReference
  2
_DotSmall
 10
664.3421669293066
 20
564.2006251565971
 30
0.0
 41
8.0
 42
8.0
 43
8.0
 50
180.0
  0
MTEXT
  5
29F29
330
28B09
100
AcDbEntity
  8
sunpo
 62
     0
100
AcDbMText
 10
669.3421669301333
 20
568.4506251565972
 30
0.0
 40
6.0
 41
0.0
 71
     5
 72
     1
  1
\A1;10
  7
dim
 73
     1
 44
1.0
  0
POINT
  5
29F2A
330
28B09
100
AcDbEntity
  8
Defpoints
 62
     0
100
AcDbPoint
 10
674.3421669309598
 20
551.1914843564752
 30
0.0
  0
POINT
  5
29F2B
330
28B09
100
AcDbEntity
  8
Defpoints
 62
     0
100
AcDbPoint
 10
664.3421669293066
 20
564.2006251565971
 30
0.0
  0
POINT
  5
29F2C
330
28B09
100
AcDbEntity
  8
Defpoints
 62
     0
100
AcDbPoint
 10
664.3421669293066
 20
564.2006251565971
 30
0.0
  0
ENDBLK
  5
28B14
330
28B09
100
AcDbEntity
  8
0
100
AcDbBlockEnd
  0
BLOCK
  5
28B1F
330
28B15
100
AcDbEntity
  8
0
100
AcDbBlockBegin
  2
*D22
 70
     1
 10
0.0
 20
0.0
 30
0.0
  3
*D22
  1

  0
LINE
  5
29F1B
330
28B15
100
AcDbEntity
  8
sunpo
 62
     0
370
    -2
100
AcDbLine
 10
650.69469753098
 20
518.2643404134719
 30
0.0
 11
647.7877760978722
 21
491.1698334465284
 31
0.0
  0
LINE
  5
29F1C
330
28B15
100
AcDbEntity
  8
sunpo
 62
     0
370
    -2
100
AcDbLine
 10
670.580570699286
 20
516.1308204716056
 30
0.0
 11
667.6736492661782
 21
489.0363135046619
 31
0.0
  0
LINE
  5
29F1D
330
28B15
100
AcDbEntity
  8
sunpo
 62
     0
370
    -2
100
AcDbLine
 10
648.0544661376066
 20
493.6555680306516
 30
0.0
 11
667.9403393059129
 21
491.5220480887851
 31
0.0
  0
INSERT
  5
29F1E
330
28B15
100
AcDbEntity
  8
sunpo
 62
     0
370
    -2
100
AcDbBlockReference
  2
_DotSmall
 10
648.0544661376066
 20
493.6555680306516
 30
0.0
 41
8.0
 42
8.0
 43
8.0
 50
173.8762623885713
  0
INSERT
  5
29F1F
330
28B15
100
AcDbEntity
  8
sunpo
 62
     0
370
    -2
100
AcDbBlockReference
  2
_DotSmall
 10
667.9403393059129
 20
491.5220480887851
 30
0.0
 41
8.0
 42
8.0
 43
8.0
 50
353.8762623885713
  0
MTEXT
  5
29F20
330
28B15
100
AcDbEntity
  8
sunpo
 62
     0
100
AcDbMText
 10
658.4507757893086
 20
496.8145568527279
 30
0.0
 40
6.0
 41
0.0
 71
     5
 72
     1
  1
\A1;20
  7
dim
 11
0.9942938336492954
 21
-0.1066760158938612
 31
0.0
 73
     1
 44
1.0
  0
POINT
  5
29F21
330
28B15
100
AcDbEntity
  8
Defpoints
 62
     0
100
AcDbPoint
 10
650.8280425508472
 20
519.5072077055336
 30
0.0
  0
POINT
  5
29F22
330
28B15
100
AcDbEntity
  8
Defpoints
 62
     0
100
AcDbPoint
 10
670.7139157191532
 20
517.3736877636672
 30
0.0
  0
POINT
  5
29F23
330
28B15
100
AcDbEntity
  8
Defpoints
 62
     0
100
AcDbPoint
 10
667.9403393059129
 20
491.5220480887851
 30
0.0
  0
ENDBLK
  5
28B20
330
28B15
100
AcDbEntity
  8
0
100
AcDbBlockEnd
  0
BLOCK
  5
28B37
330
28B2D
100
AcDbEntity
  8
0
100
AcDbBlockBegin
  2
*D23
 70
     1
 10
0.0
 20
0.0
 30
0.0
  3
*D23
  1

  0
LINE
  5
29F09
330
28B2D
100
AcDbEntity
  8
sunpo
 62
     0
370
    -2
100
AcDbLine
 10
326.3686326431523
 20
647.4746024044747
 30
0.0
 11
327.6186326431528
 21
647.4746024044747
 31
0.0
  0
LINE
  5
29F0A
330
28B2D
100
AcDbEntity
  8
sunpo
 62
     0
370
    -2
100
AcDbLine
 10
326.3686326431516
 20
677.4746024046208
 30
0.0
 11
327.6186326431528
 21
677.4746024046208
 31
0.0
  0
LINE
  5
29F0B
330
28B2D
100
AcDbEntity
  8
sunpo
 62
     0
370
    -2
100
AcDbLine
 10
325.1186326431528
 20
647.4746024044747
 30
0.0
 11
325.1186326431528
 21
677.4746024046208
 31
0.0
  0
INSERT
  5
29F0C
330
28B2D
100
AcDbEntity
  8
sunpo
 62
     0
370
    -2
100
AcDbBlockReference
  2
_DotSmall
 10
325.1186326431528
 20
647.4746024044747
 30
0.0
 41
8.0
 42
8.0
 43
8.0
 50
270.0
  0
INSERT
  5
29F0D
330
28B2D
100
AcDbEntity
  8
sunpo
 62
     0
370
    -2
100
AcDbBlockReference
  2
_DotSmall
 10
325.1186326431528
 20
677.4746024046208
 30
0.0
 41
8.0
 42
8.0
 43
8.0
 50
90.0
  0
MTEXT
  5
29F0E
330
28B2D
100
AcDbEntity
  8
sunpo
 62
     0
100
AcDbMText
 10
320.8686326431526
 20
662.4746024045479
 30
0.0
 40
6.0
 41
0.0
 71
     5
 72
     1
  1
\A1;30
  7
dim
 11
0.0000000000000001
 21
1.0
 31
0.0
 73
     1
 44
1.0
  0
POINT
  5
29F0F
330
28B2D
100
AcDbEntity
  8
Defpoints
 62
     0
100
AcDbPoint
 10
325.1186326431523
 20
647.4746024044747
 30
0.0
  0
POINT
  5
29F10
330
28B2D
100
AcDbEntity
  8
Defpoints
 62
     0
100
AcDbPoint
 10
325.1186326431516
 20
677.4746024046208
 30
0.0
  0
POINT
  5
29F11
330
28B2D
100
AcDbEntity
  8
Defpoints
 62
     0
100
AcDbPoint
 10
325.1186326431528
 20
677.4746024046208
 30
0.0
  0
ENDBLK
  5
28B38
330
28B2D
100
AcDbEntity
  8
0
100
AcDbBlockEnd
  0
BLOCK
  5
28B43
330
28B39
100
AcDbEntity
  8
0
100
AcDbBlockBegin
  2
*D24
 70
     1
 10
0.0
 20
0.0
 30
0.0
  3
*D24
  1

  0
LINE
  5
2A2DF
330
28B39
100
AcDbEntity
  8
sunpo
 62
     0
370
    -2
100
AcDbLine
 10
799.9425817551086
 20
276.0313880473069
 30
0.0
 11
762.8858739552322
 21
276.0313880473069
 31
0.0
  0
LINE
  5
2A2E0
330
28B39
100
AcDbEntity
  8
sunpo
 62
     0
370
    -2
100
AcDbLine
 10
853.5709952248767
 20
699.0213727033647
 30
0.0
 11
762.8858739552322
 21
699.0213727033647
 31
0.0
  0
LINE
  5
2A2E1
330
28B39
100
AcDbEntity
  8
sunpo
 62
     0
370
    -2
100
AcDbLine
 10
765.3858739552322
 20
276.0313880473069
 30
0.0
 11
765.3858739552322
 21
699.0213727033647
 31
0.0
  0
INSERT
  5
2A2E2
330
28B39
100
AcDbEntity
  8
sunpo
 62
     0
370
    -2
100
AcDbBlockReference
  2
_DotSmall
 10
765.3858739552322
 20
276.0313880473069
 30
0.0
 41
8.0
 42
8.0
 43
8.0
 50
270.0
  0
INSERT
  5
2A2E3
330
28B39
100
AcDbEntity
  8
sunpo
 62
     0
370
    -2
100
AcDbBlockReference
  2
_DotSmall
 10
765.3858739552322
 20
699.0213727033647
 30
0.0
 41
8.0
 42
8.0
 43
8.0
 50
90.0
  0
MTEXT
  5
2A2E4
330
28B39
100
AcDbEntity
  8
sunpo
 62
     0
100
AcDbMText
 10
761.1358739552321
 20
487.5263803753358
 30
0.0
 40
6.0
 41
0.0
 71
     5
 72
     1
  1
\A1;H
  7
dim
 11
0.0000000000000001
 21
1.0
 31
0.0
 73
     1
 44
1.0
  0
POINT
  5
2A2E5
330
28B39
100
AcDbEntity
  8
Defpoints
 62
     0
100
AcDbPoint
 10
801.1925817551086
 20
276.0313880473069
 30
0.0
  0
POINT
  5
2A2E6
330
28B39
100
AcDbEntity
  8
Defpoints
 62
     0
100
AcDbPoint
 10
854.8209952248766
 20
699.0213727033647
 30
0.0
  0
POINT
  5
2A2E7
330
28B39
100
AcDbEntity
  8
Defpoints
 62
     0
100
AcDbPoint
 10
765.3858739552322
 20
699.0213727033647
 30
0.0
  0
ENDBLK
  5
28B44
330
28B39
100
AcDbEntity
  8
0
100
AcDbBlockEnd
  0
BLOCK
  5
28B4F
330
28B45
100
AcDbEntity
  8
0
100
AcDbBlockBegin
  2
*D25
 70
     1
 10
0.0
 20
0.0
 30
0.0
  3
*D25
  1

  0
LINE
  5
29E43
330
28B45
100
AcDbEntity
  8
sunpo
 62
     0
370
    -2
100
AcDbLine
 10
1012.053035802496
 20
365.7297172161998
 30
0.0
 11
1012.053035802496
 21
366.9797172161998
 31
0.0
  0
LINE
  5
29E44
330
28B45
100
AcDbEntity
  8
sunpo
 62
     0
370
    -2
100
AcDbLine
 10
897.0530358024962
 20
309.2813880473069
 30
0.0
 11
897.0530358024962
 21
366.9797172161998
 31
0.0
  0
LINE
  5
29E45
330
28B45
100
AcDbEntity
  8
sunpo
 62
     0
370
    -2
100
AcDbLine
 10
1012.053035802496
 20
364.4797172161998
 30
0.0
 11
897.0530358024962
 21
364.4797172161998
 31
0.0
  0
INSERT
  5
29E46
330
28B45
100
AcDbEntity
  8
sunpo
 62
     0
370
    -2
100
AcDbBlockReference
  2
_DotSmall
 10
1012.053035802496
 20
364.4797172161998
 30
0.0
 41
8.0
 42
8.0
 43
8.0
  0
INSERT
  5
29E47
330
28B45
100
AcDbEntity
  8
sunpo
 62
     0
370
    -2
100
AcDbBlockReference
  2
_DotSmall
 10
897.0530358024962
 20
364.4797172161998
 30
0.0
 41
8.0
 42
8.0
 43
8.0
 50
180.0
  0
MTEXT
  5
29E48
330
28B45
100
AcDbEntity
  8
sunpo
 62
     0
100
AcDbMText
 10
954.553035802496
 20
368.7297172161998
 30
0.0
 40
6.0
 41
0.0
 71
     5
 72
     1
  1
\A1;115
  7
dim
 73
     1
 44
1.0
  0
POINT
  5
29E49
330
28B45
100
AcDbEntity
  8
Defpoints
 62
     0
100
AcDbPoint
 10
1012.053035802496
 20
364.4797172161998
 30
0.0
  0
POINT
  5
29E4A
330
28B45
100
AcDbEntity
  8
Defpoints
 62
     0
100
AcDbPoint
 10
897.0530358024962
 20
308.0313880473068
 30
0.0
  0
POINT
  5
29E4B
330
28B45
100
AcDbEntity
  8
Defpoints
 62
     0
100
AcDbPoint
 10
897.0530358024962
 20
364.4797172161998
 30
0.0
  0
ENDBLK
  5
28B50
330
28B45
100
AcDbEntity
  8
0
100
AcDbBlockEnd
  0
BLOCK
  5
28B5B
330
28B51
100
AcDbEntity
  8
0
100
AcDbBlockBegin
  2
*D26
 70
     1
 10
0.0
 20
0.0
 30
0.0
  3
*D26
  1

  0
LINE
  5
29E3A
330
28B51
100
AcDbEntity
  8
sunpo
 62
     0
370
    -2
100
AcDbLine
 10
897.0530358024962
 20
350.7297172161998
 30
0.0
 11
897.0530358024962
 21
351.9797172161998
 31
0.0
  0
LINE
  5
29E3B
330
28B51
100
AcDbEntity
  8
sunpo
 62
     0
370
    -2
100
AcDbLine
 10
982.0530358024923
 20
350.7297172161998
 30
0.0
 11
982.0530358024923
 21
351.9797172161998
 31
0.0
  0
LINE
  5
29E3C
330
28B51
100
AcDbEntity
  8
sunpo
 62
     0
370
    -2
100
AcDbLine
 10
897.0530358024962
 20
349.4797172161998
 30
0.0
 11
982.0530358024923
 21
349.4797172161998
 31
0.0
  0
INSERT
  5
29E3D
330
28B51
100
AcDbEntity
  8
sunpo
 62
     0
370
    -2
100
AcDbBlockReference
  2
_DotSmall
 10
897.0530358024962
 20
349.4797172161998
 30
0.0
 41
8.0
 42
8.0
 43
8.0
 50
180.0
  0
INSERT
  5
29E3E
330
28B51
100
AcDbEntity
  8
sunpo
 62
     0
370
    -2
100
AcDbBlockReference
  2
_DotSmall
 10
982.0530358024923
 20
349.4797172161998
 30
0.0
 41
8.0
 42
8.0
 43
8.0
  0
MTEXT
  5
29E3F
330
28B51
100
AcDbEntity
  8
sunpo
 62
     0
100
AcDbMText
 10
939.5530358024943
 20
353.7297172161998
 30
0.0
 40
6.0
 41
0.0
 71
     5
 72
     1
  1
\A1;85
  7
dim
 73
     1
 44
1.0
  0
POINT
  5
29E40
330
28B51
100
AcDbEntity
  8
Defpoints
 62
     0
100
AcDbPoint
 10
897.0530358024962
 20
349.4797172161998
 30
0.0
  0
POINT
  5
29E41
330
28B51
100
AcDbEntity
  8
Defpoints
 62
     0
100
AcDbPoint
 10
982.0530358024923
 20
349.4797172161998
 30
0.0
  0
POINT
  5
29E42
330
28B51
100
AcDbEntity
  8
Defpoints
 62
     0
100
AcDbPoint
 10
982.0530358024923
 20
349.4797172161998
 30
0.0
  0
ENDBLK
  5
28B5C
330
28B51
100
AcDbEntity
  8
0
100
AcDbBlockEnd
  0
BLOCK
  5
28B65
330
28B5D
100
AcDbEntity
  8
0
100
AcDbBlockBegin
  2
*D27
 70
     1
 10
0.0
 20
0.0
 30
0.0
  3
*D27
  1

  0
LINE
  5
2A2D8
330
28B5D
100
AcDbEntity
  8
sunpo
 62
     0
370
    -2
100
AcDbLine
 10
799.4640826288133
 20
276.0313880473069
 30
0.0
 11
765.3858739552322
 21
276.0313880473069
 31
0.0
  0
LINE
  5
2A2D9
330
28B5D
100
AcDbEntity
  8
sunpo
 62
     0
370
    -2
100
AcDbLine
 10
765.3858739552322
 20
276.0313880473069
 30
0.0
 11
765.3858739552321
 21
128.6212306316661
 31
0.0
  0
INSERT
  5
2A2DA
330
28B5D
100
AcDbEntity
  8
sunpo
 62
     0
370
    -2
100
AcDbBlockReference
  2
_DotSmall
 10
765.3858739552322
 20
276.0313880473069
 30
0.0
 41
6.0
 42
6.0
 43
6.0
 50
90.0
  0
MTEXT
  5
2A2DB
330
28B5D
100
AcDbEntity
  8
sunpo
 62
     0
100
AcDbMText
 10
761.1358739552321
 20
174.3360339174514
 30
0.0
 40
6.0
 41
0.0
 71
     5
 72
     1
  1
\A1;FLﾏﾃﾞ
  7
dim
 11
0.0000000000000001
 21
1.0
 31
0.0
 73
     1
 44
1.0
  0
POINT
  5
2A2DC
330
28B5D
100
AcDbEntity
  8
Defpoints
 62
     0
100
AcDbPoint
 10
799.4640826288133
 20
276.0313880473069
 30
0.0
  0
POINT
  5
2A2DD
330
28B5D
100
AcDbEntity
  8
Defpoints
 62
     0
100
AcDbPoint
 10
769.9073748289366
 20
128.6212306316661
 30
0.0
  0
POINT
  5
2A2DE
330
28B5D
100
AcDbEntity
  8
Defpoints
 62
     0
100
AcDbPoint
 10
765.3858739552321
 20
128.6212306316661
 30
0.0
  0
ENDBLK
  5
28B66
330
28B5D
100
AcDbEntity
  8
0
100
AcDbBlockEnd
  0
BLOCK
  5
28B71
330
28B67
100
AcDbEntity
  8
0
100
AcDbBlockBegin
  2
*D28
 70
     1
 10
0.0
 20
0.0
 30
0.0
  3
*D28
  1

  0
LINE
  5
29E2A
330
28B67
100
AcDbEntity
  8
sunpo
 62
     0
370
    -2
100
AcDbLine
 10
799.9425817551086
 20
276.0313880473069
 30
0.0
 11
778.8858568848491
 21
276.0313880473069
 31
0.0
  0
LINE
  5
29E2B
330
28B67
100
AcDbEntity
  8
sunpo
 62
     0
370
    -2
100
AcDbLine
 10
799.9425817551086
 20
301.0313880473069
 30
0.0
 11
778.8858568848491
 21
301.0313880473069
 31
0.0
  0
LINE
  5
29E2C
330
28B67
100
AcDbEntity
  8
sunpo
 62
     0
370
    -2
100
AcDbLine
 10
781.3858568848489
 20
276.0313880473069
 30
0.0
 11
781.3858568848489
 21
301.0313880473069
 31
0.0
  0
INSERT
  5
29E2D
330
28B67
100
AcDbEntity
  8
sunpo
 62
     0
370
    -2
100
AcDbBlockReference
  2
_DotSmall
 10
781.3858568848489
 20
276.0313880473069
 30
0.0
 41
8.0
 42
8.0
 43
8.0
 50
270.0
  0
INSERT
  5
29E2E
330
28B67
100
AcDbEntity
  8
sunpo
 62
     0
370
    -2
100
AcDbBlockReference
  2
_DotSmall
 10
781.3858568848489
 20
301.0313880473069
 30
0.0
 41
8.0
 42
8.0
 43
8.0
 50
90.0
  0
MTEXT
  5
29E2F
330
28B67
100
AcDbEntity
  8
sunpo
 62
     0
100
AcDbMText
 10
777.135856884849
 20
288.5313880473069
 30
0.0
 40
6.0
 41
0.0
 71
     5
 72
     1
  1
\A1;25
  7
dim
 11
0.0000000000000001
 21
1.0
 31
0.0
 73
     1
 44
1.0
  0
POINT
  5
29E30
330
28B67
100
AcDbEntity
  8
Defpoints
 62
     0
100
AcDbPoint
 10
801.1925817551086
 20
276.0313880473069
 30
0.0
  0
POINT
  5
29E31
330
28B67
100
AcDbEntity
  8
Defpoints
 62
     0
100
AcDbPoint
 10
801.1925817551086
 20
301.0313880473069
 30
0.0
  0
POINT
  5
29E32
330
28B67
100
AcDbEntity
  8
Defpoints
 62
     0
100
AcDbPoint
 10
781.3858568848489
 20
301.0313880473069
 30
0.0
  0
ENDBLK
  5
28B72
330
28B67
100
AcDbEntity
  8
0
100
AcDbBlockEnd
  0
BLOCK
  5
28B7D
330
28B73
100
AcDbEntity
  8
0
100
AcDbBlockBegin
  2
*D29
 70
     1
 10
0.0
 20
0.0
 30
0.0
  3
*D29
  1

  0
LINE
  5
29E18
330
28B73
100
AcDbEntity
  8
sunpo
 62
     0
370
    -2
100
AcDbLine
 10
982.0530358024923
 20
350.7297172161998
 30
0.0
 11
982.0530358024923
 21
351.9797172161998
 31
0.0
  0
LINE
  5
29E19
330
28B73
100
AcDbEntity
  8
sunpo
 62
     0
370
    -2
100
AcDbLine
 10
1012.053035802496
 20
350.7297172161998
 30
0.0
 11
1012.053035802496
 21
351.9797172161998
 31
0.0
  0
LINE
  5
29E1A
330
28B73
100
AcDbEntity
  8
sunpo
 62
     0
370
    -2
100
AcDbLine
 10
982.0530358024923
 20
349.4797172161998
 30
0.0
 11
1012.053035802496
 21
349.4797172161998
 31
0.0
  0
INSERT
  5
29E1B
330
28B73
100
AcDbEntity
  8
sunpo
 62
     0
370
    -2
100
AcDbBlockReference
  2
_DotSmall
 10
982.0530358024923
 20
349.4797172161998
 30
0.0
 41
8.0
 42
8.0
 43
8.0
 50
180.0
  0
INSERT
  5
29E1C
330
28B73
100
AcDbEntity
  8
sunpo
 62
     0
370
    -2
100
AcDbBlockReference
  2
_DotSmall
 10
1012.053035802496
 20
349.4797172161998
 30
0.0
 41
8.0
 42
8.0
 43
8.0
  0
MTEXT
  5
29E1D
330
28B73
100
AcDbEntity
  8
sunpo
 62
     0
100
AcDbMText
 10
997.0530358024943
 20
353.7297172161998
 30
0.0
 40
6.0
 41
0.0
 71
     5
 72
     1
  1
\A1;30
  7
dim
 73
     1
 44
1.0
  0
POINT
  5
29E1E
330
28B73
100
AcDbEntity
  8
Defpoints
 62
     0
100
AcDbPoint
 10
982.0530358024923
 20
349.4797172161998
 30
0.0
  0
POINT
  5
29E1F
330
28B73
100
AcDbEntity
  8
Defpoints
 62
     0
100
AcDbPoint
 10
1012.053035802496
 20
349.4797172161998
 30
0.0
  0
POINT
  5
29E20
330
28B73
100
AcDbEntity
  8
Defpoints
 62
     0
100
AcDbPoint
 10
1012.053035802496
 20
349.4797172161998
 30
0.0
  0
ENDBLK
  5
28B7E
330
28B73
100
AcDbEntity
  8
0
100
AcDbBlockEnd
  0
BLOCK
  5
28B89
330
28B7F
100
AcDbEntity
  8
0
100
AcDbBlockBegin
  2
*D30
 70
     1
 10
0.0
 20
0.0
 30
0.0
  3
*D30
  1

  0
LINE
  5
29E0F
330
28B7F
100
AcDbEntity
  8
sunpo
 62
     0
370
    -2
100
AcDbLine
 10
917.0530358024988
 20
606.952811014675
 30
0.0
 11
917.0530358024988
 21
608.202811014675
 31
0.0
  0
LINE
  5
29E10
330
28B7F
100
AcDbEntity
  8
sunpo
 62
     0
370
    -2
100
AcDbLine
 10
1042.053035802495
 20
606.952811014675
 30
0.0
 11
1042.053035802495
 21
608.202811014675
 31
0.0
  0
LINE
  5
29E11
330
28B7F
100
AcDbEntity
  8
sunpo
 62
     0
370
    -2
100
AcDbLine
 10
917.0530358024988
 20
605.702811014675
 30
0.0
 11
1042.053035802495
 21
605.702811014675
 31
0.0
  0
INSERT
  5
29E12
330
28B7F
100
AcDbEntity
  8
sunpo
 62
     0
370
    -2
100
AcDbBlockReference
  2
_DotSmall
 10
917.0530358024988
 20
605.702811014675
 30
0.0
 41
8.0
 42
8.0
 43
8.0
 50
180.0
  0
INSERT
  5
29E13
330
28B7F
100
AcDbEntity
  8
sunpo
 62
     0
370
    -2
100
AcDbBlockReference
  2
_DotSmall
 10
1042.053035802495
 20
605.702811014675
 30
0.0
 41
8.0
 42
8.0
 43
8.0
  0
MTEXT
  5
29E14
330
28B7F
100
AcDbEntity
  8
sunpo
 62
     0
100
AcDbMText
 10
964.5231391286653
 20
609.952811014675
 30
0.0
 40
6.0
 41
0.0
 71
     5
 72
     1
  1
\A1;両端部　125
  7
dim
 73
     1
 44
1.0
  0
POINT
  5
29E15
330
28B7F
100
AcDbEntity
  8
Defpoints
 62
     0
100
AcDbPoint
 10
917.0530358024988
 20
605.702811014675
 30
0.0
  0
POINT
  5
29E16
330
28B7F
100
AcDbEntity
  8
Defpoints
 62
     0
100
AcDbPoint
 10
1042.053035802495
 20
605.702811014675
 30
0.0
  0
POINT
  5
29E17
330
28B7F
100
AcDbEntity
  8
Defpoints
 62
     0
100
AcDbPoint
 10
1042.053035802495
 20
605.702811014675
 30
0.0
  0
ENDBLK
  5
28B8A
330
28B7F
100
AcDbEntity
  8
0
100
AcDbBlockEnd
  0
BLOCK
  5
28B95
330
28B8B
100
AcDbEntity
  8
0
100
AcDbBlockBegin
  2
*D31
 70
     1
 10
0.0
 20
0.0
 30
0.0
  3
*D31
  1

  0
LINE
  5
29E06
330
28B8B
100
AcDbEntity
  8
sunpo
 62
     0
370
    -2
100
AcDbLine
 10
853.5709952248767
 20
679.021372703417
 30
0.0
 11
778.8858568848491
 21
679.021372703417
 31
0.0
  0
LINE
  5
29E07
330
28B8B
100
AcDbEntity
  8
sunpo
 62
     0
370
    -2
100
AcDbLine
 10
780.1358568848491
 20
699.0213727033643
 30
0.0
 11
778.8858568848491
 21
699.0213727033643
 31
0.0
  0
LINE
  5
29E08
330
28B8B
100
AcDbEntity
  8
sunpo
 62
     0
370
    -2
100
AcDbLine
 10
781.3858568848489
 20
679.021372703417
 30
0.0
 11
781.3858568848489
 21
699.0213727033643
 31
0.0
  0
INSERT
  5
29E09
330
28B8B
100
AcDbEntity
  8
sunpo
 62
     0
370
    -2
100
AcDbBlockReference
  2
_DotSmall
 10
781.3858568848489
 20
679.021372703417
 30
0.0
 41
8.0
 42
8.0
 43
8.0
 50
270.0
  0
INSERT
  5
29E0A
330
28B8B
100
AcDbEntity
  8
sunpo
 62
     0
370
    -2
100
AcDbBlockReference
  2
_DotSmall
 10
781.3858568848489
 20
699.0213727033643
 30
0.0
 41
8.0
 42
8.0
 43
8.0
 50
90.0
  0
MTEXT
  5
29E0B
330
28B8B
100
AcDbEntity
  8
sunpo
 62
     0
100
AcDbMText
 10
777.135856884849
 20
689.0213727033908
 30
0.0
 40
6.0
 41
0.0
 71
     5
 72
     1
  1
\A1;20
  7
dim
 11
0.0000000000000001
 21
1.0
 31
0.0
 73
     1
 44
1.0
  0
POINT
  5
29E0C
330
28B8B
100
AcDbEntity
  8
Defpoints
 62
     0
100
AcDbPoint
 10
854.8209952248766
 20
679.021372703417
 30
0.0
  0
POINT
  5
29E0D
330
28B8B
100
AcDbEntity
  8
Defpoints
 62
     0
100
AcDbPoint
 10
781.3858568848489
 20
699.0213727033643
 30
0.0
  0
POINT
  5
29E0E
330
28B8B
100
AcDbEntity
  8
Defpoints
 62
     0
100
AcDbPoint
 10
781.3858568848489
 20
699.0213727033643
 30
0.0
  0
ENDBLK
  5
28B96
330
28B8B
100
AcDbEntity
  8
0
100
AcDbBlockEnd
  0
BLOCK
  5
28BA1
330
28B97
100
AcDbEntity
  8
0
100
AcDbBlockBegin
  2
*D32
 70
     1
 10
0.0
 20
0.0
 30
0.0
  3
*D32
  1

  0
LINE
  5
29DFD
330
28B97
100
AcDbEntity
  8
sunpo
 62
     0
370
    -2
100
AcDbLine
 10
982.0530358024923
 20
621.952811014675
 30
0.0
 11
982.0530358024923
 21
623.202811014675
 31
0.0
  0
LINE
  5
29DFE
330
28B97
100
AcDbEntity
  8
sunpo
 62
     0
370
    -2
100
AcDbLine
 10
1012.053035802496
 20
621.9528110146742
 30
0.0
 11
1012.053035802496
 21
623.202811014675
 31
0.0
  0
LINE
  5
29DFF
330
28B97
100
AcDbEntity
  8
sunpo
 62
     0
370
    -2
100
AcDbLine
 10
982.0530358024923
 20
620.702811014675
 30
0.0
 11
1012.053035802496
 21
620.702811014675
 31
0.0
  0
INSERT
  5
29E00
330
28B97
100
AcDbEntity
  8
sunpo
 62
     0
370
    -2
100
AcDbBlockReference
  2
_DotSmall
 10
982.0530358024923
 20
620.702811014675
 30
0.0
 41
8.0
 42
8.0
 43
8.0
 50
180.0
  0
INSERT
  5
29E01
330
28B97
100
AcDbEntity
  8
sunpo
 62
     0
370
    -2
100
AcDbBlockReference
  2
_DotSmall
 10
1012.053035802496
 20
620.702811014675
 30
0.0
 41
8.0
 42
8.0
 43
8.0
  0
MTEXT
  5
29E02
330
28B97
100
AcDbEntity
  8
sunpo
 62
     0
100
AcDbMText
 10
997.0530358024943
 20
624.952811014675
 30
0.0
 40
6.0
 41
0.0
 71
     5
 72
     1
  1
\A1;30
  7
dim
 73
     1
 44
1.0
  0
POINT
  5
29E03
330
28B97
100
AcDbEntity
  8
Defpoints
 62
     0
100
AcDbPoint
 10
982.0530358024923
 20
620.702811014675
 30
0.0
  0
POINT
  5
29E04
330
28B97
100
AcDbEntity
  8
Defpoints
 62
     0
100
AcDbPoint
 10
1012.053035802496
 20
620.7028110146742
 30
0.0
  0
POINT
  5
29E05
330
28B97
100
AcDbEntity
  8
Defpoints
 62
     0
100
AcDbPoint
 10
1012.053035802496
 20
620.702811014675
 30
0.0
  0
ENDBLK
  5
28BA2
330
28B97
100
AcDbEntity
  8
0
100
AcDbBlockEnd
  0
BLOCK
  5
28BAD
330
28BA3
100
AcDbEntity
  8
0
100
AcDbBlockBegin
  2
*D33
 70
     1
 10
0.0
 20
0.0
 30
0.0
  3
*D33
  1

  0
LINE
  5
29DF4
330
28BA3
100
AcDbEntity
  8
sunpo
 62
     0
370
    -2
100
AcDbLine
 10
1012.053035802496
 20
621.952811014675
 30
0.0
 11
1012.053035802496
 21
623.202811014675
 31
0.0
  0
LINE
  5
29DF5
330
28BA3
100
AcDbEntity
  8
sunpo
 62
     0
370
    -2
100
AcDbLine
 10
1042.053035802501
 20
621.952811014675
 30
0.0
 11
1042.053035802501
 21
623.202811014675
 31
0.0
  0
LINE
  5
29DF6
330
28BA3
100
AcDbEntity
  8
sunpo
 62
     0
370
    -2
100
AcDbLine
 10
1012.053035802496
 20
620.702811014675
 30
0.0
 11
1042.053035802501
 21
620.702811014675
 31
0.0
  0
INSERT
  5
29DF7
330
28BA3
100
AcDbEntity
  8
sunpo
 62
     0
370
    -2
100
AcDbBlockReference
  2
_DotSmall
 10
1012.053035802496
 20
620.702811014675
 30
0.0
 41
8.0
 42
8.0
 43
8.0
 50
180.0
  0
INSERT
  5
29DF8
330
28BA3
100
AcDbEntity
  8
sunpo
 62
     0
370
    -2
100
AcDbBlockReference
  2
_DotSmall
 10
1042.053035802501
 20
620.702811014675
 30
0.0
 41
8.0
 42
8.0
 43
8.0
  0
MTEXT
  5
29DF9
330
28BA3
100
AcDbEntity
  8
sunpo
 62
     0
100
AcDbMText
 10
1027.053035802499
 20
624.952811014675
 30
0.0
 40
6.0
 41
0.0
 71
     5
 72
     1
  1
\A1;30
  7
dim
 73
     1
 44
1.0
  0
POINT
  5
29DFA
330
28BA3
100
AcDbEntity
  8
Defpoints
 62
     0
100
AcDbPoint
 10
1012.053035802496
 20
620.702811014675
 30
0.0
  0
POINT
  5
29DFB
330
28BA3
100
AcDbEntity
  8
Defpoints
 62
     0
100
AcDbPoint
 10
1042.053035802501
 20
620.702811014675
 30
0.0
  0
POINT
  5
29DFC
330
28BA3
100
AcDbEntity
  8
Defpoints
 62
     0
100
AcDbPoint
 10
1042.053035802501
 20
620.702811014675
 30
0.0
  0
ENDBLK
  5
28BAE
330
28BA3
100
AcDbEntity
  8
0
100
AcDbBlockEnd
  0
BLOCK
  5
2A338
330
2A337
100
AcDbEntity
  8
0
100
AcDbBlockBegin
  2
二葉ﾛｺﾞ
 70
     0
 10
0.0
 20
0.0
 30
0.0
  3
二葉ﾛｺﾞ
  1

  0
HATCH
  5
2A339
330
2A337
100
AcDbEntity
  8
0
  6
ByBlock
 62
     0
370
     0
100
AcDbHatch
 10
0.0
 20
0.0
 30
0.0
210
0.0
220
0.0
230
1.0
  2
SOLID
 70
     1
 71
     0
 91
        2
 92
       16
 93
        3
 72
     1
 10
76.73769930424716
 20
-36.71304457298436
 11
79.78414802696352
 21
-29.1412168510102
 72
     1
 10
79.78414802696534
 20
-29.14121685100997
 11
66.50084414551566
 21
-28.19627637481938
 72
     1
 10
66.50084414551748
 20
-28.19627637481915
 11
76.73769930424716
 21
-36.71304457298379
 97
        0
 92
        1
 93
        8
 72
     1
 10
84.6811051822242
 20
-43.32270634133806
 11
82.15388156491099
 21
-49.6075448210006
 72
     1
 10
82.15388156491099
 20
-49.60754482100004
 11
59.39410431416582
 21
-29.26425597551384
 72
     1
 10
59.39410431417127
 20
-29.2642559755144
 11
62.12557287816162
 21
-22.47249630289525
 72
     1
 10
62.12557287815798
 20
-22.47249630289502
 11
92.63189340767349
 21
-23.55277981603967
 72
     1
 10
92.63189340767349
 20
-23.55277981604013
 11
90.10466979036028
 21
-29.83761829570267
 72
     1
 10
90.10466979035481
 20
-29.83761829570301
 11
84.56544840518654
 21
-29.45619700974067
 72
     1
 10
84.5654484051902
 20
-29.45619700973987
 11
80.41902990940618
 21
-39.76441486068234
 72
     1
 10
80.41902990940434
 20
-39.76441486068291
 11
84.6811051822242
 21
-43.32270634133749
 97
        0
 75
     0
 76
     1
 98
        1
 10
-710.8849522954551
 20
-714.907159621347
450
        0
451
        0
460
0.0
461
0.0
452
        1
462
1.0
453
        2
463
0.0
 63
     5
421
      255
463
1.0
 63
    51
421
 16777113
470
LINEAR
  0
HATCH
  5
2A33A
330
2A337
100
AcDbEntity
  8
0
  6
ByBlock
 62
     0
370
     0
100
AcDbHatch
 10
0.0
 20
0.0
 30
0.0
210
0.0
220
0.0
230
1.0
  2
SOLID
 70
     1
 71
     0
 91
        3
 92
        1
 93
        1
 72
     4
 94
        3
 73
     0
 74
     0
 95
       29
 96
       25
 40
0.0
 40
0.0
 40
0.0
 40
0.0
 40
1.0
 40
1.0
 40
1.0
 40
2.0
 40
2.0
 40
2.0
 40
3.0
 40
3.0
 40
3.0
 40
4.0
 40
4.0
 40
4.0
 40
5.0
 40
5.0
 40
5.0
 40
6.0
 40
6.0
 40
6.0
 40
7.0
 40
7.0
 40
7.0
 40
8.0
 40
8.0
 40
8.0
 40
8.0
 10
64.57897302076526
 20
-69.57925551048436
 10
64.57897302076526
 20
-69.57925551048436
 10
52.10280579606297
 20
-79.93422822873879
 10
52.10280579606297
 20
-79.93422822873879
 10
52.10280579606297
 20
-79.93422822873879
 10
33.77243702746091
 20
-57.84132303280569
 10
33.77243702746091
 20
-57.84132303280569
 10
33.77243702746091
 20
-57.84132303280569
 10
45.66047723703195
 20
-47.97850681256806
 10
45.66047723703195
 20
-47.97850681256806
 10
49.97668972463362
 20
-44.39806828950223
 10
54.5660490686314
 20
-44.565401498828
 10
57.30982154507183
 20
-47.87269316549429
 10
59.98469211178417
 20
-51.09631822749872
 10
58.48607557533068
 20
-53.85485539887724
 10
57.7675270882264
 20
-55.20828576842075
 10
59.02990850563583
 20
-54.68167831554456
 10
59.66971195305632
 20
-54.48235493384709
 10
60.7327699887719
 20
-54.45282554396658
 10
62.78752336798607
 20
-54.35931580934378
 10
64.88411004953741
 20
-55.17383481356011
 10
66.53529510037697
 20
-57.16460784803349
 10
69.67525355771977
 20
-60.94929131777576
 10
68.86811690097056
 20
-66.02342481231914
 10
64.57897302076526
 20
-69.57925551048436
 97
        0
 92
       16
 93
        1
 72
     4
 94
        3
 73
     0
 74
     0
 95
       20
 96
       16
 40
0.0
 40
0.0
 40
0.0
 40
0.0
 40
1.0
 40
1.0
 40
1.0
 40
2.0
 40
2.0
 40
2.0
 40
3.0
 40
3.0
 40
3.0
 40
4.0
 40
4.0
 40
4.0
 40
5.0
 40
5.0
 40
5.0
 40
5.0
 10
54.74568619040656
 20
-61.26919304148657
 10
54.74568619040656
 20
-61.26919304148657
 10
49.0538962908522
 20
-65.98897385745863
 10
49.0538962908522
 20
-65.98897385745863
 10
49.0538962908522
 20
-65.98897385745863
 10
53.96069657607403
 20
-71.90469496360936
 10
53.96069657607403
 20
-71.90469496360936
 10
53.96069657607403
 20
-71.90469496360936
 10
59.6549472581155
 20
-67.18245336514724
 10
59.6549472581155
 20
-67.18245336514724
 10
61.44639691089469
 20
-65.69367995864945
 10
62.56605294387918
 20
-63.39038754793511
 10
60.70570138137918
 20
-61.14861469947323
 10
58.65833034963362
 20
-58.6829106444129
 10
56.14833220975197
 20
-60.10524292367847
 10
54.74568619040656
 20
-61.26919304148657
 97
        0
 92
       16
 93
        1
 72
     4
 94
        3
 73
     0
 74
     0
 95
       20
 96
       16
 40
0.0
 40
0.0
 40
0.0
 40
0.0
 40
1.0
 40
1.0
 40
1.0
 40
2.0
 40
2.0
 40
2.0
 40
3.0
 40
3.0
 40
3.0
 40
4.0
 40
4.0
 40
4.0
 40
5.0
 40
5.0
 40
5.0
 40
5.0
 10
52.53344273182847
 20
-53.0674050020524
 10
51.74353155250719
 20
-52.11262139590167
 10
49.99637598455411
 20
-50.86500467343069
 10
47.72507374621091
 20
-52.74996406083142
 10
47.72507374621091
 20
-52.74996406083142
 10
42.00621523926383
 20
-57.49435270170522
 10
42.00621523926383
 20
-57.49435270170522
 10
42.00621523926383
 20
-57.49435270170522
 10
46.44792763385703
 20
-62.84901540011708
 10
46.44792763385703
 20
-62.84901540011708
 10
46.44792763385703
 20
-62.84901540011708
 10
52.16924692329303
 20
-58.1046267592443
 10
52.16924692329303
 20
-58.1046267592443
 10
54.24368656243132
 20
-56.38207901618864
 10
53.53498120528637
 20
-54.27318842219086
 10
52.53344273182847
 20
-53.0674050020524
 97
        0
 75
     0
 76
     1
 98
        1
 10
-710.8849522954551
 20
-714.907159621347
450
        0
451
        0
460
0.0
461
0.0
452
        0
462
0.0
453
        2
463
0.0
 63
     5
421
      255
463
1.0
 63
    51
421
 16777113
470

  0
HATCH
  5
2A33B
330
2A337
100
AcDbEntity
  8
0
  6
ByBlock
 62
     0
370
     0
100
AcDbHatch
 10
0.0
 20
0.0
 30
0.0
210
0.0
220
0.0
230
1.0
  2
SOLID
 70
     1
 71
     0
 91
        2
 92
        1
 93
        8
 72
     1
 10
29.27658741808591
 20
-89.607564197241
 11
26.4663738144136
 21
-84.81642068905648
 72
     1
 10
26.46637381441542
 20
-84.8164206890557
 11
15.61678381565434
 21
-87.21322283439292
 72
     1
 10
15.61678381565434
 20
-87.21322283439281
 11
15.08279401530671
 21
-92.73767952462106
 72
     1
 10
15.08279401530854
 20
-92.73767952462153
 11
8.465749899487491
 21
-94.19938432372862
 72
     1
 10
8.465749899482034
 20
-94.19938432372871
 11
12.41776657855007
 21
-63.9292989132624
 72
     1
 10
12.41776657855371
 20
-63.92929891326218
 11
19.5688004947242
 21
-62.35193733712117
 72
     1
 10
19.5688004947242
 20
-62.35193733712151
 11
35.89363153391059
 21
-88.14585939813332
 72
     1
 10
35.89363153391242
 20
-88.14585939813275
 11
29.27658741809138
 21
-89.60756419723988
 97
        0
 92
       16
 93
        3
 72
     1
 10
16.05726388137918
 20
-82.45160871608936
 11
24.02773836674715
 21
-80.69214923568257
 72
     1
 10
24.02773836674533
 20
-80.6921492356829
 11
17.30980216882744
 21
-69.19291265954223
 72
     1
 10
17.3098021688329
 20
-69.19291265954234
 11
16.05726388138282
 21
-82.45160871608993
 97
        0
 75
     0
 76
     1
 98
        1
 10
-710.8849522954551
 20
-714.907159621347
450
        0
451
        0
460
0.0
461
0.0
452
        0
462
0.0
453
        2
463
0.0
 63
     5
421
      255
463
1.0
 63
    51
421
 16777113
470

  0
HATCH
  5
2A33C
330
2A337
100
AcDbEntity
  8
0
  6
ByBlock
 62
     0
370
     0
100
AcDbHatch
 10
0.0
 20
0.0
 30
0.0
210
0.0
220
0.0
230
1.0
  2
SOLID
 70
     1
 71
     0
 91
        1
 92
        3
 72
     0
 73
     1
 93
        8
 10
-27.98459073481536
 20
-65.15722937581142
 10
-18.55610262407571
 20
-67.39408065929457
 10
-23.94767705984123
 20
-90.11202460770642
 10
-17.53118671696029
 20
-91.63524896906585
 10
-12.14084267243743
 20
-68.91730502065297
 10
-2.712354561701431
 20
-71.15169552164501
 10
-1.477041751681099
 20
-65.93975820765741
 10
-26.74927792479503
 20
-59.94529206182358
 97
        0
 75
     2
 76
     1
 98
        1
 10
0.5032729572103563
 20
0.406628898618351
450
        0
451
        0
460
0.0
461
0.0
452
        0
462
0.0
453
        0
470

  0
HATCH
  5
2A33D
330
2A337
100
AcDbEntity
  8
0
  6
ByBlock
 62
     0
370
     0
100
AcDbHatch
 10
0.0
 20
0.0
 30
0.0
210
0.0
220
0.0
230
1.0
  2
SOLID
 70
     1
 71
     0
 91
        1
 92
        1
 93
        1
 72
     4
 94
        3
 73
     0
 74
     0
 95
       35
 96
       31
 40
0.0
 40
0.0
 40
0.0
 40
0.0
 40
1.0
 40
1.0
 40
1.0
 40
2.0
 40
2.0
 40
2.0
 40
3.0
 40
3.0
 40
3.0
 40
4.0
 40
4.0
 40
4.0
 40
5.0
 40
5.0
 40
5.0
 40
6.0
 40
6.0
 40
6.0
 40
7.0
 40
7.0
 40
7.0
 40
8.0
 40
8.0
 40
8.0
 40
9.0
 40
9.0
 40
9.0
 40
10.0
 40
10.0
 40
10.0
 40
10.0
 10
-47.53304683600435
 20
-67.45560022154575
 10
-49.14485936701203
 20
-69.33809882645642
 10
-52.52351372588782
 20
-71.09509752437372
 10
-56.78189782497248
 20
-67.44575709158586
 10
-59.10610688684936
 20
-65.45252327462151
 10
-61.03412996782572
 20
-61.87946709902667
 10
-58.0701174585265
 20
-58.42206770046436
 10
-58.0701174585265
 20
-58.42206770046436
 10
-46.33464576333972
 20
-44.73273470815296
 10
-46.33464576333972
 20
-44.73273470815296
 10
-46.33464576333972
 20
-44.73273470815296
 10
-51.31280874076947
 20
-40.46573787035595
 10
-51.31280874076947
 20
-40.46573787035595
 10
-51.31280874076947
 20
-40.46573787035595
 10
-62.78743749200839
 20
-53.85239461638718
 10
-62.78743749200839
 20
-53.85239461638718
 10
-68.92832019600246
 20
-61.01573244500776
 10
-64.98491625565112
 20
-67.60816873593069
 10
-60.17285609629652
 20
-71.73490097179457
 10
-54.116870388214
 20
-76.92715202586156
 10
-47.48998314242816
 20
-77.42669087134824
 10
-42.32110952201765
 20
-71.39777377065297
 10
-42.32110952201765
 20
-71.39777377065297
 10
-30.84771116202137
 20
-58.00865624213168
 10
-30.84771116202137
 20
-58.00865624213168
 10
-30.84771116202137
 20
-58.00865624213168
 10
-35.79757514081939
 20
-53.7638064467443
 10
-35.79757514081939
 20
-53.7638064467443
 10
-35.79757514081939
 20
-53.7638064467443
 10
-47.53304683600435
 20
-67.45560022154575
 10
-47.53304683600435
 20
-67.45560022154575
 97
        0
 75
     2
 76
     1
 98
        1
 10
0.5032729572103563
 20
0.406628898618351
450
        0
451
        0
460
0.0
461
0.0
452
        0
462
0.0
453
        0
470

  0
HATCH
  5
2A33E
330
2A337
100
AcDbEntity
  8
0
  6
ByBlock
 62
     0
370
     0
100
AcDbHatch
 10
0.0
 20
0.0
 30
0.0
210
0.0
220
0.0
230
1.0
  2
SOLID
 70
     1
 71
     0
 91
        1
 92
        3
 72
     0
 73
     1
 93
       10
 10
-65.75760195753173
 20
-23.80377963002798
 10
-59.4653811304015
 20
-37.10923055388719
 10
-54.625021972417
 20
-34.82070283811367
 10
-63.71884366450466
 20
-15.58722689565297
 10
-89.67025580488188
 20
-27.85914917367847
 10
-86.86742454868181
 20
-33.78717419228019
 10
-76.69085856095444
 20
-28.97388364168513
 10
-71.2709851265554
 20
-40.43620848047431
 10
-66.59549839540523
 20
-38.22642580438389
 10
-72.01414143855981
 20
-26.7641009655938
 97
        0
 75
     2
 76
     1
 98
        1
 10
0.5032729572103563
 20
0.406628898618351
450
        0
451
        0
460
0.0
461
0.0
452
        0
462
0.0
453
        0
470

  0
HATCH
  5
2A33F
330
2A337
100
AcDbEntity
  8
0
  6
ByBlock
 62
     0
370
     0
100
AcDbHatch
 10
0.0
 20
0.0
 30
0.0
210
0.0
220
0.0
230
1.0
  2
SOLID
 70
     1
 71
     0
 91
        1
 92
        1
 93
        1
 72
     4
 94
        3
 73
     0
 74
     0
 95
       41
 96
       37
 40
0.0
 40
0.0
 40
0.0
 40
0.0
 40
1.0
 40
1.0
 40
1.0
 40
2.0
 40
2.0
 40
2.0
 40
3.0
 40
3.0
 40
3.0
 40
4.0
 40
4.0
 40
4.0
 40
5.0
 40
5.0
 40
5.0
 40
6.0
 40
6.0
 40
6.0
 40
7.0
 40
7.0
 40
7.0
 40
8.0
 40
8.0
 40
8.0
 40
9.0
 40
9.0
 40
9.0
 40
10.0
 40
10.0
 40
10.0
 40
11.0
 40
11.0
 40
11.0
 40
12.0
 40
12.0
 40
12.0
 40
12.0
 10
92.32675637890135
 20
2.068887470666368
 10
92.54330523802854
 20
7.006447537010218
 10
89.35905269586148
 20
26.5672075506518
 10
84.30214467875158
 20
36.93694496384592
 10
76.89026781863322
 20
52.12858566635055
 10
62.69155285087435
 20
70.84283650340399
 10
52.19385474819318
 20
75.56753888435719
 10
48.08926955474088
 20
77.41312575191637
 10
46.59803536575418
 20
75.9440386053393
 10
45.61618315221675
 20
74.22395164477348
 10
19.70168274918797
 20
28.8926470037768
 10
7.653691677754977
 20
10.01967569611281
 10
4.907458418832902
 20
6.840344718929713
 10
2.550028793333693
 20
4.111336937431928
 10
0.0105012635740423
 20
3.701616652833763
 10
-2.743114342827538
 20
6.584423339962085
 10
-6.052866791986161
 20
10.05043547723892
 10
-41.08456632075466
 20
76.38697945355364
 10
-41.08456632075466
 20
76.38697945355364
 10
-42.52904564242817
 20
78.57584547847887
 10
-44.38693642243925
 20
79.73118285757151
 10
-47.64993400429012
 20
78.32730644698108
 10
-57.16701028466559
 20
74.23256438348892
 10
-70.94493144662009
 20
59.53431057024443
 10
-78.35311713300507
 20
47.83328982991746
 10
-80.90248779272588
 20
43.80621928490177
 10
-91.01876460944367
 20
21.83266203973892
 10
-90.9178725273523
 20
8.621951241747751
 10
-90.89326470245032
 20
5.213767492987813
 10
-90.38757390073625
 20
1.616103492491106
 10
-82.51183954123915
 20
-0.4386498867243064
 10
-82.51183954123915
 20
-0.4386498867243064
 10
87.31168166411769
 20
-2.195648584640593
 10
87.31168166411769
 20
-2.195648584640593
 10
89.73309163435443
 20
-1.89297233836146
 10
92.17418786451526
 20
-1.453722663881649
 10
92.32675637890135
 20
2.068887470666368
 97
        0
 75
     2
 76
     1
 98
        1
 10
0.5032729572103563
 20
0.406628898618351
450
        0
451
        0
460
0.0
461
0.0
452
        0
462
0.0
453
        0
470

  0
CIRCLE
  5
2A340
330
2A337
100
AcDbEntity
  8
0
  6
ByBlock
 62
     0
370
    -2
100
AcDbCircle
 10
0.0
 20
0.0
 30
0.0
 40
103.5714285714286
  0
ENDBLK
  5
2A341
330
2A337
100
AcDbEntity
  8
0
100
AcDbBlockEnd
  0
BLOCK
  5
2A4B1
330
2A4B0
100
AcDbEntity
  8
0
100
AcDbBlockBegin
  2
_Open30
 70
     0
 10
0.0
 20
0.0
 30
0.0
  3
_Open30
  1

  0
LINE
  5
2A4B2
330
2A4B0
100
AcDbEntity
  8
0
  6
ByBlock
 62
     0
370
    -2
100
AcDbLine
 10
-1.0
 20
0.26794919
 30
0.0
 11
0.0
 21
0.0
 31
0.0
  0
LINE
  5
2A4B3
330
2A4B0
100
AcDbEntity
  8
0
  6
ByBlock
 62
     0
370
    -2
100
AcDbLine
 10
0.0
 20
0.0
 30
0.0
 11
-1.0
 21
-0.26794919
 31
0.0
  0
LINE
  5
2A4B4
330
2A4B0
100
AcDbEntity
  8
0
  6
ByBlock
 62
     0
370
    -2
100
AcDbLine
 10
0.0
 20
0.0
 30
0.0
 11
-1.0
 21
0.0
 31
0.0
  0
ENDBLK
  5
2A4B5
330
2A4B0
100
AcDbEntity
  8
0
100
AcDbBlockEnd
  0
BLOCK
  5
2A9DB
330
2A9D1
100
AcDbEntity
  8
0
100
AcDbBlockBegin
  2
*D68
 70
     1
 10
0.0
 20
0.0
 30
0.0
  3
*D68
  1

  0
LINE
  5
2ACAE
330
2A9D1
100
AcDbEntity
  8
sunpo
 62
     3
370
     9
100
AcDbLine
 10
649.9991727421035
 20
280.2981386218926
 30
0.0
 11
649.9991727421035
 21
311.0199622791147
 31
0.0
  0
LINE
  5
2ACAF
330
2A9D1
100
AcDbEntity
  8
sunpo
 62
     3
370
     9
100
AcDbLine
 10
289.9991727421043
 20
280.2981386218899
 30
0.0
 11
289.9991727421043
 21
311.0199622791147
 31
0.0
  0
LINE
  5
2ACB0
330
2A9D1
100
AcDbEntity
  8
sunpo
 62
     3
370
     9
100
AcDbLine
 10
649.9991727421035
 20
309.0199622791147
 30
0.0
 11
289.9991727421043
 21
309.0199622791147
 31
0.0
  0
INSERT
  5
2ACB1
330
2A9D1
100
AcDbEntity
  8
sunpo
 62
     3
370
     9
100
AcDbBlockReference
  2
_DotSmall
 10
649.9991727421035
 20
309.0199622791147
 30
0.0
 41
6.0
 42
6.0
 43
6.0
  0
INSERT
  5
2ACB2
330
2A9D1
100
AcDbEntity
  8
sunpo
 62
     3
370
     9
100
AcDbBlockReference
  2
_DotSmall
 10
289.9991727421043
 20
309.0199622791147
 30
0.0
 41
6.0
 42
6.0
 43
6.0
 50
180.0
  0
MTEXT
  5
2ACB3
330
2A9D1
100
AcDbEntity
  8
sunpo
 62
     2
100
AcDbMText
 10
469.9991727421039
 20
313.2199622791147
 30
0.0
 40
6.0
 41
0.0
 71
     5
 72
     1
  1
W
  7
Std
 73
     1
 44
1.0
  0
POINT
  5
2ACB4
330
2A9D1
100
AcDbEntity
  8
Defpoints
 62
     0
100
AcDbPoint
 10
649.9991727421035
 20
276.2981386218926
 30
0.0
  0
POINT
  5
2ACB5
330
2A9D1
100
AcDbEntity
  8
Defpoints
 62
     0
100
AcDbPoint
 10
289.9991727421043
 20
276.2981386218898
 30
0.0
  0
POINT
  5
2ACB6
330
2A9D1
100
AcDbEntity
  8
Defpoints
 62
     0
100
AcDbPoint
 10
289.9991727421043
 20
309.0199622791147
 30
0.0
  0
ENDBLK
  5
2A9DC
330
2A9D1
100
AcDbEntity
  8
0
100
AcDbBlockEnd
  0
BLOCK
  5
2A9E7
330
2A9DD
100
AcDbEntity
  8
0
100
AcDbBlockBegin
  2
*D69
 70
     1
 10
0.0
 20
0.0
 30
0.0
  3
*D69
  1

  0
LINE
  5
2ACA5
330
2A9DD
100
AcDbEntity
  8
sunpo
 62
     3
370
     9
100
AcDbLine
 10
298.0991727420963
 20
167.298138621891
 30
0.0
 11
321.8209963993211
 21
167.2981386218909
 31
0.0
  0
LINE
  5
2ACA6
330
2A9DD
100
AcDbEntity
  8
sunpo
 62
     3
370
     9
100
AcDbLine
 10
298.0991727420963
 20
287.298138621891
 30
0.0
 11
321.8209963993211
 21
287.298138621891
 31
0.0
  0
LINE
  5
2ACA7
330
2A9DD
100
AcDbEntity
  8
sunpo
 62
     3
370
     9
100
AcDbLine
 10
319.8209963993211
 20
167.298138621891
 30
0.0
 11
319.8209963993211
 21
287.298138621891
 31
0.0
  0
INSERT
  5
2ACA8
330
2A9DD
100
AcDbEntity
  8
sunpo
 62
     3
370
     9
100
AcDbBlockReference
  2
_DotSmall
 10
319.8209963993211
 20
167.298138621891
 30
0.0
 41
6.0
 42
6.0
 43
6.0
 50
270.0
  0
INSERT
  5
2ACA9
330
2A9DD
100
AcDbEntity
  8
sunpo
 62
     3
370
     9
100
AcDbBlockReference
  2
_DotSmall
 10
319.8209963993211
 20
287.298138621891
 30
0.0
 41
6.0
 42
6.0
 43
6.0
 50
90.0
  0
MTEXT
  5
2ACAA
330
2A9DD
100
AcDbEntity
  8
sunpo
 62
     2
100
AcDbMText
 10
315.620996399321
 20
227.298138621891
 30
0.0
 40
6.0
 41
0.0
 71
     5
 72
     1
  1
H
  7
Std
 11
0.0000000000000001
 21
1.0
 31
0.0
 73
     1
 44
1.0
  0
POINT
  5
2ACAB
330
2A9DD
100
AcDbEntity
  8
Defpoints
 62
     0
100
AcDbPoint
 10
294.0991727420963
 20
167.298138621891
 30
0.0
  0
POINT
  5
2ACAC
330
2A9DD
100
AcDbEntity
  8
Defpoints
 62
     0
100
AcDbPoint
 10
294.0991727420963
 20
287.298138621891
 30
0.0
  0
POINT
  5
2ACAD
330
2A9DD
100
AcDbEntity
  8
Defpoints
 62
     0
100
AcDbPoint
 10
319.8209963993211
 20
287.298138621891
 30
0.0
  0
ENDBLK
  5
2A9E8
330
2A9DD
100
AcDbEntity
  8
0
100
AcDbBlockEnd
  0
ENDSEC
  0
SECTION
  2
ENTITIES
  0
LWPOLYLINE
  5
26C4A
330
1F
100
AcDbEntity
  8
hojo
100
AcDbPolyline
 90
        4
 70
     1
 43
0.0
 10
0.0
 20
0.0000000000004547
 10
1188.0
 20
0.0000000000004547
 10
1188.0
 20
840.0000000000003
 10
0.0
 20
840.0000000000003
  0
TEXT
  5
26C51
330
1F
100
AcDbEntity
  8
hojo
100
AcDbText
 10
4.874124167624396
 20
3.038995724530423
 30
0.0
 40
14.28571428571429
  1
A2-1:2
 41
0.8
  7
Std
100
AcDbText
  0
LINE
  5
28729
330
1F
100
AcDbEntity
  8
sunpo
100
AcDbLine
 10
686.8824078005746
 20
502.7852189007743
 30
0.0
 11
747.6287999999881
 21
502.7852189007743
 31
0.0
  0
TEXT
  5
2872A
330
1F
100
AcDbEntity
  8
sunpo
100
AcDbText
 10
688.0448536202655
 20
513.2852189007743
 30
0.0
 40
5.0
  1
ステンレス丸皿ビス
 41
0.75
  7
Std
100
AcDbText
  0
TEXT
  5
2872B
330
1F
100
AcDbEntity
  8
sunpo
100
AcDbText
 10
688.0448536202641
 20
504.2852189007744
 30
0.0
 40
5.0
  1
 %%c3.1x22 @300以内
 41
0.75
  7
Std
100
AcDbText
  0
LINE
  5
2872D
330
1F
100
AcDbEntity
  8
saisen
100
AcDbLine
 10
409.7940956191401
 20
367.7046442680557
 30
0.0
 11
409.7940956191401
 21
354.0577864897132
 31
0.0
  0
LINE
  5
2872E
330
1F
100
AcDbEntity
  8
saisen
100
AcDbLine
 10
409.2940956191402
 20
367.2046442680557
 30
0.0
 11
409.2940956191402
 21
354.5577864897132
 31
0.0
  0
LINE
  5
2872F
330
1F
100
AcDbEntity
  8
saisen
100
AcDbLine
 10
353.4968127928321
 20
354.5577864897132
 30
0.0
 11
353.4968127928321
 21
367.2046442680557
 31
0.0
  0
LINE
  5
28730
330
1F
100
AcDbEntity
  8
saisen
100
AcDbLine
 10
352.9968127928321
 20
354.0577864897132
 30
0.0
 11
352.9968127928321
 21
367.7046442680557
 31
0.0
  0
TEXT
  5
28731
330
1F
100
AcDbEntity
  8
sunpo
100
AcDbText
 10
162.4523870764781
 20
302.4013296831308
 30
0.0
 40
5.0
  1
コーナーキャップ（樹脂）
  7
Std
100
AcDbText
  0
DIMENSION
  5
28732
330
1F
100
AcDbEntity
  8
sunpo
100
AcDbDimension
  2
*D6
 10
101.2347602267468
 20
300.9013296831183
 30
0.0
 11
123.2347602267468
 21
304.6513296831183
 31
0.0
 70
    32
  1
<>
 71
     5
 42
43.99999999999997
  3
寸法線
100
AcDbAlignedDimension
 13
145.2347602267468
 23
270.9013296831183
 33
0.0
 14
101.2347602267468
 24
270.9013296831183
 34
0.0
 50
180.0
100
AcDbRotatedDimension
1001
ACAD
1000
DSTYLE
1002
{
1070
   140
1040
2.5
1002
}
  0
LINE
  5
28733
330
1F
100
AcDbEntity
  8
0
100
AcDbLine
 10
124.2347602267468
 20
171.9013296831183
 30
0.0
 11
124.2347602267468
 21
221.9013296831183
 31
0.0
  0
LINE
  5
28734
330
1F
100
AcDbEntity
  8
0
100
AcDbLine
 10
104.2347602267468
 20
171.9013296831183
 30
0.0
 11
104.2347602267468
 21
221.9013296831183
 31
0.0
  0
TEXT
  5
28735
330
1F
100
AcDbEntity
  8
moji
100
AcDbText
 10
94.08190443637938
 20
159.9525406262164
 30
0.0
 40
6.0
  1
コーナーキャップ　詳細図
  7
Std
 72
     1
 11
136.6819044363794
 21
159.9525406262164
 31
0.0
100
AcDbText
  0
LINE
  5
28736
330
1F
100
AcDbEntity
  8
0
100
AcDbLine
 10
84.84190443637954
 20
157.9525406262164
 30
0.0
 11
188.5219044363796
 21
157.9525406262164
 31
0.0
  0
DIMENSION
  5
28737
330
1F
100
AcDbEntity
  8
sunpo
100
AcDbDimension
  2
*D7
 10
101.2347602267468
 20
186.9013296831183
 30
0.0
 11
90.73476022674682
 21
190.6513296831183
 31
0.0
 70
    32
  1
<>
 71
     5
 42
2.999999999997271
  3
寸法線
100
AcDbAlignedDimension
 13
104.2347602267441
 23
186.9013296831183
 33
0.0
 14
101.2347602267468
 24
216.9013296831183
 34
0.0
100
AcDbRotatedDimension
1001
ACAD
1000
DSTYLE
1002
{
1070
   140
1040
2.5
1002
}
  0
DIMENSION
  5
28738
330
1F
100
AcDbEntity
  8
sunpo
100
AcDbDimension
  2
*D8
 10
124.2347602267468
 20
186.9013296831183
 30
0.0
 11
114.2347602267468
 21
190.6513296831183
 31
0.0
 70
    32
  1
<>
 71
     5
 42
19.99999999999997
  3
寸法線
100
AcDbAlignedDimension
 13
104.2347602267468
 23
186.9013296831183
 33
0.0
 14
124.2347602267468
 24
186.9013296831183
 34
0.0
100
AcDbRotatedDimension
1001
ACAD
1000
DSTYLE
1002
{
1070
   140
1040
2.5
1002
}
  0
INSERT
  5
28739
330
1F
100
AcDbEntity
  8
sunpo
100
AcDbBlockReference
  2
ARRI
 10
103.5779059772587
 20
263.558183932608
 30
0.0
 41
-4.599999999999936
 42
4.599999999999909
 43
4.599999999999998
 50
314.9999999999999
  0
DIMENSION
  5
2873A
330
1F
100
AcDbEntity
  8
sunpo
100
AcDbDimension
  2
*D9
 10
66.23476022674683
 20
265.9013296831183
 30
0.0
 11
62.48476022674679
 21
243.9013296831183
 31
0.0
 70
    32
  1
<>
 71
     5
 42
43.99999999999997
  3
寸法線
100
AcDbAlignedDimension
 13
96.23476022674683
 23
221.9013296831183
 33
0.0
 14
96.23476022674683
 24
265.9013296831183
 34
0.0
 50
270.0
100
AcDbRotatedDimension
1001
ACAD
1000
DSTYLE
1002
{
1070
   140
1040
2.5
1002
}
  0
LINE
  5
2873B
330
1F
100
AcDbEntity
  8
0
100
AcDbLine
 10
195.2347602267468
 20
262.9013296831183
 30
0.0
 11
145.2347602267468
 21
262.9013296831183
 31
0.0
  0
LINE
  5
2873C
330
1F
100
AcDbEntity
  8
0
100
AcDbLine
 10
195.2347602267468
 20
242.9013296831183
 30
0.0
 11
145.2347602267468
 21
242.9013296831183
 31
0.0
  0
DIMENSION
  5
2873D
330
1F
100
AcDbEntity
  8
sunpo
100
AcDbDimension
  2
*D10
 10
180.2347602267468
 20
265.9013296831183
 30
0.0
 11
176.4847602267467
 21
276.4013296831184
 31
0.0
 70
    32
  1
<>
 71
     5
 42
2.999999999997044
  3
寸法線
100
AcDbAlignedDimension
 13
180.2347602267468
 23
262.9013296831213
 33
0.0
 14
150.2347602267468
 24
265.9013296831183
 34
0.0
 50
90.0
100
AcDbRotatedDimension
1001
ACAD
1000
DSTYLE
1002
{
1070
   140
1040
2.5
1002
}
  0
LINE
  5
2873E
330
1F
100
AcDbEntity
  8
sunpo
100
AcDbLine
 10
118.3468754457028
 20
248.7892144641637
 30
0.0
 11
106.8305971707155
 21
260.3054927391515
 31
0.0
  0
TEXT
  5
2873F
330
1F
100
AcDbEntity
  8
sunpo
100
AcDbText
 10
113.0729697437452
 20
256.1844405096815
 30
0.0
 40
5.0
  1
R8
 50
315.0000000000088
  7
Std
100
AcDbText
  0
DIMENSION
  5
28740
330
1F
100
AcDbEntity
  8
sunpo
100
AcDbDimension
  2
*D11
 10
180.2347602267468
 20
242.9013296831183
 30
0.0
 11
176.4847602267467
 21
252.9013296831184
 31
0.0
 70
    32
  1
<>
 71
     5
 42
20.00000000000003
  3
寸法線
100
AcDbAlignedDimension
 13
180.2347602267468
 23
262.9013296831183
 33
0.0
 14
180.2347602267468
 24
242.9013296831183
 34
0.0
 50
90.0
100
AcDbRotatedDimension
1001
ACAD
1000
DSTYLE
1002
{
1070
   140
1040
2.5
1002
}
  0
LINE
  5
28741
330
1F
100
AcDbEntity
  8
saisen
100
AcDbLine
 10
409.2940956191402
 20
354.5577864897132
 30
0.0
 11
353.4968127928321
 21
354.5577864897132
 31
0.0
  0
LINE
  5
28742
330
1F
100
AcDbEntity
  8
saisen
100
AcDbLine
 10
409.7940956191401
 20
354.0577864897132
 30
0.0
 11
352.9968127928321
 21
354.0577864897132
 31
0.0
  0
DIMENSION
  5
28743
330
1F
100
AcDbEntity
  8
sunpo
100
AcDbDimension
  2
*D12
 10
209.9925324587278
 20
443.6876383388833
 30
0.0
 11
209.8509920977803
 21
486.399375507035
 31
0.0
 70
    33
 71
     5
 42
85.00000060223639
  3
寸法線
100
AcDbAlignedDimension
 13
199.2650808626545
 23
528.0317068003588
 33
0.0
 14
208.0031284826939
 24
443.4820372198684
 34
0.0
  0
ARC
  5
28744
330
1F
100
AcDbEntity
  8
saisen
100
AcDbCircle
 10
1932.777860924107
 20
-16226.04645029365
 30
0.0
 40
16873.52105269772
100
AcDbArc
 50
95.63463418038368
 51
96.01847385772378
  0
ARC
  5
28745
330
1F
100
AcDbEntity
  8
0
100
AcDbCircle
 10
1932.777860924107
 20
-16226.04645029365
 30
0.0
 40
16843.52105269711
100
AcDbArc
 50
95.64470259519008
 51
96.12033596046154
  0
ARC
  5
28746
330
1F
100
AcDbEntity
  8
0
100
AcDbCircle
 10
1932.777860924107
 20
-16226.04645029365
 30
0.0
 40
16768.52105269713
100
AcDbArc
 50
95.67003202057632
 51
95.99218817767619
  0
ARC
  5
28747
330
1F
100
AcDbEntity
  8
0
100
AcDbCircle
 10
1932.777860924107
 20
-16226.04645029365
 30
0.0
 40
16758.52105269713
100
AcDbArc
 50
95.67342649126592
 51
95.99210968050066
  0
ARC
  5
28748
330
1F
100
AcDbEntity
  8
0
100
AcDbCircle
 10
1932.777860924107
 20
-16226.04645029365
 30
0.0
 40
16838.52105269711
100
AcDbArc
 50
95.6463841693468
 51
95.99273504734716
  0
ARC
  5
28749
330
1F
100
AcDbEntity
  8
0
100
AcDbCircle
 10
1932.777860924107
 20
-16226.04645029365
 30
0.0
 40
16849.42105269711
100
AcDbArc
 50
95.64271962759722
 51
96.12033715158531
  0
ARC
  5
2874A
330
1F
100
AcDbEntity
  8
0
100
AcDbCircle
 10
1932.777860924107
 20
-16226.04645029365
 30
0.0
 40
16843.92105269711
100
AcDbArc
 50
95.6445681126036
 51
96.12033604124965
  0
LINE
  5
2874C
330
1F
100
AcDbEntity
  8
0
100
AcDbLine
 10
276.0600139255426
 20
677.4746024047857
 30
0.0
 11
167.7778609217798
 21
677.4746024046327
 31
0.0
  0
LINE
  5
2874D
330
1F
100
AcDbEntity
  8
hasen
100
AcDbLine
 10
167.7778609217798
 20
675.4746024046207
 30
0.0
 11
276.0600139255426
 21
675.4746024046207
 31
0.0
  0
LINE
  5
2874E
330
1F
100
AcDbEntity
  8
hasen
100
AcDbLine
 10
167.7778609217798
 20
648.9746024044848
 30
0.0
 11
276.0600139255426
 21
648.9746024044783
 31
0.0
  0
DIMENSION
  5
2874F
330
1F
100
AcDbEntity
  8
sunpo
100
AcDbDimension
  2
*D13
 10
132.7778609218339
 20
397.7046442680558
 30
0.0
 11
403.560013925539
 21
401.9546442680557
 31
0.0
 70
    32
  1
W
 71
     5
 42
541.5643060074103
  3
寸法線
100
AcDbAlignedDimension
 13
674.3421669292443
 23
484.3748190441133
 33
0.0
 14
132.7778609218339
 24
484.3748190441133
 34
0.0
100
AcDbRotatedDimension
  0
LINE
  5
28750
330
1F
100
AcDbEntity
  8
0
100
AcDbLine
 10
167.7778609217798
 20
647.4746024044848
 30
0.0
 11
276.0600139255426
 21
647.4746024044783
 31
0.0
  0
TEXT
  5
28751
330
1F
100
AcDbEntity
  8
sunpo
100
AcDbText
 10
177.9036063373835
 20
714.472963790503
 30
0.0
 40
5.0
  1
アルミ製 捨枠
  7
dim
100
AcDbText
  0
LINE
  5
28752
330
1F
100
AcDbEntity
  8
0
100
AcDbLine
 10
144.7778609217798
 20
559.474602404625
 30
0.0
 11
144.7778609217798
 21
675.4746024046207
 31
0.0
  0
LINE
  5
28753
330
1F
100
AcDbEntity
  8
0
100
AcDbLine
 10
165.7778609217798
 20
559.474602404621
 30
0.0
 11
165.7778609217796
 21
675.4746024046207
 31
0.0
  0
DIMENSION
  5
28754
330
1F
100
AcDbEntity
  8
sunpo
100
AcDbDimension
  2
*D14
 10
112.1841140941796
 20
552.4746024046208
 30
0.0
 11
112.1841140941796
 21
606.5273872102355
 31
0.0
 70
   160
  1
<>
 71
     5
 42
124.9999999999998
  3
寸法線
100
AcDbAlignedDimension
 13
142.7778609217798
 23
677.4746024046208
 33
0.0
 14
142.7778609217798
 24
552.4746024046208
 34
0.0
 50
90.0
100
AcDbRotatedDimension
1001
ACAD
1000
DSTYLE
1002
{
1070
   271
1070
     0
1002
}
  0
LINE
  5
28755
330
1F
100
AcDbEntity
  8
0
100
AcDbLine
 10
167.7778609217798
 20
557.4746024046207
 30
0.0
 11
167.7778609217798
 21
677.4746024046208
 31
0.0
  0
LINE
  5
28756
330
1F
100
AcDbEntity
  8
0
100
AcDbLine
 10
142.7778609217798
 20
552.4746024046208
 30
0.0
 11
142.7778609217798
 21
677.4746024046208
 31
0.0
  0
TEXT
  5
28757
330
1F
100
AcDbEntity
  8
moji
100
AcDbText
 10
148.6703053680888
 20
616.4906398616555
 30
0.0
 40
5.0
  1
アルミ
 41
0.8
  7
Std
 72
     4
 11
155.0703053680888
 21
618.9906398616556
 31
0.0
100
AcDbText
  0
LINE
  5
28758
330
1F
100
AcDbEntity
  8
0
100
AcDbLine
 10
174.2631478087155
 20
525.4259463766694
 30
0.0
 11
183.6472100639498
 21
437.9600323492073
 31
0.0
  0
LINE
  5
28759
330
1F
100
AcDbEntity
  8
0
100
AcDbLine
 10
158.8943491912614
 20
454.3049942189205
 30
0.0
 11
141.2391559349605
 21
515.3778691482018
 31
0.0
  0
LINE
  5
2875A
330
1F
100
AcDbEntity
  8
0
100
AcDbLine
 10
156.4163897784815
 20
441.2716924827462
 30
0.0
 11
135.1813614226325
 21
514.7279391558696
 31
0.0
  0
TEXT
  5
2875B
330
1F
100
AcDbEntity
  8
sunpo
100
AcDbText
 10
83.20001817881758
 20
450.3227770894278
 30
0.0
 40
5.0
  1
サイドキャップ
  7
dim
100
AcDbText
  0
ARC
  5
2875C
330
1F
100
AcDbEntity
  8
0
100
AcDbCircle
 10
162.2566738226242
 20
455.2769885981908
 30
0.0
 40
3.5
100
AcDbArc
 50
196.1237376114302
 51
276.1237376114362
  0
ARC
  5
2875D
330
1F
100
AcDbEntity
  8
0
100
AcDbCircle
 10
163.6213711314017
 20
443.354537581182
 30
0.0
 40
7.5
100
AcDbArc
 50
196.1237376114302
 51
276.1237376114362
  0
LINE
  5
2875E
330
1F
100
AcDbEntity
  8
0
100
AcDbLine
 10
183.6472100639498
 20
437.9600323492073
 30
0.0
 11
164.4214412506066
 21
435.8973338288117
 31
0.0
  0
LINE
  5
2875F
330
1F
100
AcDbEntity
  8
0
100
AcDbLine
 10
181.9403938096457
 20
453.8687336875956
 30
0.0
 11
162.6300398782532
 21
451.796960180418
 31
0.0
  0
LINE
  5
28760
330
1F
100
AcDbEntity
  8
sunpo
100
AcDbLine
 10
69.49122790393175
 20
502.7852184218748
 30
0.0
 11
120.2376201033451
 21
502.7852184218748
 31
0.0
  0
TEXT
  5
28761
330
1F
100
AcDbEntity
  8
sunpo
100
AcDbText
 10
70.65367372362107
 20
504.2852184218746
 30
0.0
 40
5.0
  1
 %%c3.1x22 @300以内
 41
0.75
  7
Std
100
AcDbText
  0
TEXT
  5
28762
330
1F
100
AcDbEntity
  8
sunpo
100
AcDbText
 10
70.65367372362243
 20
513.2852184218746
 30
0.0
 40
5.0
  1
ステンレス丸皿ビス
 41
0.75
  7
dim
100
AcDbText
  0
DIMENSION
  5
28763
330
1F
100
AcDbEntity
  8
sunpo
100
AcDbDimension
  2
*D15
 10
201.2544848386891
 20
528.2373079193737
 30
0.0
 11
203.939959884268
 21
543.5947402228338
 31
0.0
 70
    33
 71
     5
 42
30.00000021171911
  3
寸法線
100
AcDbAlignedDimension
 13
196.1810640556675
 23
557.8727666514662
 33
0.0
 14
199.2650808626545
 24
528.0317068003588
 34
0.0
  0
ARC
  5
28764
330
1F
100
AcDbEntity
  8
0
100
AcDbCircle
 10
1932.777860924107
 20
-16226.04645029365
 30
0.0
 40
16873.52105269772
100
AcDbArc
 50
96.01847385772378
 51
96.12373761142187
  0
LINE
  5
28765
330
1F
100
AcDbEntity
  8
0
100
AcDbLine
 10
163.6009697648355
 20
554.4984408480302
 30
0.0
 11
166.1749038624953
 21
530.5076048566498
 31
0.0
  0
DIMENSION
  5
28766
330
1F
100
AcDbEntity
  8
sunpo
100
AcDbDimension
  2
*D16
 10
142.7778609217716
 20
564.2006251565971
 30
0.0
 11
137.7778609217394
 21
568.4506251565972
 31
0.0
 70
    32
  1
<>
 71
     5
 42
10.00000000006457
  3
寸法線
100
AcDbAlignedDimension
 13
132.7778609217071
 23
551.1914843553214
 33
0.0
 14
142.7778609217716
 24
564.2006251565971
 34
0.0
100
AcDbRotatedDimension
  0
LINE
  5
28767
330
1F
100
AcDbEntity
  8
0
100
AcDbLine
 10
144.7778609217798
 20
552.4746024046205
 30
0.0
 11
144.7778609217798
 21
557.4746024046207
 31
0.0
  0
LINE
  5
28768
330
1F
100
AcDbEntity
  8
saisen
100
AcDbLine
 10
133.7721579164044
 20
551.2981309080735
 30
0.0
 11
166.1749038624953
 21
530.5076048566498
 31
0.0
  0
LINE
  5
28769
330
1F
100
AcDbEntity
  8
0
100
AcDbLine
 10
174.9531147686039
 20
518.9949797916254
 30
0.0
 11
135.1813614226325
 21
514.7279391558702
 31
0.0
  0
LINE
  5
2876A
330
1F
100
AcDbEntity
  8
0
100
AcDbLine
 10
131.2864201712332
 20
551.0314703314808
 30
0.0
 11
135.1813614226325
 21
514.7279391558702
 31
0.0
  0
LINE
  5
2876B
330
1F
100
AcDbEntity
  8
0
100
AcDbLine
 10
132.7778609217071
 20
551.1914843553214
 30
0.0
 11
136.406112133372
 21
517.3736877638344
 31
0.0
  0
LINE
  5
2876C
330
1F
100
AcDbEntity
  8
0
100
AcDbLine
 10
137.0803779193388
 20
520.4632452806743
 30
0.0
 11
137.3470679590727
 21
517.9775106965531
 31
0.0
  0
LINE
  5
2876D
330
1F
100
AcDbEntity
  8
0
100
AcDbLine
 10
154.9776634203476
 20
522.3834131907531
 30
0.0
 11
155.2443534600811
 21
519.8976786066307
 31
0.0
  0
LINE
  5
2876E
330
1F
100
AcDbEntity
  8
0
100
AcDbLine
 10
155.8652812381024
 20
523.4843830402979
 30
0.0
 11
156.2919853016778
 21
519.5072077057009
 31
0.0
  0
LINE
  5
2876F
330
1F
100
AcDbEntity
  8
0
100
AcDbLine
 10
157.3567219885763
 20
523.6443970641387
 30
0.0
 11
158.0501160918866
 21
517.1814871454187
 31
0.0
  0
DIMENSION
  5
28770
330
1F
100
AcDbEntity
  8
sunpo
100
AcDbDimension
  2
*D17
 10
159.0655617149181
 20
493.6555680308206
 30
0.0
 11
148.6692520632163
 21
496.8145568528968
 31
0.0
 70
    33
 71
     5
 42
19.99999647520684
  3
寸法線
100
AcDbAlignedDimension
 13
136.406112133372
 23
517.3736877638344
 33
0.0
 14
156.2919853016778
 24
519.5072077057009
 34
0.0
  0
LINE
  5
28771
330
1F
100
AcDbEntity
  8
0
100
AcDbLine
 10
154.8005445512035
 20
519.3471936818593
 30
0.0
 11
137.8975528838441
 21
517.5337017876756
 31
0.0
  0
LINE
  5
28772
330
1F
100
AcDbEntity
  8
0
100
AcDbLine
 10
155.4043674839222
 20
518.4062378561576
 30
0.0
 11
137.5070819829152
 21
516.4860699460787
 31
0.0
  0
LINE
  5
28773
330
1F
100
AcDbEntity
  8
0
100
AcDbLine
 10
137.3470679590727
 20
517.9775106965531
 30
0.0
 11
137.8975528838441
 21
517.5337017876756
 31
0.0
  0
LINE
  5
28774
330
1F
100
AcDbEntity
  8
0
100
AcDbLine
 10
136.406112133372
 20
517.3736877638344
 30
0.0
 11
137.5070819829152
 21
516.4860699460787
 31
0.0
  0
LINE
  5
28775
330
1F
100
AcDbEntity
  8
0
100
AcDbLine
 10
154.8005445512035
 20
519.3471936818593
 30
0.0
 11
155.2443534600811
 21
519.8976786066307
 31
0.0
  0
LINE
  5
28776
330
1F
100
AcDbEntity
  8
0
100
AcDbLine
 10
155.4043674839222
 20
518.4062378561576
 30
0.0
 11
156.2919853016778
 21
519.5072077057009
 31
0.0
  0
LINE
  5
28777
330
1F
100
AcDbEntity
  8
hasen
100
AcDbLine
 10
137.3244236344812
 20
538.1018016445058
 30
0.0
 11
144.160925472762
 21
538.8352777599941
 31
0.0
  0
LINE
  5
28778
330
1F
100
AcDbEntity
  8
hasen
100
AcDbLine
 10
144.480953520444
 20
535.8523962590468
 30
0.0
 11
137.644451682163
 21
535.1189201435579
 31
0.0
  0
LINE
  5
28779
330
1F
100
AcDbEntity
  8
kijun
100
AcDbLine
 10
145.1163745635222
 20
537.4291778222351
 30
0.0
 11
133.5825660931905
 21
536.1917360378662
 31
0.0
  0
LINE
  5
2877A
330
1F
100
AcDbEntity
  8
0
100
AcDbLine
 10
142.0518470875854
 20
520.9966253601435
 30
0.0
 11
137.0803779193384
 21
520.4632452806738
 31
0.0
  0
LINE
  5
2877B
330
1F
100
AcDbEntity
  8
0
100
AcDbLine
 10
141.9451710716912
 20
521.9909191937923
 30
0.0
 11
136.9737019034446
 21
521.4575391143231
 31
0.0
  0
LINE
  5
2877C
330
1F
100
AcDbEntity
  8
hasen
100
AcDbLine
 10
136.5028083481252
 20
535.2207692654813
 30
0.0
 11
136.2303693066924
 21
537.7600884992578
 31
0.0
  0
LINE
  5
2877D
330
1F
100
AcDbEntity
  8
hasen
100
AcDbLine
 10
134.9466026662039
 20
533.3208643536075
 30
0.0
 11
134.3065465708409
 21
539.2866273555028
 31
0.0
  0
LINE
  5
2877E
330
1F
100
AcDbEntity
  8
0
100
AcDbLine
 10
133.7721547553565
 20
551.2981603712153
 30
0.0
 11
136.9737019034451
 21
521.4575391143236
 31
0.0
  0
LINE
  5
2877F
330
1F
100
AcDbEntity
  8
hasen
100
AcDbLine
 10
136.4219406753605
 20
535.150821609393
 30
0.0
 11
134.9466026662039
 21
533.3208643536075
 31
0.0
  0
LINE
  5
28780
330
1F
100
AcDbEntity
  8
hasen
100
AcDbLine
 10
137.644451682163
 20
535.1189201435579
 30
0.0
 11
136.6234888445401
 21
535.2608175860766
 31
0.0
  0
LINE
  5
28781
330
1F
100
AcDbEntity
  8
hasen
100
AcDbLine
 10
134.6980292077919
 20
533.294195349634
 30
0.0
 11
134.9466026662039
 21
533.3208643536075
 31
0.0
  0
ARC
  5
28782
330
1F
100
AcDbEntity
  8
hasen
100
AcDbCircle
 10
136.6554916493082
 20
534.9625294359818
 30
0.0
 40
0.3
100
AcDbArc
 50
96.12373761142187
 51
141.1237376114346
  0
LINE
  5
28783
330
1F
100
AcDbEntity
  8
hasen
100
AcDbLine
 10
136.1365038266272
 20
537.8112893463467
 30
0.0
 11
134.3065465708409
 21
539.2866273555028
 31
0.0
  0
LINE
  5
28784
330
1F
100
AcDbEntity
  8
hasen
100
AcDbLine
 10
137.3244236344812
 20
538.1018016445058
 30
0.0
 11
136.3567988048062
 21
537.7465521701998
 31
0.0
  0
LINE
  5
28785
330
1F
100
AcDbEntity
  8
hasen
100
AcDbLine
 10
134.3065465708409
 20
539.2866273555028
 30
0.0
 11
134.0579731124289
 21
539.25995835153
 31
0.0
  0
ARC
  5
28786
330
1F
100
AcDbEntity
  8
hasen
100
AcDbCircle
 10
136.3247960000381
 20
538.0448403202946
 30
0.0
 40
0.3
100
AcDbArc
 50
231.1237376114177
 51
276.1237376114219
  0
LINE
  5
28787
330
1F
100
AcDbEntity
  8
0
100
AcDbLine
 10
132.7778609217071
 20
551.1914843553214
 30
0.0
 11
131.2864201712336
 21
551.0314703314808
 31
0.0
  0
LINE
  5
28788
330
1F
100
AcDbEntity
  8
0
100
AcDbLine
 10
141.9451710716916
 20
521.9909191937929
 30
0.0
 11
142.0518470875849
 21
520.9966253601431
 31
0.0
  0
LINE
  5
28789
330
1F
100
AcDbEntity
  8
0
100
AcDbLine
 10
154.9776634203476
 20
522.3834131907531
 30
0.0
 11
151.9947819193926
 21
522.0633851430712
 31
0.0
  0
LINE
  5
2878A
330
1F
100
AcDbEntity
  8
0
100
AcDbLine
 10
155.865281238096
 20
523.4843830402958
 30
0.0
 11
151.8881059034984
 21
523.0576789767199
 31
0.0
  0
LINE
  5
2878B
330
1F
100
AcDbEntity
  8
0
100
AcDbLine
 10
151.8881059034988
 20
523.0576789767202
 30
0.0
 11
151.9947819193921
 21
522.0633851430709
 31
0.0
  0
LINE
  5
2878C
330
1F
100
AcDbEntity
  8
0
100
AcDbLine
 10
142.7778609217821
 20
552.4746024046208
 30
0.0
 11
144.7778609217798
 21
552.4746024046203
 31
0.0
  0
LINE
  5
2878D
330
1F
100
AcDbEntity
  8
0
100
AcDbLine
 10
144.7778609217798
 20
557.4746024046207
 30
0.0
 11
167.7778609217798
 21
557.4746024046207
 31
0.0
  0
LINE
  5
2878E
330
1F
100
AcDbEntity
  8
0
100
AcDbLine
 10
144.7778609217798
 20
559.474602404625
 30
0.0
 11
165.7778609217798
 21
559.474602404621
 31
0.0
  0
TEXT
  5
2878F
330
1F
100
AcDbEntity
  8
moji
100
AcDbText
 10
145.9652510889704
 20
606.8477827187983
 30
0.0
 40
5.0
  1
捨枠(縦)
 41
0.8
  7
Std
 72
     4
 11
155.4509653746847
 21
608.9906398616554
 31
0.0
100
AcDbText
  0
LINE
  5
28791
330
1F
100
AcDbEntity
  8
0
100
AcDbLine
 10
142.7778609217798
 20
677.4746024047857
 30
0.0
 11
167.7778609217798
 21
677.4746024047857
 31
0.0
  0
LINE
  5
28792
330
1F
100
AcDbEntity
  8
0
100
AcDbLine
 10
144.7778609217798
 20
675.4746024046207
 30
0.0
 11
165.7778609217796
 21
675.4746024046207
 31
0.0
  0
TEXT
  5
28796
330
1F
100
AcDbEntity
  8
moji
100
AcDbText
 10
645.2346113770546
 20
616.4906398614917
 30
0.0
 40
5.0
  1
アルミ
 41
0.8
  7
Std
 72
     4
 11
651.6346113770546
 21
618.9906398614916
 31
0.0
100
AcDbText
  0
LINE
  5
2879B
330
1F
100
AcDbEntity
  8
0
100
AcDbLine
 10
662.3421669307456
 20
675.4746024044522
 30
0.0
 11
662.3421669307456
 21
559.4746024044519
 31
0.0
  0
LINE
  5
2879C
330
1F
100
AcDbEntity
  8
0
100
AcDbLine
 10
641.3421669307475
 20
559.4746024044593
 30
0.0
 11
641.3421669307456
 21
675.4746024044544
 31
0.0
  0
LINE
  5
2879D
330
1F
100
AcDbEntity
  8
kijun
100
AcDbLine
 10
371.0600139255425
 20
728.8738703569064
 30
0.0
 11
371.0600139255421
 21
421.2506901689423
 31
0.0
  0
LINE
  5
2879E
330
1F
100
AcDbEntity
  8
0
100
AcDbLine
 10
639.3421669307477
 20
557.4746024044558
 30
0.0
 11
639.3421669307456
 21
677.4746024044567
 31
0.0
  0
LINE
  5
2879F
330
1F
100
AcDbEntity
  8
0
100
AcDbLine
 10
664.3421669307453
 20
552.2613522183039
 30
0.0
 11
664.3421669307456
 21
677.4746024044523
 31
0.0
  0
ARC
  5
287A0
330
1F
100
AcDbEntity
  8
0
100
AcDbCircle
 10
371.0600139274429
 20
-16226.04645029325
 30
0.0
 40
16843.52105269711
100
AcDbArc
 50
89.7448753351489
 51
90.27213309976406
  0
ARC
  5
287A1
330
1F
100
AcDbEntity
  8
0
100
AcDbCircle
 10
371.0600139274429
 20
-16226.04645029325
 30
0.0
 40
16768.52105269713
100
AcDbArc
 50
89.74373424005245
 51
90.27335026952824
  0
ARC
  5
287A2
330
1F
100
AcDbEntity
  8
0
100
AcDbCircle
 10
371.0600139274429
 20
-16226.04645029325
 30
0.0
 40
16758.52105269713
100
AcDbArc
 50
89.74358132234149
 51
90.27351338199043
  0
ARC
  5
287A3
330
1F
100
AcDbEntity
  8
0
100
AcDbCircle
 10
371.0600139274429
 20
-16226.04645029325
 30
0.0
 40
16838.52105269711
100
AcDbArc
 50
89.74479957838825
 51
90.27221390707635
  0
ARC
  5
287A4
330
1F
100
AcDbEntity
  8
0
100
AcDbCircle
 10
371.0600139274429
 20
-16226.04645029325
 30
0.0
 40
16843.92105269711
100
AcDbArc
 50
89.74488139373709
 51
90.27212663724377
  0
TEXT
  5
287A5
330
1F
100
AcDbEntity
  8
moji
100
AcDbText
 10
377.5600139255423
 20
577.8129090327905
 30
0.0
 40
6.0
  1
アルミ チョークBOX
 41
0.9
  7
dim
100
AcDbText
  0
DIMENSION
  5
287A6
330
1F
100
AcDbEntity
  8
sunpo
100
AcDbDimension
  2
*D18
 10
224.8120519271902
 20
445.2125504234431
 30
0.0
 11
223.1797369950931
 21
502.8462913636646
 31
0.0
 70
    33
 71
     5
 42
115.0000008139496
  3
寸法線
100
AcDbAlignedDimension
 13
211.1020957598175
 23
559.4099115536248
 33
0.0
 14
222.8224659646794
 24
445.0087178995838
 34
0.0
  0
TEXT
  5
287A7
330
1F
100
AcDbEntity
  8
moji
100
AcDbText
 10
361.5831878937151
 20
357.6282764987345
 30
0.0
 40
6.0
  1
横 断 面 図
  7
Std
 72
     4
 11
380.3831878937152
 21
360.6282764987345
 31
0.0
100
AcDbText
  0
LINE
  5
287A8
330
1F
100
AcDbEntity
  8
saisen
100
AcDbLine
 10
353.4968127928321
 20
367.2046442680557
 30
0.0
 11
409.2940956191402
 21
367.2046442680557
 31
0.0
  0
LINE
  5
287A9
330
1F
100
AcDbEntity
  8
saisen
100
AcDbLine
 10
352.9968127928321
 20
367.7046442680557
 30
0.0
 11
409.7940956191401
 21
367.7046442680557
 31
0.0
  0
TEXT
  5
287AA
330
1F
100
AcDbEntity
  8
moji
100
AcDbText
 10
368.0600139255381
 20
413.7307961765206
 30
0.0
 40
6.0
  1
C
  7
Std
 72
     4
 11
371.060013925538
 21
416.7307961765207
 31
0.0
100
AcDbText
  0
TEXT
  5
287AB
330
1F
100
AcDbEntity
  8
moji
100
AcDbText
 10
370.0643199882692
 20
410.7532450564524
 30
0.0
 40
6.0
  1
L
  7
Std
 72
     4
 11
372.921462845412
 21
413.7532450564523
 31
0.0
100
AcDbText
  0
LINE
  5
287AC
330
1F
100
AcDbEntity
  8
kijun
100
AcDbLine
 10
290.9076770705105
 20
577.3488842346734
 30
0.0
 11
321.2123507805736
 21
577.3488842346746
 31
0.0
  0
CIRCLE
  5
287AD
330
1F
100
AcDbEntity
  8
0
100
AcDbCircle
 10
306.0600139255421
 20
577.3488842346762
 30
0.0
 40
12.5
  0
DIMENSION
  5
287AE
330
1F
100
AcDbEntity
  8
sunpo
100
AcDbDimension
  2
*D19
 10
316.8884469481039
 20
583.5934849645782
 30
0.0
 11
303.9368496773757
 21
581.0305514623462
 31
0.0
 70
    32
  1
%%c<>
 71
     5
 42
25.0
  3
寸法線
100
AcDbAlignedDimension
 13
295.2315809029792
 23
571.1042835047762
 33
0.0
 14
316.8884469481038
 24
583.5934849645783
 34
0.0
 50
29.97142708542809
100
AcDbRotatedDimension
1001
ACAD
1000
DSTYLE
1002
{
1070
    44
1040
0.0
1070
    42
1040
0.0
1002
}
  0
TEXT
  5
287AF
330
1F
100
AcDbEntity
  8
sunpo
100
AcDbText
 10
259.0302660951179
 20
508.2892805640343
 30
0.0
 40
5.0
  1
曲面塗板
  7
Std
100
AcDbText
  0
LINE
  5
287B0
330
1F
100
AcDbEntity
  8
kijun
100
AcDbLine
 10
217.7778609217798
 20
561.2746024046206
 30
0.0
 11
217.7778609217798
 21
575.6746024046207
 31
0.0
  0
CIRCLE
  5
287B1
330
1F
100
AcDbEntity
  8
0
100
AcDbCircle
 10
217.7778609217798
 20
568.4746024046208
 30
0.0
 40
5.0
  0
CIRCLE
  5
287B2
330
1F
100
AcDbEntity
  8
0
100
AcDbCircle
 10
217.7778609217798
 20
568.4746024046208
 30
0.0
 40
6.0
  0
LINE
  5
287B3
330
1F
100
AcDbEntity
  8
kijun
100
AcDbLine
 10
210.5778609217798
 20
568.4746024046208
 30
0.0
 11
224.9778609217797
 21
568.4746024046208
 31
0.0
  0
LINE
  5
287B4
330
1F
100
AcDbEntity
  8
kijun
100
AcDbLine
 10
306.0600139255378
 20
497.9746024044743
 30
0.0
 11
306.0600139255405
 21
592.5012210897078
 31
0.0
  0
DIMENSION
  5
287B5
330
1F
100
AcDbEntity
  8
sunpo
100
AcDbDimension
  2
*D20
 10
371.0600139255407
 20
499.9746024044743
 30
0.0
 11
338.5600139255406
 21
504.2246024044743
 31
0.0
 70
    32
  1
<>
 71
     5
 42
65.00000000000023
  3
寸法線
100
AcDbAlignedDimension
 13
306.0600139255405
 23
499.9746024044743
 33
0.0
 14
371.0600139255407
 24
499.9746024044743
 34
0.0
100
AcDbRotatedDimension
  0
TEXT
  5
287B6
330
1F
100
AcDbEntity
  8
moji
100
AcDbText
 10
309.7590345355829
 20
554.0678677060649
 30
0.0
 40
6.0
  1
粉落穴（面取り）
  7
Std
100
AcDbText
  0
LINE
  5
287B7
330
1F
100
AcDbEntity
  8
0
100
AcDbLine
 10
632.8568800438097
 20
525.4259463765025
 30
0.0
 11
623.4728177885743
 21
437.9600323490405
 31
0.0
  0
LINE
  5
287B8
330
1F
100
AcDbEntity
  8
0
100
AcDbLine
 10
648.2256786612634
 20
454.3049942187533
 30
0.0
 11
665.8808719175648
 21
515.3778691480344
 31
0.0
  0
LINE
  5
287B9
330
1F
100
AcDbEntity
  8
0
100
AcDbLine
 10
650.7036380740427
 20
441.2716924825788
 30
0.0
 11
671.9386664298927
 21
514.7279391557024
 31
0.0
  0
ARC
  5
287BA
330
1F
100
AcDbEntity
  8
0
100
AcDbCircle
 10
-1125.65783306778
 20
-16226.0464502938
 30
0.0
 40
16758.52105269713
100
AcDbArc
 50
84.0078903195123
 51
84.17194455592403
  0
ARC
  5
287BB
330
1F
100
AcDbEntity
  8
0
100
AcDbCircle
 10
-1125.65783306778
 20
-16226.0464502938
 30
0.0
 40
16768.52105269713
100
AcDbArc
 50
84.00781182233805
 51
84.17543217489301
  0
LINE
  5
287BC
330
1F
100
AcDbEntity
  8
0
100
AcDbLine
 10
625.1796340428791
 20
453.8687336874287
 30
0.0
 11
644.4899879742714
 21
451.7969601802511
 31
0.0
  0
LINE
  5
287BD
330
1F
100
AcDbEntity
  8
0
100
AcDbLine
 10
623.4728177885743
 20
437.9600323490405
 30
0.0
 11
642.6985866019176
 21
435.8973338286447
 31
0.0
  0
ARC
  5
287BE
330
1F
100
AcDbEntity
  8
0
100
AcDbCircle
 10
643.4986567211226
 20
443.3545375810151
 30
0.0
 40
7.5
100
AcDbArc
 50
263.8762623885638
 51
343.8762623885697
  0
ARC
  5
287BF
330
1F
100
AcDbEntity
  8
0
100
AcDbCircle
 10
644.8633540299006
 20
455.2769885980239
 30
0.0
 40
3.5
100
AcDbArc
 50
263.8762623885638
 51
343.8762623885697
  0
ARC
  5
287C0
330
1F
100
AcDbEntity
  8
saisen
100
AcDbCircle
 10
-1125.65783306778
 20
-16226.0464502938
 30
0.0
 40
16873.52105269772
100
AcDbArc
 50
83.98152614228925
 51
84.2118013056965
  0
ARC
  5
287C1
330
1F
100
AcDbEntity
  8
0
100
AcDbCircle
 10
-1125.65783306778
 20
-16226.0464502938
 30
0.0
 40
16849.42105269711
100
AcDbArc
 50
83.87966284842757
 51
84.20349401067467
  0
ARC
  5
287C2
330
1F
100
AcDbEntity
  8
0
100
AcDbCircle
 10
-1125.65783306778
 20
-16226.0464502938
 30
0.0
 40
16843.92105269711
100
AcDbArc
 50
83.87966395876324
 51
84.20159480619139
  0
ARC
  5
287C3
330
1F
100
AcDbEntity
  8
0
100
AcDbCircle
 10
-1125.65783306778
 20
-16226.0464502938
 30
0.0
 40
16838.52105269711
100
AcDbArc
 50
84.00726495266575
 51
84.19972891942194
  0
ARC
  5
287C4
330
1F
100
AcDbEntity
  8
0
100
AcDbCircle
 10
-1125.65783306778
 20
-16226.0464502938
 30
0.0
 40
16843.52105269711
100
AcDbArc
 50
83.87966403955138
 51
84.20145663359646
  0
LINE
  5
287C5
330
1F
100
AcDbEntity
  8
0
100
AcDbLine
 10
643.5190580876901
 20
554.4984408478633
 30
0.0
 11
640.9451239900748
 21
530.507604856901
 31
0.0
  0
ARC
  5
287C6
330
1F
100
AcDbEntity
  8
0
100
AcDbCircle
 10
-1125.65783306778
 20
-16226.0464502938
 30
0.0
 40
16873.52105269772
100
AcDbArc
 50
83.87626238859104
 51
83.98152614228925
  0
DIMENSION
  5
287C7
330
1F
100
AcDbEntity
  8
sunpo
100
AcDbDimension
  2
*D21
 10
664.3421669293066
 20
564.2006251565971
 30
0.0
 11
669.3421669301333
 21
564.2006251565971
 31
0.0
 70
   160
  1
<>
 71
     5
 42
10.00000000165335
  3
寸法線
100
AcDbAlignedDimension
 13
674.3421669309598
 23
551.1914843564752
 33
0.0
 14
664.3421669293066
 24
564.2006251565971
 34
0.0
100
AcDbRotatedDimension
  0
LINE
  5
287C8
330
1F
100
AcDbEntity
  8
0
100
AcDbLine
 10
662.3421669307456
 20
557.4746024044518
 30
0.0
 11
662.3421669307456
 21
552.4746024044526
 31
0.0
  0
LINE
  5
287C9
330
1F
100
AcDbEntity
  8
saisen
100
AcDbLine
 10
674.3421669297093
 20
551.1914843557008
 30
0.0
 11
640.9451239900748
 21
530.507604856901
 31
0.0
  0
DIMENSION
  5
287CA
330
1F
100
AcDbEntity
  8
sunpo
100
AcDbDimension
  2
*D22
 10
667.9403393059129
 20
491.5220480887851
 30
0.0
 11
658.4507757893086
 21
496.8145568527279
 31
0.0
 70
    33
 71
     5
 42
19.99999647520701
  3
寸法線
100
AcDbAlignedDimension
 13
650.8280425508472
 23
519.5072077055336
 33
0.0
 14
670.7139157191532
 24
517.3736877636672
 34
0.0
  0
LINE
  5
287CB
330
1F
100
AcDbEntity
  8
0
100
AcDbLine
 10
652.3194833013213
 20
519.3471936816918
 30
0.0
 11
669.2224749686811
 21
517.5337017875083
 31
0.0
  0
LINE
  5
287CC
330
1F
100
AcDbEntity
  8
0
100
AcDbLine
 10
651.7156603686024
 20
518.4062378559904
 30
0.0
 11
669.6129458696096
 21
516.4860699459116
 31
0.0
  0
LINE
  5
287CD
330
1F
100
AcDbEntity
  8
0
100
AcDbLine
 10
632.1669130839209
 20
518.9949797914585
 30
0.0
 11
671.9386664298927
 21
514.7279391557028
 31
0.0
  0
LINE
  5
287CE
330
1F
100
AcDbEntity
  8
kijun
100
AcDbLine
 10
661.9998731301721
 20
537.4295838731605
 30
0.0
 11
673.5336816005042
 21
536.1921420887933
 31
0.0
  0
LINE
  5
287CF
330
1F
100
AcDbEntity
  8
0
100
AcDbLine
 10
662.3421669307456
 20
552.4746024044526
 30
0.0
 11
664.3421669307456
 21
552.4746024044523
 31
0.0
  0
LINE
  5
287D0
330
1F
100
AcDbEntity
  8
0
100
AcDbLine
 10
652.1423644321775
 20
522.3834131905856
 30
0.0
 11
651.8756743924441
 21
519.8976786064632
 31
0.0
  0
LINE
  5
287D1
330
1F
100
AcDbEntity
  8
0
100
AcDbLine
 10
651.2547466144232
 20
523.4843830401306
 30
0.0
 11
650.8280425508472
 21
519.5072077055336
 31
0.0
  0
LINE
  5
287D2
330
1F
100
AcDbEntity
  8
0
100
AcDbLine
 10
649.7633058639485
 20
523.6443970639713
 30
0.0
 11
649.0699117606391
 21
517.1814871452514
 31
0.0
  0
LINE
  5
287D3
330
1F
100
AcDbEntity
  8
0
100
AcDbLine
 10
651.7156603686024
 20
518.4062378559904
 30
0.0
 11
650.8280425508472
 21
519.5072077055336
 31
0.0
  0
LINE
  5
287D4
330
1F
100
AcDbEntity
  8
0
100
AcDbLine
 10
652.3194833013213
 20
519.3471936816918
 30
0.0
 11
651.8756743924441
 21
519.8976786064632
 31
0.0
  0
LINE
  5
287D5
330
1F
100
AcDbEntity
  8
0
100
AcDbLine
 10
652.1423644321775
 20
522.3834131905856
 30
0.0
 11
655.1252459331326
 21
522.0633851429039
 31
0.0
  0
LINE
  5
287D6
330
1F
100
AcDbEntity
  8
0
100
AcDbLine
 10
651.2547466144288
 20
523.4843830401285
 30
0.0
 11
655.2319219490263
 21
523.0576789765525
 31
0.0
  0
LINE
  5
287D7
330
1F
100
AcDbEntity
  8
0
100
AcDbLine
 10
655.2319219490263
 20
523.057678976553
 30
0.0
 11
655.1252459331326
 21
522.0633851429036
 31
0.0
  0
LINE
  5
287D8
330
1F
100
AcDbEntity
  8
0
100
AcDbLine
 10
670.0396499331863
 20
520.463245280507
 30
0.0
 11
669.772959893452
 21
517.9775106963859
 31
0.0
  0
LINE
  5
287D9
330
1F
100
AcDbEntity
  8
0
100
AcDbLine
 10
674.342166930818
 20
551.1914843551542
 30
0.0
 11
670.7139157191532
 21
517.3736877636672
 31
0.0
  0
LINE
  5
287DA
330
1F
100
AcDbEntity
  8
0
100
AcDbLine
 10
675.8336076812931
 20
551.0314703313134
 30
0.0
 11
671.9386664298927
 21
514.7279391557028
 31
0.0
  0
LINE
  5
287DB
330
1F
100
AcDbEntity
  8
0
100
AcDbLine
 10
669.772959893452
 20
517.9775106963859
 30
0.0
 11
669.2224749686811
 21
517.5337017875083
 31
0.0
  0
LINE
  5
287DC
330
1F
100
AcDbEntity
  8
0
100
AcDbLine
 10
670.7139157191532
 20
517.3736877636672
 30
0.0
 11
669.6129458696096
 21
516.4860699459116
 31
0.0
  0
LINE
  5
287DD
330
1F
100
AcDbEntity
  8
0
100
AcDbLine
 10
673.3478730971691
 20
551.2981603710478
 30
0.0
 11
670.1463259490801
 21
521.4575391141563
 31
0.0
  0
LINE
  5
287DE
330
1F
100
AcDbEntity
  8
hasen
100
AcDbLine
 10
672.1696450274907
 20
533.3212704045339
 30
0.0
 11
672.8097011228531
 21
539.2870334064298
 31
0.0
  0
LINE
  5
287DF
330
1F
100
AcDbEntity
  8
hasen
100
AcDbLine
 10
670.6134393455695
 20
535.2211753164076
 30
0.0
 11
670.8858783870019
 21
537.7604945501846
 31
0.0
  0
LINE
  5
287E0
330
1F
100
AcDbEntity
  8
0
100
AcDbLine
 10
665.0681807649397
 20
520.9966253599762
 30
0.0
 11
670.0396499331863
 21
520.4632452805063
 31
0.0
  0
LINE
  5
287E1
330
1F
100
AcDbEntity
  8
0
100
AcDbLine
 10
665.1748567808343
 20
521.9909191936251
 30
0.0
 11
670.1463259490801
 21
521.4575391141559
 31
0.0
  0
LINE
  5
287E2
330
1F
100
AcDbEntity
  8
0
100
AcDbLine
 10
665.1748567808335
 20
521.9909191936254
 30
0.0
 11
665.0681807649407
 21
520.9966253599755
 31
0.0
  0
ARC
  5
287E3
330
1F
100
AcDbEntity
  8
hasen
100
AcDbCircle
 10
670.460756044386
 20
534.9629354869087
 30
0.0
 40
0.3
100
AcDbArc
 50
38.87626238858152
 51
83.87626238857809
  0
LINE
  5
287E4
330
1F
100
AcDbEntity
  8
hasen
100
AcDbLine
 10
672.4182184859032
 20
533.2946014005608
 30
0.0
 11
672.1696450274907
 21
533.3212704045339
 31
0.0
  0
LINE
  5
287E5
330
1F
100
AcDbEntity
  8
hasen
100
AcDbLine
 10
669.4717960115312
 20
535.1193261944847
 30
0.0
 11
670.4927588491541
 21
535.2612236370031
 31
0.0
  0
LINE
  5
287E6
330
1F
100
AcDbEntity
  8
hasen
100
AcDbLine
 10
670.6943070183342
 20
535.1512276603198
 30
0.0
 11
672.1696450274907
 21
533.3212704045339
 31
0.0
  0
LINE
  5
287E7
330
1F
100
AcDbEntity
  8
hasen
100
AcDbLine
 10
662.6352941732502
 20
535.8528023099725
 30
0.0
 11
669.4717960115312
 21
535.1193261944847
 31
0.0
  0
ARC
  5
287E8
330
1F
100
AcDbEntity
  8
hasen
100
AcDbCircle
 10
670.7914516936567
 20
538.0452463712214
 30
0.0
 40
0.3
100
AcDbArc
 50
263.8762623885781
 51
308.8762623885828
  0
LINE
  5
287E9
330
1F
100
AcDbEntity
  8
hasen
100
AcDbLine
 10
672.8097011228531
 20
539.2870334064298
 30
0.0
 11
673.0582745812652
 21
539.2603644024562
 31
0.0
  0
LINE
  5
287EA
330
1F
100
AcDbEntity
  8
hasen
100
AcDbLine
 10
669.7918240592127
 20
538.1022076954325
 30
0.0
 11
670.7594488888879
 21
537.7469582211265
 31
0.0
  0
LINE
  5
287EB
330
1F
100
AcDbEntity
  8
hasen
100
AcDbLine
 10
670.9797438670674
 20
537.8116953972733
 30
0.0
 11
672.8097011228531
 21
539.2870334064298
 31
0.0
  0
LINE
  5
287EC
330
1F
100
AcDbEntity
  8
hasen
100
AcDbLine
 10
669.7918240592127
 20
538.1022076954325
 30
0.0
 11
662.9553222209318
 21
538.83568381092
 31
0.0
  0
LINE
  5
287ED
330
1F
100
AcDbEntity
  8
0
100
AcDbLine
 10
674.342166930818
 20
551.1914843551542
 30
0.0
 11
675.833607681292
 21
551.0314703313134
 31
0.0
  0
TEXT
  5
287EE
330
1F
100
AcDbEntity
  8
moji
100
AcDbText
 10
642.5295570979362
 20
606.8477827186346
 30
0.0
 40
5.0
  1
捨枠(縦)
 41
0.8
  7
Std
 72
     4
 11
652.0152713836505
 21
608.9906398614918
 31
0.0
100
AcDbText
  0
LINE
  5
287EF
330
1F
100
AcDbEntity
  8
0
100
AcDbLine
 10
639.3421669307477
 20
557.4746024044558
 30
0.0
 11
662.3421669307456
 21
557.4746024044518
 31
0.0
  0
LINE
  5
287F0
330
1F
100
AcDbEntity
  8
0
100
AcDbLine
 10
641.3421669307475
 20
559.4746024044558
 30
0.0
 11
662.3421669307454
 21
559.4746024044519
 31
0.0
  0
ARC
  5
287F1
330
1F
100
AcDbEntity
  8
0
100
AcDbCircle
 10
371.0600139274429
 20
-16226.04645029325
 30
0.0
 40
16849.42105269711
100
AcDbArc
 50
89.74496467029629
 51
90.27203780880402
  0
LINE
  5
287F2
330
1F
100
AcDbEntity
  8
0
100
AcDbLine
 10
386.0600139255423
 20
647.4746024044705
 30
0.0
 11
446.0600139255425
 21
647.4746024044662
 31
0.0
  0
LINE
  5
287F3
330
1F
100
AcDbEntity
  8
hasen
100
AcDbLine
 10
386.0600139255423
 20
648.9746024044722
 30
0.0
 11
446.0600139255425
 21
648.9746024044664
 31
0.0
  0
LINE
  5
287F4
330
1F
100
AcDbEntity
  8
hasen
100
AcDbLine
 10
386.0600139255423
 20
675.4746024046197
 30
0.0
 11
446.0600139255425
 21
675.4746024046207
 31
0.0
  0
LINE
  5
287F5
330
1F
100
AcDbEntity
  8
0
100
AcDbLine
 10
291.0600139255425
 20
677.4746024046208
 30
0.0
 11
446.0600139255425
 21
677.4746024046196
 31
0.0
  0
ARC
  5
287F6
330
1F
100
AcDbEntity
  8
saisen
100
AcDbCircle
 10
346.060092209972
 20
-28241.30659386561
 30
0.0
 40
28888.78119624104
100
AcDbArc
 50
89.80166747537012
 51
89.92066721639444
  0
ARC
  5
287F8
330
1F
100
AcDbEntity
  8
saisen
100
AcDbCircle
 10
371.0600139274429
 20
-16226.04645029325
 30
0.0
 40
16873.52105269772
100
AcDbArc
 50
90.05093405243368
 51
90.27164926154929
  0
LINE
  5
287F9
330
1F
100
AcDbEntity
  8
hasen
100
AcDbLine
 10
291.0600139255425
 20
675.4746024046207
 30
0.0
 11
356.0600139255423
 21
675.4746024046201
 31
0.0
  0
LINE
  5
287FA
330
1F
100
AcDbEntity
  8
hasen
100
AcDbLine
 10
291.0600139255425
 20
648.9746024044771
 30
0.0
 11
356.0600139255423
 21
648.9746024044714
 31
0.0
  0
LINE
  5
287FB
330
1F
100
AcDbEntity
  8
0
100
AcDbLine
 10
291.0600139255425
 20
647.4746024044772
 30
0.0
 11
356.0600139255423
 21
647.4746024044707
 31
0.0
  0
ARC
  5
287FC
330
1F
100
AcDbEntity
  8
saisen
100
AcDbCircle
 10
371.0600139255573
 20
-15602.52539759514
 30
0.0
 40
16249.99999999959
100
AcDbArc
 50
90.0528884193687
 51
90.28207266933051
  0
DIMENSION
  5
287FE
330
1F
100
AcDbEntity
  8
sunpo
100
AcDbDimension
  2
*D23
 10
325.1186326431528
 20
677.4746024046208
 30
0.0
 11
320.8686326431526
 21
662.4746024045479
 31
0.0
 70
    32
  1
<>
 71
     5
 42
30.00000000014598
  3
寸法線
100
AcDbAlignedDimension
 13
325.1186326431523
 23
647.4746024044747
 33
0.0
 14
325.1186326431516
 24
677.4746024046208
 34
0.0
 50
90.0
100
AcDbRotatedDimension
  0
LINE
  5
287FF
330
1F
100
AcDbEntity
  8
saisen
100
AcDbLine
 10
386.0600139255414
 20
623.367669043346
 30
0.0
 11
356.0600139255408
 21
647.474602404473
 31
0.0
  0
LINE
  5
28803
330
1F
100
AcDbEntity
  8
0
100
AcDbLine
 10
576.0600139255425
 20
677.4746024046454
 30
0.0
 11
639.3421669307456
 21
677.4746024046194
 31
0.0
  0
LINE
  5
28804
330
1F
100
AcDbEntity
  8
hasen
100
AcDbLine
 10
576.0600139255425
 20
675.4746024044796
 30
0.0
 11
639.3421669307456
 21
675.4746024044546
 31
0.0
  0
LINE
  5
28805
330
1F
100
AcDbEntity
  8
hasen
100
AcDbLine
 10
576.0600139255425
 20
648.9746024044817
 30
0.0
 11
639.3421669307461
 21
648.9746024044567
 31
0.0
  0
LINE
  5
28806
330
1F
100
AcDbEntity
  8
0
100
AcDbLine
 10
576.0600139255425
 20
647.4746024044812
 30
0.0
 11
639.3421669307461
 21
647.4746024044567
 31
0.0
  0
LINE
  5
28808
330
1F
100
AcDbEntity
  8
0
100
AcDbLine
 10
664.3421669307456
 20
677.4746024046215
 30
0.0
 11
639.3421669307456
 21
677.4746024046194
 31
0.0
  0
LINE
  5
28809
330
1F
100
AcDbEntity
  8
0
100
AcDbLine
 10
641.3421669307456
 20
675.4746024044544
 30
0.0
 11
662.3421669307456
 21
675.4746024044522
 31
0.0
  0
LINE
  5
2880A
330
1F
100
AcDbEntity
  8
0
100
AcDbLine
 10
664.3421669307586
 20
647.474602404456
 30
0.0
 11
664.3421669307532
 21
677.4746024044556
 31
0.0
  0
DIMENSION
  5
2880F
330
1F
100
AcDbEntity
  8
sunpo
 48
2.0
100
AcDbDimension
  2
*D24
 10
765.3858739552322
 20
699.0213727033647
 30
0.0
 11
761.1358739552321
 21
487.5263803753358
 31
0.0
 70
    32
  1
H
 71
     5
 42
422.9899846560579
  3
寸法線
100
AcDbAlignedDimension
 13
801.1925817551086
 23
276.0313880473069
 33
0.0
 14
854.8209952248766
 24
699.0213727033647
 34
0.0
 50
90.0
100
AcDbRotatedDimension
  0
LINE
  5
28810
330
1F
100
AcDbEntity
  8
saisen
100
AcDbLine
 10
1042.053035802496
 20
480.5795195157561
 30
0.0
 11
1042.053035802495
 21
651.0213727033629
 31
0.0
  0
LINE
  5
28811
330
1F
100
AcDbEntity
  8
hasen
100
AcDbLine
 10
917.053035802496
 20
698.0213727033699
 30
0.0
 11
917.053035802496
 21
480.5795195157561
 31
0.0
  0
LINE
  5
28812
330
1F
100
AcDbEntity
  8
hasen
100
AcDbLine
 10
887.0530358024941
 20
698.0213727033699
 30
0.0
 11
887.0530358024941
 21
480.5795195157561
 31
0.0
  0
LINE
  5
28813
330
1F
100
AcDbEntity
  8
saisen
100
AcDbLine
 10
882.3533679873875
 20
656.0630837892313
 30
0.0
 11
882.3533679873875
 21
480.5795195157561
 31
0.0
  0
LINE
  5
28814
330
1F
100
AcDbEntity
  8
saisen
100
AcDbLine
 10
884.5781945687168
 20
656.0630837892313
 30
0.0
 11
884.5781945687168
 21
480.5795195157561
 31
0.0
  0
LINE
  5
28815
330
1F
100
AcDbEntity
  8
saisen
100
AcDbLine
 10
889.6634557348843
 20
656.0630837892313
 30
0.0
 11
889.6634557348843
 21
480.5795195157561
 31
0.0
  0
LINE
  5
28816
330
1F
100
AcDbEntity
  8
saisen
100
AcDbLine
 10
885.5557375857651
 20
480.5795195157561
 30
0.0
 11
885.5557375857651
 21
656.0630837892313
 31
0.0
  0
TEXT
  5
28817
330
1F
100
AcDbEntity
  8
sunpo
100
AcDbText
 10
774.1387872443132
 20
595.4064859935837
 30
0.0
 40
5.0
  1
(規格塗板仕上)
  7
Std
100
AcDbText
  0
LINE
  5
28818
330
1F
100
AcDbEntity
  8
saisen
100
AcDbLine
 10
1012.053035802496
 20
669.0213727033701
 30
0.0
 11
1012.053035802496
 21
480.5795195157561
 31
0.0
  0
LINE
  5
28819
330
1F
100
AcDbEntity
  8
0
100
AcDbLine
 10
982.4530358024963
 20
698.02137270337
 30
0.0
 11
982.4530358024963
 21
480.5795195157561
 31
0.0
  0
LINE
  5
2881A
330
1F
100
AcDbEntity
  8
0
100
AcDbLine
 10
982.0530358024912
 20
480.5795195157561
 30
0.0
 11
982.0530358024962
 21
698.0213727033699
 31
0.0
  0
LINE
  5
2881B
330
1F
100
AcDbEntity
  8
0
100
AcDbLine
 10
987.9579410783076
 20
698.0213727033699
 30
0.0
 11
987.9579410783076
 21
480.5795195157561
 31
0.0
  0
LWPOLYLINE
  5
2881C
330
1F
100
AcDbEntity
  8
0
100
AcDbPolyline
 90
        4
 70
     1
 43
0.0
 10
905.0530358024962
 20
263.5313880473069
 10
985.0530358024961
 20
263.5313880473069
 10
985.0530358024961
 20
276.0313880473069
 10
905.0530358024962
 20
276.0313880473069
  0
LINE
  5
2881D
330
1F
100
AcDbEntity
  8
0
100
AcDbLine
 10
966.0530358024962
 20
230.0313880473068
 30
0.0
 11
905.0530358024962
 21
230.0313880473068
 31
0.0
  0
LINE
  5
28820
330
1F
100
AcDbEntity
  8
saisen
100
AcDbLine
 10
978.9729073912502
 20
301.0313880473069
 30
0.0
 11
905.1331642137434
 21
301.0313880473069
 31
0.0
  0
DIMENSION
  5
28823
330
1F
100
AcDbEntity
  8
sunpo
100
AcDbDimension
  2
*D25
 10
897.0530358024962
 20
364.4797172161998
 30
0.0
 11
954.553035802496
 21
368.7297172161998
 31
0.0
 70
    32
  1
<>
 71
     5
 42
115.0
  3
寸法線
100
AcDbAlignedDimension
 13
1012.053035802496
 23
364.4797172161998
 33
0.0
 14
897.0530358024962
 24
308.0313880473068
 34
0.0
100
AcDbRotatedDimension
  0
ARC
  5
28824
330
1F
100
AcDbEntity
  8
0
100
AcDbCircle
 10
954.0530358024561
 20
301.0313880473166
 30
0.0
 40
23.00000000003928
100
AcDbArc
 50
270.0000000000912
 51
355.4114342641922
  0
ARC
  5
28825
330
1F
100
AcDbEntity
  8
0
100
AcDbCircle
 10
954.0530358024962
 20
301.031388047307
 30
0.0
 40
25.00000000000023
100
AcDbArc
 50
270.0
 51
325.2280559680591
  0
DIMENSION
  5
28826
330
1F
100
AcDbEntity
  8
sunpo
100
AcDbDimension
  2
*D26
 10
982.0530358024923
 20
349.4797172161998
 30
0.0
 11
939.5530358024943
 21
353.7297172161998
 31
0.0
 70
    32
  1
85
 71
     5
 42
84.99999999999635
  3
寸法線
100
AcDbAlignedDimension
 13
897.0530358024962
 23
349.4797172161998
 33
0.0
 14
982.0530358024923
 24
349.4797172161998
 34
0.0
100
AcDbRotatedDimension
  0
DIMENSION
  5
28827
330
1F
100
AcDbEntity
  8
sunpo
100
AcDbDimension
  2
*D27
 10
765.3858739552321
 20
128.6212306316661
 30
0.0
 11
765.3858739552321
 21
174.3360339174514
 31
0.0
 70
   160
  1
FLﾏﾃﾞ
 71
     5
 42
147.4101574156406
  3
延長線
100
AcDbAlignedDimension
 13
799.4640826288133
 23
276.0313880473069
 33
0.0
 14
769.9073748289366
 24
128.6212306316661
 34
0.0
 50
90.0
100
AcDbRotatedDimension
1001
ACAD
1000
DSTYLE
1002
{
1070
   344
1005
1CF2B
1070
    75
1070
     0
1070
    44
1040
0.0
1070
    42
1040
0.0
1002
}
  0
LINE
  5
28828
330
1F
100
AcDbEntity
  8
sunpo
100
AcDbLine
 10
762.7757078026767
 20
135.6990025931184
 30
0.0
 11
766.2231058487813
 21
137.9103598305746
 31
0.0
  0
LINE
  5
28829
330
1F
100
AcDbEntity
  8
sunpo
100
AcDbLine
 10
765.3858739552322
 20
128.6212306316638
 30
0.0
 11
762.7757078026767
 21
135.6990025931184
 31
0.0
  0
LINE
  5
2882A
330
1F
100
AcDbEntity
  8
0
100
AcDbLine
 10
947.6527093309268
 20
110.4439575881256
 30
0.0
 11
890.8554265046186
 21
110.4439575881256
 31
0.0
  0
LINE
  5
2882B
330
1F
100
AcDbEntity
  8
0
100
AcDbLine
 10
890.8554265046186
 20
124.0908153664681
 30
0.0
 11
947.6527093309268
 21
124.0908153664681
 31
0.0
  0
LINE
  5
2882C
330
1F
100
AcDbEntity
  8
0
100
AcDbLine
 10
947.1527093309267
 20
110.9439575881256
 30
0.0
 11
891.3554265046187
 21
110.9439575881256
 31
0.0
  0
TEXT
  5
2882D
330
1F
100
AcDbEntity
  8
moji
100
AcDbText
 10
899.4418016055016
 20
114.0144475971469
 30
0.0
 40
6.0
  1
縦 断 面 図
  7
Std
 72
     4
 11
918.2418016055015
 21
117.0144475971469
 31
0.0
100
AcDbText
  0
LINE
  5
2882E
330
1F
100
AcDbEntity
  8
0
100
AcDbLine
 10
891.3554265046187
 20
123.5908153664682
 30
0.0
 11
947.1527093309267
 21
123.5908153664682
 31
0.0
  0
LINE
  5
2882F
330
1F
100
AcDbEntity
  8
0
100
AcDbLine
 10
890.8554265046186
 20
110.4439575881256
 30
0.0
 11
890.8554265046186
 21
124.0908153664681
 31
0.0
  0
LINE
  5
28830
330
1F
100
AcDbEntity
  8
0
100
AcDbLine
 10
891.3554265046187
 20
110.9439575881256
 30
0.0
 11
891.3554265046187
 21
123.5908153664682
 31
0.0
  0
LINE
  5
28831
330
1F
100
AcDbEntity
  8
0
100
AcDbLine
 10
947.6527093309268
 20
124.0908153664681
 30
0.0
 11
947.6527093309268
 21
110.4439575881256
 31
0.0
  0
LINE
  5
28832
330
1F
100
AcDbEntity
  8
0
100
AcDbLine
 10
947.1527093309267
 20
123.5908153664682
 30
0.0
 11
947.1527093309267
 21
110.9439575881256
 31
0.0
  0
DIMENSION
  5
28833
330
1F
100
AcDbEntity
  8
sunpo
100
AcDbDimension
  2
*D28
 10
781.3858568848489
 20
301.0313880473069
 30
0.0
 11
777.135856884849
 21
288.5313880473069
 31
0.0
 70
    32
 71
     5
 42
25.0
  3
寸法線
100
AcDbAlignedDimension
 13
801.1925817551086
 23
276.0313880473069
 33
0.0
 14
801.1925817551086
 24
301.0313880473069
 34
0.0
 50
90.0
100
AcDbRotatedDimension
  0
TEXT
  5
28834
330
1F
100
AcDbEntity
  8
sunpo
100
AcDbText
 10
722.0841574427131
 20
325.1272193767568
 30
0.0
 40
5.0
  1
サイドキャップ
  7
Std
100
AcDbText
  0
LINE
  5
28835
330
1F
100
AcDbEntity
  8
hasen
100
AcDbLine
 10
917.0530358024967
 20
460.5795195157561
 30
0.0
 11
917.0530358024967
 21
278.0313880473069
 31
0.0
  0
LINE
  5
28836
330
1F
100
AcDbEntity
  8
saisen
100
AcDbLine
 10
885.555737585766
 20
306.0313880473068
 30
0.0
 11
885.555737585766
 21
460.5795195157561
 31
0.0
  0
LINE
  5
28837
330
1F
100
AcDbEntity
  8
hasen
100
AcDbLine
 10
887.0530358024948
 20
460.5795195157561
 30
0.0
 11
887.0530358024952
 21
278.0313880473069
 31
0.0
  0
LINE
  5
28838
330
1F
100
AcDbEntity
  8
saisen
100
AcDbLine
 10
882.3533679873875
 20
460.5808435579621
 30
0.0
 11
882.3533679873875
 21
306.0327120895132
 31
0.0
  0
LINE
  5
28839
330
1F
100
AcDbEntity
  8
saisen
100
AcDbLine
 10
889.6634557348843
 20
460.5795195157561
 30
0.0
 11
889.6634557348843
 21
303.0313880473069
 31
0.0
  0
LINE
  5
2883A
330
1F
100
AcDbEntity
  8
saisen
100
AcDbLine
 10
884.5781945687168
 20
460.5795195157561
 30
0.0
 11
884.5781945687168
 21
306.0313880473068
 31
0.0
  0
ARC
  5
2883B
330
1F
100
AcDbEntity
  8
hasen
100
AcDbCircle
 10
863.8264815777757
 20
301.0313880473227
 30
0.0
 40
23.00000000006892
100
AcDbArc
 50
270.0000000001693
 51
355.4114342641922
  0
LINE
  5
2883C
330
1F
100
AcDbEntity
  8
saisen
100
AcDbLine
 10
899.0530358024962
 20
301.0313880473069
 30
0.0
 11
809.7284389225169
 21
301.0313880473069
 31
0.0
  0
LINE
  5
2883D
330
1F
100
AcDbEntity
  8
saisen
100
AcDbLine
 10
897.0530358024962
 20
299.0313880473069
 30
0.0
 11
807.728438922517
 21
299.0313880473069
 31
0.0
  0
LINE
  5
2883E
330
1F
100
AcDbEntity
  8
saisen
100
AcDbLine
 10
880.5341169748603
 20
302.0313880473068
 30
0.0
 11
820.1106328576567
 21
302.0313880473068
 31
0.0
  0
LINE
  5
2883F
330
1F
100
AcDbEntity
  8
saisen
100
AcDbLine
 10
809.7284389225169
 20
276.0313880473069
 30
0.0
 11
899.0530358024962
 21
276.0313880473069
 31
0.0
  0
LINE
  5
28840
330
1F
100
AcDbEntity
  8
saisen
100
AcDbLine
 10
807.728438922517
 20
278.0313880473069
 30
0.0
 11
897.0530358024962
 21
278.0313880473069
 31
0.0
  0
LINE
  5
28841
330
1F
100
AcDbEntity
  8
saisen
100
AcDbLine
 10
900.320984994927
 20
274.0313880473069
 30
0.0
 11
804.1925817551087
 21
274.0313880473069
 31
0.0
  0
ARC
  5
28842
330
1F
100
AcDbEntity
  8
hasen
100
AcDbCircle
 10
840.728438922517
 20
301.0313880473069
 30
0.0
 40
22.99999999999991
100
AcDbArc
 50
184.5885657357816
 51
270.0
  0
LINE
  5
28843
330
1F
100
AcDbEntity
  8
saisen
100
AcDbLine
 10
802.1925817551087
 20
301.0313880473069
 30
0.0
 11
802.1925817551087
 21
276.0313880473069
 31
0.0
  0
LINE
  5
28844
330
1F
100
AcDbEntity
  8
saisen
100
AcDbLine
 10
807.728438922517
 20
299.0313880473069
 30
0.0
 11
807.728438922517
 21
278.0313880473069
 31
0.0
  0
LINE
  5
28845
330
1F
100
AcDbEntity
  8
saisen
100
AcDbLine
 10
804.5012710439198
 20
301.0313880473069
 30
0.0
 11
804.5012710439198
 21
276.0313880473069
 31
0.0
  0
ARC
  5
28846
330
1F
100
AcDbEntity
  8
saisen
100
AcDbCircle
 10
804.1925817551087
 20
276.0313880473069
 30
0.0
 40
2.0
100
AcDbArc
 50
180.0
 51
270.0
  0
LINE
  5
28847
330
1F
100
AcDbEntity
  8
saisen
100
AcDbLine
 10
807.728438922517
 20
278.0313880473069
 30
0.0
 11
809.7284389225169
 21
276.0313880473069
 31
0.0
  0
ARC
  5
28848
330
1F
100
AcDbEntity
  8
saisen
100
AcDbCircle
 10
806.50127104392
 20
276.0313880473069
 30
0.0
 40
2.0
100
AcDbArc
 50
180.0
 51
270.0
  0
ARC
  5
28849
330
1F
100
AcDbEntity
  8
saisen
100
AcDbCircle
 10
804.1925817551087
 20
301.0313880473069
 30
0.0
 40
2.0
100
AcDbArc
 50
90.0
 51
180.0
  0
ARC
  5
2884A
330
1F
100
AcDbEntity
  8
saisen
100
AcDbCircle
 10
806.50127104392
 20
301.0313880473069
 30
0.0
 40
2.0
100
AcDbArc
 50
90.0
 51
180.0
  0
ARC
  5
2884B
330
1F
100
AcDbEntity
  8
saisen
100
AcDbCircle
 10
818.3785820500881
 20
301.0313880473069
 30
0.0
 40
2.0
100
AcDbArc
 50
0.0
 51
90.0
  0
LINE
  5
2884C
330
1F
100
AcDbEntity
  8
saisen
100
AcDbLine
 10
809.7284389225169
 20
301.0313880473069
 30
0.0
 11
807.728438922517
 21
299.0313880473069
 31
0.0
  0
ARC
  5
2884D
330
1F
100
AcDbEntity
  8
hasen
100
AcDbCircle
 10
815.8085673337632
 20
299.0313880473069
 30
0.0
 40
2.0
100
AcDbArc
 50
4.588565735781683
 51
90.0
  0
LINE
  5
2884E
330
1F
100
AcDbEntity
  8
saisen
100
AcDbLine
 10
818.3785820500881
 20
303.0313880473069
 30
0.0
 11
804.1925817551087
 21
303.0313880473069
 31
0.0
  0
LINE
  5
2884F
330
1F
100
AcDbEntity
  8
0
100
AcDbLine
 10
905.0530358024962
 20
276.0313880473069
 30
0.0
 11
905.0530358024955
 21
222.0313880473068
 31
0.0
  0
LINE
  5
28850
330
1F
100
AcDbEntity
  8
0
100
AcDbLine
 10
900.0530358024962
 20
223.0313880473068
 30
0.0
 11
900.0530358024962
 21
273.0313880473068
 31
0.0
  0
LINE
  5
28851
330
1F
100
AcDbEntity
  8
0
100
AcDbLine
 10
904.0530358024955
 20
221.0313880473068
 30
0.0
 11
902.0530358024961
 21
221.0313880473068
 31
0.0
  0
ARC
  5
28852
330
1F
100
AcDbEntity
  8
0
100
AcDbCircle
 10
902.0530358024961
 20
223.0313880473068
 30
0.0
 40
2.0
100
AcDbArc
 50
180.0
 51
270.0
  0
ARC
  5
28853
330
1F
100
AcDbEntity
  8
0
100
AcDbCircle
 10
904.0530358024955
 20
222.0313880473068
 30
0.0
 40
1.0
100
AcDbArc
 50
270.0
 51
0.0
  0
LINE
  5
28854
330
1F
100
AcDbEntity
  8
hasen
100
AcDbLine
 10
916.8899316746564
 20
274.0313880473069
 30
0.0
 11
900.320984994927
 21
274.0313880473069
 31
0.0
  0
LINE
  5
28855
330
1F
100
AcDbEntity
  8
0
100
AcDbLine
 10
899.0530358024962
 20
276.0313880473069
 30
0.0
 11
954.0530358024962
 21
276.0313880473069
 31
0.0
  0
ARC
  5
28856
330
1F
100
AcDbEntity
  8
0
100
AcDbCircle
 10
930.0530358024962
 20
301.0313880473084
 30
0.0
 40
25.0000000000027
100
AcDbArc
 50
192.7045803510591
 51
237.7957724960266
  0
LINE
  5
28857
330
1F
100
AcDbEntity
  8
0
100
AcDbLine
 10
916.1966293419437
 20
278.0313880473069
 30
0.0
 11
899.5530358024963
 21
278.0313880473069
 31
0.0
  0
ARC
  5
28858
330
1F
100
AcDbEntity
  8
0
100
AcDbCircle
 10
930.0530358024962
 20
301.0313880473069
 30
0.0
 40
22.99999999999991
100
AcDbArc
 50
184.5885657357816
 51
270.0
  0
LINE
  5
28859
330
1F
100
AcDbEntity
  8
0
100
AcDbLine
 10
897.0530358024962
 20
299.0313880473069
 30
0.0
 11
897.0530358024962
 21
278.0313880473069
 31
0.0
  0
LINE
  5
2885A
330
1F
100
AcDbEntity
  8
0
100
AcDbLine
 10
899.0530358024962
 20
278.5313880473069
 30
0.0
 11
899.0530358024962
 21
298.5313880473068
 31
0.0
  0
LINE
  5
2885B
330
1F
100
AcDbEntity
  8
0
100
AcDbLine
 10
904.0530358024962
 20
275.0313880473068
 30
0.0
 11
902.0530358024961
 21
275.0313880473068
 31
0.0
  0
ARC
  5
2885C
330
1F
100
AcDbEntity
  8
0
100
AcDbCircle
 10
902.0530358024961
 20
273.0313880473068
 30
0.0
 40
2.0
100
AcDbArc
 50
90.0
 51
180.0
  0
LINE
  5
2885D
330
1F
100
AcDbEntity
  8
0
100
AcDbLine
 10
897.0530358024962
 20
278.0313880473069
 30
0.0
 11
899.0530358024962
 21
276.0313880473069
 31
0.0
  0
LINE
  5
2885E
330
1F
100
AcDbEntity
  8
0
100
AcDbLine
 10
899.5530358024963
 20
278.0313880473069
 30
0.0
 11
899.0530358024962
 21
278.5313880473069
 31
0.0
  0
ARC
  5
2885F
330
1F
100
AcDbEntity
  8
0
100
AcDbCircle
 10
904.0530358024962
 20
274.0313880473069
 30
0.0
 40
1.0
100
AcDbArc
 50
0.0
 51
90.0
  0
ARC
  5
28860
330
1F
100
AcDbEntity
  8
saisen
100
AcDbCircle
 10
862.3763239815414
 20
303.0313880473091
 30
0.0
 40
23.00000000004639
100
AcDbArc
 50
355.0114580244507
 51
0.0
  0
LINE
  5
28861
330
1F
100
AcDbEntity
  8
saisen
100
AcDbLine
 10
891.826481577843
 20
303.0313880473069
 30
0.0
 11
891.826481577843
 21
301.0313880473069
 31
0.0
  0
ARC
  5
28862
330
1F
100
AcDbEntity
  8
saisen
100
AcDbCircle
 10
857.5558663886617
 20
303.0327120895154
 30
0.0
 40
23.00000000004639
100
AcDbArc
 50
357.5080936310235
 51
0.0
  0
ARC
  5
28863
330
1F
100
AcDbEntity
  8
saisen
100
AcDbCircle
 10
903.9861957740235
 20
303.0327120895154
 30
0.0
 40
23.00000000004639
100
AcDbArc
 50
183.6596653506444
 51
184.9885419755493
  0
ARC
  5
28864
330
1F
100
AcDbEntity
  8
saisen
100
AcDbCircle
 10
880.5341169748599
 20
301.5327120895132
 30
0.0
 40
0.5
100
AcDbArc
 50
3.659665350644443
 51
90.0
  0
ARC
  5
28865
330
1F
100
AcDbEntity
  8
hasen
100
AcDbCircle
 10
888.7463531665988
 20
299.0313880473069
 30
0.0
 40
2.0
100
AcDbArc
 50
90.0
 51
175.4114342641922
  0
LINE
  5
28866
330
1F
100
AcDbEntity
  8
saisen
100
AcDbLine
 10
880.5558663887087
 20
306.0313880473068
 30
0.0
 11
889.6634557348843
 21
306.0313880473068
 31
0.0
  0
LINE
  5
28867
330
1F
100
AcDbEntity
  8
saisen
100
AcDbLine
 10
883.3987003537393
 20
303.0313880473069
 30
0.0
 11
891.826481577843
 21
303.0313880473069
 31
0.0
  0
LINE
  5
28868
330
1F
100
AcDbEntity
  8
saisen
100
AcDbLine
 10
880.5558663887081
 20
303.0327120895131
 30
0.0
 11
880.5558663887081
 21
306.0327120895132
 31
0.0
  0
LINE
  5
28869
330
1F
100
AcDbEntity
  8
saisen
100
AcDbLine
 10
883.3987003537393
 20
303.0313880473069
 30
0.0
 11
883.3987003537393
 21
306.0313880473068
 31
0.0
  0
LINE
  5
2886A
330
1F
100
AcDbEntity
  8
0
100
AcDbLine
 10
905.1331642137434
 20
301.0313880473069
 30
0.0
 11
899.0530358024962
 21
301.0313880473069
 31
0.0
  0
LINE
  5
2886B
330
1F
100
AcDbEntity
  8
0
100
AcDbLine
 10
899.5530358024963
 20
299.0313880473069
 30
0.0
 11
904.6758807215963
 21
299.0313880473069
 31
0.0
  0
LINE
  5
2886C
330
1F
100
AcDbEntity
  8
0
100
AcDbLine
 10
899.0530358024962
 20
301.0313880473069
 30
0.0
 11
897.0530358024962
 21
299.0313880473069
 31
0.0
  0
LINE
  5
2886D
330
1F
100
AcDbEntity
  8
0
100
AcDbLine
 10
899.0530358024962
 20
298.5313880473068
 30
0.0
 11
899.5530358024963
 21
299.0313880473069
 31
0.0
  0
ARC
  5
2886E
330
1F
100
AcDbEntity
  8
0
100
AcDbCircle
 10
905.1331642137434
 20
299.0313880473069
 30
0.0
 40
2.0
100
AcDbArc
 50
4.588565735781683
 51
90.0
  0
ARC
  5
2886F
330
1F
100
AcDbEntity
  8
0
100
AcDbCircle
 10
930.0530358024744
 20
301.0313880473036
 30
0.0
 40
24.99999999998056
100
AcDbArc
 50
185.6262709461005
 51
192.709032994397
  0
ARC
  5
28870
330
1F
100
AcDbEntity
  8
0
100
AcDbCircle
 10
904.6758807215963
 20
298.5313880473068
 30
0.0
 40
0.5
100
AcDbArc
 50
5.6262709461005
 51
90.0
  0
LINE
  5
28871
330
1F
100
AcDbEntity
  8
0
100
AcDbLine
 10
930.0530358024962
 20
278.0313880473069
 30
0.0
 11
954.0530358024962
 21
278.0313880473069
 31
0.0
  0
LINE
  5
28872
330
1F
100
AcDbEntity
  8
hasen
100
AcDbLine
 10
916.8899316746564
 20
274.0313880473069
 30
0.0
 11
916.8899316746564
 21
276.0313880473069
 31
0.0
  0
ARC
  5
28873
330
1F
100
AcDbEntity
  8
0
100
AcDbCircle
 10
916.1966293419437
 20
279.0313880473068
 30
0.0
 40
1.0
100
AcDbArc
 50
270.0
 51
57.79577249602664
  0
LINE
  5
2887A
330
1F
100
AcDbEntity
  8
0
100
AcDbLine
 10
1040.053035802496
 20
324.0313880473069
 30
0.0
 11
1040.053035802496
 21
299.0313880473047
 31
0.0
  0
LINE
  5
2887B
330
1F
100
AcDbEntity
  8
0
100
AcDbLine
 10
1042.053035802496
 20
324.0313880473069
 30
0.0
 11
1042.053035802496
 21
274.0313880473069
 31
0.0
  0
LINE
  5
2887C
330
1F
100
AcDbEntity
  8
saisen
100
AcDbLine
 10
1012.053035802496
 20
308.0313880473068
 30
0.0
 11
1012.053035802496
 21
460.5795195157563
 31
0.0
  0
LINE
  5
2887D
330
1F
100
AcDbEntity
  8
0
100
AcDbLine
 10
987.9530358024963
 20
278.0313880473069
 30
0.0
 11
987.9530358024963
 21
460.5795195157563
 31
0.0
  0
LINE
  5
2887E
330
1F
100
AcDbEntity
  8
0
100
AcDbLine
 10
982.4530358024963
 20
278.0313880473069
 30
0.0
 11
982.4530358024963
 21
460.5795195157563
 31
0.0
  0
LINE
  5
2887F
330
1F
100
AcDbEntity
  8
0
100
AcDbLine
 10
982.0530358024923
 20
278.0313880473069
 30
0.0
 11
982.0530358024923
 21
460.5795195157563
 31
0.0
  0
LINE
  5
28880
330
1F
100
AcDbEntity
  8
sunpo
100
AcDbLine
 10
932.0913675703977
 20
203.5122719575416
 30
0.0
 11
987.654525101747
 21
203.5122719575416
 31
0.0
  0
TEXT
  5
28881
330
1F
100
AcDbEntity
  8
sunpo
100
AcDbText
 10
935.5804305678038
 20
214.0122719575415
 30
0.0
 40
5.0
  1
ステンレストラスビス
 41
0.75
  7
dim
100
AcDbText
  0
TEXT
  5
28882
330
1F
100
AcDbEntity
  8
sunpo
100
AcDbText
 10
935.5804305678038
 20
205.0122719575415
 30
0.0
 40
5.0
  1
%%c3.5x25 @450以内
 41
0.75
  7
Std
100
AcDbText
  0
LINE
  5
2888E
330
1F
100
AcDbEntity
  8
0
100
AcDbLine
 10
981.0530358024962
 20
263.5313880473069
 30
0.0
 11
981.0530358024962
 21
245.0313880473068
 31
0.0
  0
ARC
  5
2888F
330
1F
100
AcDbEntity
  8
0
100
AcDbCircle
 10
966.0530358024962
 20
245.0313880473068
 30
0.0
 40
15.0
100
AcDbArc
 50
270.0
 51
0.0
  0
LINE
  5
28891
330
1F
100
AcDbEntity
  8
0
100
AcDbLine
 10
980.0530358024962
 20
276.031388047315
 30
0.0
 11
1012.053035802496
 21
276.0313880473109
 31
0.0
  0
LINE
  5
28892
330
1F
100
AcDbEntity
  8
0
100
AcDbLine
 10
1042.053035802496
 20
274.0313880473069
 30
0.0
 11
987.0530358025007
 21
274.0313880473069
 31
0.0
  0
LINE
  5
28893
330
1F
100
AcDbEntity
  8
0
100
AcDbLine
 10
982.0530358024962
 20
278.0313880473047
 30
0.0
 11
1012.053035802496
 21
278.0313880473047
 31
0.0
  0
LINE
  5
28894
330
1F
100
AcDbEntity
  8
0
100
AcDbLine
 10
987.9530358024963
 20
308.0313880473068
 30
0.0
 11
1012.053035802496
 21
308.0313880473068
 31
0.0
  0
LINE
  5
28895
330
1F
100
AcDbEntity
  8
saisen
100
AcDbLine
 10
987.9530358024963
 20
278.0313880473069
 30
0.0
 11
1012.053688343724
 21
308.0308637616692
 31
0.0
  0
ARC
  5
28896
330
1F
100
AcDbEntity
  8
0
100
AcDbCircle
 10
977.0530358024961
 20
285.0626686246343
 30
0.0
 40
3.000000000001332
100
AcDbArc
 50
0.0
 51
64.24999688077654
  0
LINE
  5
28897
330
1F
100
AcDbEntity
  8
0
100
AcDbLine
 10
980.0530358024962
 20
285.0626686246355
 30
0.0
 11
980.0530358024962
 21
276.0313880473069
 31
0.0
  0
LINE
  5
28898
330
1F
100
AcDbEntity
  8
0
100
AcDbLine
 10
987.0530358025007
 20
274.0313880473136
 30
0.0
 11
987.0530358025007
 21
276.0313880473069
 31
0.0
  0
ARC
  5
28899
330
1F
100
AcDbEntity
  8
hasen
100
AcDbCircle
 10
997.978035802498
 20
274.1480547139695
 30
0.0
 40
0.1166666666666667
100
AcDbArc
 50
270.0
 51
0.0
  0
LINE
  5
2889A
330
1F
100
AcDbEntity
  8
hasen
100
AcDbLine
 10
998.094702469165
 20
274.1480547139695
 30
0.0
 11
997.8030358024984
 21
275.3147213806362
 31
0.0
  0
ARC
  5
2889B
330
1F
100
AcDbEntity
  8
hasen
100
AcDbCircle
 10
1001.128035802499
 20
274.1480547139695
 30
0.0
 40
0.1166666666666667
100
AcDbArc
 50
180.0
 51
270.0
  0
LINE
  5
2889C
330
1F
100
AcDbEntity
  8
hasen
100
AcDbLine
 10
1001.303035802498
 20
275.3147213806362
 30
0.0
 11
1001.011369135832
 21
274.1480547139695
 31
0.0
  0
LINE
  5
2889D
330
1F
100
AcDbEntity
  8
0
  6
Continuous
 62
     7
100
AcDbLine
 10
1003.578035802498
 20
274.0313880473029
 30
0.0
 11
1003.578035802498
 21
273.6316717049579
 31
0.0
  0
LINE
  5
2889E
330
1F
100
AcDbEntity
  8
0
100
AcDbLine
 10
995.5280358024982
 20
273.6316717049579
 30
0.0
 11
995.5280358024982
 21
274.0313880473029
 31
0.0
  0
ARC
  5
2889F
330
1F
100
AcDbEntity
  8
0
100
AcDbCircle
 10
999.5530358024984
 20
277.1813880473029
 30
0.0
 40
5.366666666666666
100
AcDbArc
 50
221.4096221092698
 51
318.5903778907302
  0
LINE
  5
288A0
330
1F
100
AcDbEntity
  8
0
100
AcDbLine
 10
1003.578035802498
 20
274.0313880473029
 30
0.0
 11
995.5280358024982
 21
274.0313880473029
 31
0.0
  0
LINE
  5
288A1
330
1F
100
AcDbEntity
  8
0
100
AcDbLine
 10
995.5280358024982
 20
273.6316717049579
 30
0.0
 11
1003.578035802498
 21
273.6316717049579
 31
0.0
  0
LINE
  5
288A2
330
1F
100
AcDbEntity
  8
kijun
100
AcDbLine
 10
999.5530358024984
 20
284.5197213806362
 30
0.0
 11
999.5530358024984
 21
270.6597213806363
 31
0.0
  0
LINE
  5
288A3
330
1F
100
AcDbEntity
  8
hasen
100
AcDbLine
 10
997.8030358024984
 20
275.3147213806362
 30
0.0
 11
997.8030358024984
 21
283.3647213806362
 31
0.0
  0
LINE
  5
288A4
330
1F
100
AcDbEntity
  8
hasen
100
AcDbLine
 10
1001.303035802498
 20
283.3647213806362
 30
0.0
 11
1001.303035802498
 21
275.3147213806362
 31
0.0
  0
LINE
  5
288A5
330
1F
100
AcDbEntity
  8
0
100
AcDbLine
 10
978.9729073912502
 20
301.0313880473069
 30
0.0
 11
982.0530358024962
 21
301.0313880473069
 31
0.0
  0
ARC
  5
288A6
330
1F
100
AcDbEntity
  8
0
100
AcDbCircle
 10
977.0530358024961
 20
285.0626686246355
 30
0.0
 40
2.999999999999923
100
AcDbArc
 50
90.0
 51
145.2280559680591
  0
ARC
  5
288A7
330
1F
100
AcDbEntity
  8
0
100
AcDbCircle
 10
977.0530358024961
 20
285.0626686246364
 30
0.0
 40
2.999999999999004
100
AcDbArc
 50
70.52877936549982
 51
90.0
  0
ARC
  5
288A8
330
1F
100
AcDbEntity
  8
0
100
AcDbCircle
 10
978.9729073912502
 20
299.0313880473069
 30
0.0
 40
2.0
100
AcDbArc
 50
90.0
 51
175.4114342641922
  0
LINE
  5
288A9
330
1F
100
AcDbEntity
  8
0
100
AcDbLine
 10
978.0530358024961
 20
287.8910957493817
 30
0.0
 11
978.3563717218102
 21
287.7647632716487
 31
0.0
  0
LINE
  5
288AA
330
1F
100
AcDbEntity
  8
0
100
AcDbLine
 10
1040.553035802496
 20
297.5313880473048
 30
0.0
 11
1040.553035802496
 21
275.5313880473068
 31
0.0
  0
LINE
  5
288AB
330
1F
100
AcDbEntity
  8
0
100
AcDbLine
 10
1013.553035802496
 20
297.5313880473086
 30
0.0
 11
1013.553035802496
 21
275.5313880473104
 31
0.0
  0
LINE
  5
288AC
330
1F
100
AcDbEntity
  8
0
100
AcDbLine
 10
1012.053035802496
 20
276.0313880473069
 30
0.0
 11
1012.053035802496
 21
308.0313880473068
 31
0.0
  0
LINE
  5
288AD
330
1F
100
AcDbEntity
  8
0
100
AcDbLine
 10
1013.553035802496
 20
275.5313880473104
 30
0.0
 11
1040.553035802496
 21
275.5313880473068
 31
0.0
  0
LINE
  5
288AE
330
1F
100
AcDbEntity
  8
0
100
AcDbLine
 10
1040.053035802496
 20
299.0313880473047
 30
0.0
 11
1012.053035802496
 21
299.0313880473086
 31
0.0
  0
LINE
  5
288AF
330
1F
100
AcDbEntity
  8
0
100
AcDbLine
 10
1040.553035802496
 20
297.5313880473048
 30
0.0
 11
1013.553035802496
 21
297.5313880473086
 31
0.0
  0
LINE
  5
288CD
330
1F
100
AcDbEntity
  8
saisen
100
AcDbLine
 10
1042.053035802496
 20
324.0313880473069
 30
0.0
 11
1042.053035802496
 21
460.5795195157561
 31
0.0
  0
DIMENSION
  5
288CE
330
1F
100
AcDbEntity
  8
sunpo
100
AcDbDimension
  2
*D29
 10
1012.053035802496
 20
349.4797172161998
 30
0.0
 11
997.0530358024943
 21
353.7297172161998
 31
0.0
 70
    32
  1
<>
 71
     5
 42
30.00000000000364
  3
寸法線
100
AcDbAlignedDimension
 13
982.0530358024923
 23
349.4797172161998
 33
0.0
 14
1012.053035802496
 24
349.4797172161998
 34
0.0
100
AcDbRotatedDimension
  0
LINE
  5
288CF
330
1F
100
AcDbEntity
  8
0
100
AcDbLine
 10
1042.053035802496
 20
324.0313880473069
 30
0.0
 11
1040.053035802496
 21
324.0313880473069
 31
0.0
  0
TEXT
  5
288D3
330
1F
100
AcDbEntity
  8
sunpo
100
AcDbText
 10
1003.880550550976
 20
223.6646381441401
 30
0.0
 40
5.0
  1
アルミ捨枠
  7
dim
100
AcDbText
  0
TEXT
  5
288D4
330
1F
100
AcDbEntity
  8
sunpo
100
AcDbText
 10
927.9808285013178
 20
734.9210890457146
 30
0.0
 40
5.0
  1
ステンレストラスビス
 41
0.75
  7
Std
100
AcDbText
  0
TEXT
  5
288D5
330
1F
100
AcDbEntity
  8
sunpo
100
AcDbText
 10
927.9808285013178
 20
725.9210890457146
 30
0.0
 40
5.0
  1
%%c3.5x25 @450以内
 41
0.75
  7
Std
100
AcDbText
  0
LINE
  5
288D6
330
1F
100
AcDbEntity
  8
sunpo
100
AcDbLine
 10
926.8183826816285
 20
724.4210890457146
 30
0.0
 11
981.0778271884306
 21
724.4210890457146
 31
0.0
  0
LINE
  5
288D7
330
1F
100
AcDbEntity
  8
hasen
100
AcDbLine
 10
887.0530358024941
 20
698.0213727033699
 30
0.0
 11
982.4530358024963
 21
698.0213727033699
 31
0.0
  0
LINE
  5
288D8
330
1F
100
AcDbEntity
  8
saisen
100
AcDbLine
 10
977.053035802499
 20
698.0213727033728
 30
0.0
 11
891.7276897086713
 21
698.0213727033723
 31
0.0
  0
LINE
  5
288D9
330
1F
100
AcDbEntity
  8
saisen
100
AcDbLine
 10
977.0530358024982
 20
680.0213727033701
 30
0.0
 11
891.7276897086713
 21
680.0213727033693
 31
0.0
  0
LINE
  5
288DA
330
1F
100
AcDbEntity
  8
saisen
100
AcDbLine
 10
978.0530358024966
 20
679.0213727033719
 30
0.0
 11
891.7276897086713
 21
679.0213727033712
 31
0.0
  0
LINE
  5
288DB
330
1F
100
AcDbEntity
  8
saisen
100
AcDbLine
 10
978.0530358024975
 20
699.0213727033717
 30
0.0
 11
883.8161658367432
 21
699.0213727033711
 31
0.0
  0
DIMENSION
  5
288DC
330
1F
100
AcDbEntity
  8
sunpo
100
AcDbDimension
  2
*D30
 10
1042.053035802495
 20
605.702811014675
 30
0.0
 11
964.5231391286653
 21
605.702811014675
 31
0.0
 70
   160
  1
両端部　<>
 71
     5
 42
124.9999999999963
  3
寸法線
100
AcDbAlignedDimension
 13
917.0530358024988
 23
605.702811014675
 33
0.0
 14
1042.053035802495
 24
605.702811014675
 34
0.0
100
AcDbRotatedDimension
  0
DIMENSION
  5
288DD
330
1F
100
AcDbEntity
  8
sunpo
100
AcDbDimension
  2
*D31
 10
781.3858568848489
 20
699.0213727033643
 30
0.0
 11
777.135856884849
 21
689.0213727033908
 31
0.0
 70
    32
  1
<>
 71
     5
 42
19.99999999994748
  3
寸法線
100
AcDbAlignedDimension
 13
854.8209952248766
 23
679.021372703417
 33
0.0
 14
781.3858568848489
 24
699.0213727033643
 34
0.0
 50
90.0
100
AcDbRotatedDimension
  0
TEXT
  5
288DE
330
1F
100
AcDbEntity
  8
sunpo
100
AcDbText
 10
774.6306563259727
 20
623.1113951012543
 30
0.0
 40
5.0
  1
曲面塗板
  7
Std
100
AcDbText
  0
LINE
  5
288DF
330
1F
100
AcDbEntity
  8
saisen
100
AcDbLine
 10
771.9785992214468
 20
629.702811014675
 30
0.0
 11
799.9785992214468
 21
629.702811014675
 31
0.0
  0
LINE
  5
288E0
330
1F
100
AcDbEntity
  8
saisen
100
AcDbLine
 10
799.9785992214468
 20
621.702811014675
 30
0.0
 11
771.9785992214468
 21
621.702811014675
 31
0.0
  0
LINE
  5
288E1
330
1F
100
AcDbEntity
  8
sunpo
100
AcDbLine
 10
771.8502362742015
 20
602.702811014675
 30
0.0
 11
867.7699335680809
 21
602.702811014675
 31
0.0
  0
TEXT
  5
288E2
330
1F
100
AcDbEntity
  8
sunpo
100
AcDbText
 10
774.1387872443132
 20
604.4064859935836
 30
0.0
 40
5.0
  1
t0.4鋼板プレス加工 フラッシュ
  7
Std
100
AcDbText
  0
TEXT
  5
288E3
330
1F
100
AcDbEntity
  8
sunpo
100
AcDbText
 10
774.6306563259727
 20
613.1113951012541
 30
0.0
 40
5.0
  1
耐水ラワン合板 ァ5.5下地
  7
Std
100
AcDbText
  0
LINE
  5
288E4
330
1F
100
AcDbEntity
  8
sunpo
100
AcDbLine
 10
771.8502362742015
 20
611.702811014675
 30
0.0
 11
867.7699335680809
 21
611.702811014675
 31
0.0
  0
LINE
  5
288E5
330
1F
100
AcDbEntity
  8
saisen
100
AcDbLine
 10
771.9785992214468
 20
621.702811014675
 30
0.0
 11
771.9785992214468
 21
629.702811014675
 31
0.0
  0
LINE
  5
288E7
330
1F
100
AcDbEntity
  8
saisen
100
AcDbLine
 10
799.9785992214468
 20
621.702811014675
 30
0.0
 11
799.9785992214468
 21
629.702811014675
 31
0.0
  0
LINE
  5
288E8
330
1F
100
AcDbEntity
  8
saisen
100
AcDbLine
 10
891.7276897086713
 20
699.0213727033711
 30
0.0
 11
891.7276897086713
 21
656.0630837892313
 31
0.0
  0
LINE
  5
288E9
330
1F
100
AcDbEntity
  8
saisen
100
AcDbLine
 10
883.816165836744
 20
699.0213727033713
 30
0.0
 11
883.8161658367432
 21
656.0630837892313
 31
0.0
  0
LINE
  5
288EA
330
1F
100
AcDbEntity
  8
saisen
100
AcDbLine
 10
878.9423196828975
 20
702.0213727033709
 30
0.0
 11
878.9423196828975
 21
656.0630837892313
 31
0.0
  0
LINE
  5
288EB
330
1F
100
AcDbEntity
  8
saisen
100
AcDbLine
 10
891.7276897086713
 20
656.0630837892313
 30
0.0
 11
878.9423196828975
 21
656.0630837892313
 31
0.0
  0
TEXT
  5
288EC
330
1F
100
AcDbEntity
  8
sunpo
100
AcDbText
 10
932.9649632535975
 20
658.521372703375
 30
0.0
 40
5.0
  1
アルミ枠
  7
Std
100
AcDbText
  0
LINE
  5
288ED
330
1F
100
AcDbEntity
  8
saisen
100
AcDbLine
 10
916.7207281102035
 20
702.0213727033714
 30
0.0
 11
878.9423196828975
 21
702.0213727033709
 31
0.0
  0
LINE
  5
288EE
330
1F
100
AcDbEntity
  8
saisen
100
AcDbLine
 10
916.7207281102035
 20
702.0213727033714
 30
0.0
 11
916.7207281102035
 21
699.0213727033713
 31
0.0
  0
TEXT
  5
288EF
330
1F
100
AcDbEntity
  8
sunpo
100
AcDbText
 10
799.9520953204126
 20
735.5213727033818
 30
0.0
 40
5.0
  1
コーナーキャップ（樹脂）
  7
Std
100
AcDbText
  0
LINE
  5
288FE
330
1F
100
AcDbEntity
  8
0
100
AcDbLine
 10
1040.0530358025
 20
676.0213727033642
 30
0.0
 11
1040.0530358025
 21
651.0213727033632
 31
0.0
  0
LINE
  5
288FF
330
1F
100
AcDbEntity
  8
0
100
AcDbLine
 10
1042.053035802501
 20
701.0213727033629
 30
0.0
 11
1042.053035802501
 21
651.0213727033629
 31
0.0
  0
DIMENSION
  5
28900
330
1F
100
AcDbEntity
  8
sunpo
100
AcDbDimension
  2
*D32
 10
1012.053035802496
 20
620.702811014675
 30
0.0
 11
997.0530358024943
 21
624.952811014675
 31
0.0
 70
    32
  1
<>
 71
     5
 42
30.00000000000364
  3
寸法線
100
AcDbAlignedDimension
 13
982.0530358024923
 23
620.702811014675
 33
0.0
 14
1012.053035802496
 24
620.7028110146742
 34
0.0
100
AcDbRotatedDimension
  0
TEXT
  5
28901
330
1F
100
AcDbEntity
  8
sunpo
100
AcDbText
 10
1023.673883956308
 20
630.202811014675
 30
0.0
 40
5.0
  1
中央部
  7
Std
 72
     1
 11
1032.173883956308
 21
632.702811014675
 31
0.0
100
AcDbText
 73
     2
  0
DIMENSION
  5
28902
330
1F
100
AcDbEntity
  8
sunpo
100
AcDbDimension
  2
*D33
 10
1042.053035802501
 20
620.702811014675
 30
0.0
 11
1027.053035802499
 21
624.952811014675
 31
0.0
 70
    32
  1
<>
 71
     5
 42
30.00000000000546
  3
寸法線
100
AcDbAlignedDimension
 13
1012.053035802496
 23
620.702811014675
 33
0.0
 14
1042.053035802501
 24
620.702811014675
 34
0.0
100
AcDbRotatedDimension
  0
LINE
  5
28905
330
1F
100
AcDbEntity
  8
0
100
AcDbLine
 10
1042.053035802501
 20
651.0213727033629
 30
0.0
 11
1040.0530358025
 21
651.0213727033632
 31
0.0
  0
LINE
  5
2890D
330
1F
100
AcDbEntity
  8
0
100
AcDbLine
 10
1012.053035802496
 20
699.0213727033699
 30
0.0
 11
978.0530358024956
 21
699.0213727033699
 31
0.0
  0
LINE
  5
2890E
330
1F
100
AcDbEntity
  8
0
100
AcDbLine
 10
1042.053035802501
 20
701.0213727033648
 30
0.0
 11
987.0530358025007
 21
701.0213727033699
 31
0.0
  0
LINE
  5
2890F
330
1F
100
AcDbEntity
  8
0
100
AcDbLine
 10
987.9579410783076
 20
669.0213727033701
 30
0.0
 11
1012.057941078307
 21
669.0213727033701
 31
0.0
  0
LINE
  5
28910
330
1F
100
AcDbEntity
  8
saisen
100
AcDbLine
 10
987.9573102236623
 20
669.0218969885357
 30
0.0
 11
1012.058571932953
 21
698.0208484182042
 31
0.0
  0
LINE
  5
28911
330
1F
100
AcDbEntity
  8
0
100
AcDbLine
 10
982.0530358024962
 20
698.0213727033699
 30
0.0
 11
1012.053035802496
 21
698.02137270337
 31
0.0
  0
LINE
  5
28912
330
1F
100
AcDbEntity
  8
hasen
100
AcDbLine
 10
1001.303035802498
 20
691.6880393700355
 30
0.0
 11
1001.303035802498
 21
699.7380393700353
 31
0.0
  0
LINE
  5
28913
330
1F
100
AcDbEntity
  8
hasen
100
AcDbLine
 10
997.8030358024984
 20
699.7380393700353
 30
0.0
 11
997.8030358024984
 21
691.6880393700355
 31
0.0
  0
LINE
  5
28914
330
1F
100
AcDbEntity
  8
kijun
100
AcDbLine
 10
999.5530358024984
 20
690.5330393700356
 30
0.0
 11
999.5530358024984
 21
704.3930393700353
 31
0.0
  0
LINE
  5
28915
330
1F
100
AcDbEntity
  8
0
100
AcDbLine
 10
977.0530358024961
 20
698.02137270337
 30
0.0
 11
978.0530358024961
 21
699.02137270337
 31
0.0
  0
LINE
  5
28916
330
1F
100
AcDbEntity
  8
0
100
AcDbLine
 10
981.0530358024962
 20
680.0213727033697
 30
0.0
 11
981.0530358024962
 21
683.2213727033701
 31
0.0
  0
LINE
  5
28917
330
1F
100
AcDbEntity
  8
0
100
AcDbLine
 10
978.0530358024961
 20
697.52137270337
 30
0.0
 11
978.0530358024961
 21
680.5213727033697
 31
0.0
  0
LINE
  5
28918
330
1F
100
AcDbEntity
  8
0
100
AcDbLine
 10
977.0530358024961
 20
698.02137270337
 30
0.0
 11
977.0530358024961
 21
680.0213727033701
 31
0.0
  0
LINE
  5
28919
330
1F
100
AcDbEntity
  8
0
100
AcDbLine
 10
978.5530358024962
 20
680.0213727033697
 30
0.0
 11
978.0530358024961
 21
680.5213727033697
 31
0.0
  0
LINE
  5
2891A
330
1F
100
AcDbEntity
  8
0
100
AcDbLine
 10
981.0530358024962
 20
680.0213727033697
 30
0.0
 11
978.5530358024962
 21
680.0213727033697
 31
0.0
  0
LINE
  5
2891B
330
1F
100
AcDbEntity
  8
0
100
AcDbLine
 10
982.0530358024962
 20
679.0213727033703
 30
0.0
 11
978.0530358024961
 21
679.0213727033703
 31
0.0
  0
LINE
  5
2891C
330
1F
100
AcDbEntity
  8
0
100
AcDbLine
 10
977.0530358024961
 20
680.0213727033701
 30
0.0
 11
978.0530358024961
 21
679.0213727033703
 31
0.0
  0
LINE
  5
2891D
330
1F
100
AcDbEntity
  8
0
100
AcDbLine
 10
981.0530358024966
 20
698.02137270337
 30
0.0
 11
978.5530358024962
 21
698.02137270337
 31
0.0
  0
LINE
  5
2891E
330
1F
100
AcDbEntity
  8
0
100
AcDbLine
 10
978.0530358024961
 20
697.52137270337
 30
0.0
 11
978.5530358024962
 21
698.02137270337
 31
0.0
  0
LINE
  5
2891F
330
1F
100
AcDbEntity
  8
0
100
AcDbLine
 10
981.0530358024973
 20
694.8213727033698
 30
0.0
 11
982.0530358024962
 21
694.8213727033698
 31
0.0
  0
LINE
  5
28920
330
1F
100
AcDbEntity
  8
0
100
AcDbLine
 10
981.0530358024966
 20
698.02137270337
 30
0.0
 11
981.0530358024973
 21
694.8213727033698
 31
0.0
  0
LINE
  5
28921
330
1F
100
AcDbEntity
  8
0
100
AcDbLine
 10
981.0530358024962
 20
683.2213727033701
 30
0.0
 11
982.0530358024962
 21
683.2213727033701
 31
0.0
  0
LINE
  5
28922
330
1F
100
AcDbEntity
  8
0
100
AcDbLine
 10
982.0530358024956
 20
699.021372703369
 30
0.0
 11
978.0530358024956
 21
699.021372703369
 31
0.0
  0
LINE
  5
28923
330
1F
100
AcDbEntity
  8
0
100
AcDbLine
 10
987.0530358025007
 20
701.0213727033629
 30
0.0
 11
987.0530358025007
 21
699.0213727033699
 31
0.0
  0
LINE
  5
28924
330
1F
100
AcDbEntity
  8
0
  6
Continuous
 62
     7
100
AcDbLine
 10
1003.578035802498
 20
701.0213727033686
 30
0.0
 11
1003.578035802498
 21
701.4210890457137
 31
0.0
  0
LINE
  5
28925
330
1F
100
AcDbEntity
  8
hasen
100
AcDbLine
 10
1001.303035802498
 20
699.7380393700353
 30
0.0
 11
1001.011369135832
 21
700.904706036702
 31
0.0
  0
ARC
  5
28926
330
1F
100
AcDbEntity
  8
hasen
100
AcDbCircle
 10
1001.128035802499
 20
700.904706036702
 30
0.0
 40
0.1166666666666667
100
AcDbArc
 50
90.0
 51
180.0
  0
LINE
  5
28927
330
1F
100
AcDbEntity
  8
hasen
100
AcDbLine
 10
998.094702469165
 20
700.904706036702
 30
0.0
 11
997.8030358024984
 21
699.7380393700353
 31
0.0
  0
ARC
  5
28928
330
1F
100
AcDbEntity
  8
hasen
100
AcDbCircle
 10
997.978035802498
 20
700.904706036702
 30
0.0
 40
0.1166666666666667
100
AcDbArc
 50
0.0
 51
90.0
  0
LINE
  5
28929
330
1F
100
AcDbEntity
  8
0
100
AcDbLine
 10
995.5280358024982
 20
701.4210890457137
 30
0.0
 11
995.5280358024982
 21
701.0213727033686
 31
0.0
  0
LINE
  5
2892A
330
1F
100
AcDbEntity
  8
0
100
AcDbLine
 10
995.5280358024982
 20
701.4210890457137
 30
0.0
 11
1003.578035802498
 21
701.4210890457137
 31
0.0
  0
LINE
  5
2892B
330
1F
100
AcDbEntity
  8
0
100
AcDbLine
 10
1003.578035802498
 20
701.0213727033686
 30
0.0
 11
995.5280358024982
 21
701.0213727033686
 31
0.0
  0
ARC
  5
2892C
330
1F
100
AcDbEntity
  8
0
100
AcDbCircle
 10
999.5530358024984
 20
697.8713727033687
 30
0.0
 40
5.366666666666666
100
AcDbArc
 50
41.40962210926978
 51
138.5903778907302
  0
LINE
  5
2892E
330
1F
100
AcDbEntity
  8
0
100
AcDbLine
 10
1040.553035802501
 20
699.5213727033699
 30
0.0
 11
1040.553035802501
 21
677.5213727033643
 31
0.0
  0
LINE
  5
2892F
330
1F
100
AcDbEntity
  8
0
100
AcDbLine
 10
1013.553035802501
 20
699.5213727033667
 30
0.0
 11
1013.553035802501
 21
677.521372703364
 31
0.0
  0
LINE
  5
28930
330
1F
100
AcDbEntity
  8
0
100
AcDbLine
 10
1012.053035802496
 20
699.0213727033699
 30
0.0
 11
1012.053035802496
 21
669.0213727033701
 31
0.0
  0
LINE
  5
28931
330
1F
100
AcDbEntity
  8
0
100
AcDbLine
 10
1013.553035802501
 20
677.5213727033685
 30
0.0
 11
1040.553035802501
 21
677.5213727033643
 31
0.0
  0
LINE
  5
28932
330
1F
100
AcDbEntity
  8
0
100
AcDbLine
 10
1012.053035802501
 20
676.0213727033685
 30
0.0
 11
1040.0530358025
 21
676.0213727033642
 31
0.0
  0
LINE
  5
28934
330
1F
100
AcDbEntity
  8
0
100
AcDbLine
 10
1040.553035802501
 20
699.5213727033632
 30
0.0
 11
1013.553035802501
 21
699.5213727033667
 31
0.0
  0
TEXT
  5
2894E
330
1F
100
AcDbEntity
  8
moji
100
AcDbText
 10
72.54858439461611
 20
660.9746024044609
 30
0.0
 40
6.0
  1
壁仕上面
  7
Std
 72
     4
 11
86.14858439461611
 21
663.9746024044609
 31
0.0
100
AcDbText
  0
TEXT
  5
2894F
330
1F
100
AcDbEntity
  8
sunpo
100
AcDbText
 10
92.57574345012093
 20
485.8379022561742
 30
0.0
 40
5.0
  1
アルミ枠
  7
Std
100
AcDbText
  0
LWPOLYLINE
  5
289C4
330
1F
100
AcDbEntity
  8
0
100
AcDbPolyline
 90
        3
 70
     1
 43
0.0
 10
86.14858439461606
 20
677.4746024044609
 10
81.81845737569455
 20
669.9746024044609
 10
90.47871141353828
 20
669.9746024044609
  0
LEADER
  5
289C5
330
1F
100
AcDbEntity
  8
sunpo
100
AcDbLeader
  3
dim2$7
 74
     0
 40
5.0
 41
16.75
 76
     3
 10
146.4557247334187
 20
517.4461539011183
 30
0.0
 10
118.3858190526989
 20
483.9629022561768
 30
0.0
 10
90.37893393510783
 20
483.9629022561768
 30
0.0
213
0.0
223
-2.5
233
0.0
  0
LEADER
  5
289C6
330
1F
100
AcDbEntity
  8
sunpo
100
AcDbLeader
  3
dim2$7
 73
     0
 40
5.0
 76
     3
 10
237.523778987115
 20
531.9461219187815
 30
0.0
 10
252.572659382211
 20
505.8806964774553
 30
0.0
 10
309.3782089905922
 20
505.8806964774553
 30
0.0
340
289C7
213
10.0
223
-2.5
233
0.0
1001
ACAD
1000
DSTYLE
1002
{
1070
   147
1040
0.3
1070
    77
1070
     0
1002
}
  0
MTEXT
  5
289C7
102
{ACAD_REACTORS
330
289C6
102
}
330
1F
100
AcDbEntity
  8
0
100
AcDbMText
 10
297.4715805143757
 20
1685.488859185225
 30
0.0
 40
5.0
 41
0.0
 71
     1
 72
     1
  1

  7
dim
 73
     1
 44
1.0
  0
LEADER
  5
289C8
330
1F
100
AcDbEntity
  8
sunpo
100
AcDbLeader
  3
dim2$7
 73
     0
 40
5.0
 76
     3
 10
134.378001160114
 20
536.2770768505809
 30
0.0
 10
120.2376201033465
 20
511.7852184218746
 30
0.0
 10
94.49122790393312
 20
511.7852184218746
 30
0.0
340
289C9
213
10.0
223
2.5
233
0.0
1001
ACAD
1000
DSTYLE
1002
{
1070
   147
1040
0.3
1070
    77
1070
     0
1002
}
  0
MTEXT
  5
289C9
102
{ACAD_REACTORS
330
289C8
102
}
330
1F
100
AcDbEntity
  8
sunpo
100
AcDbMText
 10
81.38459942771659
 20
1686.393381129644
 30
0.0
 40
5.0
 41
0.0
 71
     9
 72
     1
  1

  7
dim
 73
     1
 44
1.0
  0
LEADER
  5
289CA
330
1F
100
AcDbEntity
  8
sunpo
100
AcDbLeader
  3
dim2$7
 73
     0
 40
5.0
 76
     3
 10
248.7450567962155
 20
662.4746024045483
 30
0.0
 10
219.5898142564035
 20
712.9729637905029
 30
0.0
 10
202.2617331494767
 20
712.9729637905033
 30
0.0
340
289CB
213
10.0
223
2.5
233
0.0
1001
ACAD
1000
DSTYLE
1002
{
1070
   147
1040
0.3
1070
    77
1070
     0
1002
}
  0
MTEXT
  5
289CB
102
{ACAD_REACTORS
330
289CA
102
}
330
1F
100
AcDbEntity
  8
sunpo
100
AcDbMText
 10
189.15510467326
 20
1887.581126498272
 30
0.0
 40
5.0
 41
0.0
 71
     9
 72
     1
  1

  7
dim
 73
     1
 44
1.0
  0
LEADER
  5
289CC
330
1F
100
AcDbEntity
  8
sunpo
100
AcDbLeader
  3
dim2$7
 73
     0
 40
5.0
 76
     3
 10
672.7420267438085
 20
536.2770773294805
 30
0.0
 10
686.8824078005761
 20
511.7852189007743
 30
0.0
 10
748.0526674409166
 20
511.7852189007743
 30
0.0
340
289CD
213
74.22386744092705
223
-2.5
233
0.0
1001
ACAD
1000
DSTYLE
1002
{
1070
   147
1040
0.3
1070
    77
1070
     0
1002
}
  0
MTEXT
  5
289CD
102
{ACAD_REACTORS
330
289CC
102
}
330
1F
100
AcDbEntity
  8
sunpo
100
AcDbMText
 10
670.722171523773
 20
1691.393381608544
 30
0.0
 40
5.0
 41
0.0
 71
     1
 72
     1
  1

  7
dim
 73
     1
 44
1.0
  0
LEADER
  5
289CE
330
1F
100
AcDbEntity
  8
sunpo
100
AcDbLeader
  3
dim2$7
 73
     0
 40
5.0
 76
     3
 10
135.2347602267467
 20
260.9013296831176
 30
0.0
 10
158.3287709943333
 20
300.9013296831203
 30
0.0
 10
231.1091981711753
 20
300.9013296831201
 30
0.0
340
289CF
213
0.0
223
-2.5
233
0.0
1001
ACAD
1000
DSTYLE
1002
{
1070
   147
1040
0.3
1070
    77
1070
     0
1002
}
  0
MTEXT
  5
289CF
102
{ACAD_REACTORS
330
289CE
102
}
330
1F
100
AcDbEntity
  8
sunpo
100
AcDbMText
 10
253.8926447274079
 20
1533.127154065098
 30
0.0
 40
5.0
 41
0.0
 71
     1
 72
     1
  1

  7
dim
 73
     1
 44
1.0
  0
LEADER
  5
289D0
330
1F
100
AcDbEntity
  8
sunpo
100
AcDbLeader
  3
dim2$7
 73
     0
 40
5.0
 76
     3
 10
806.50127104392
 20
303.0313880473069
 30
0.0
 10
781.3748821691168
 20
323.1661206411122
 30
0.0
 10
721.7920861178445
 20
323.1661206411122
 30
0.0
340
289D1
213
-28.42312775565801
223
2.5
233
0.0
1001
ACAD
1000
DSTYLE
1002
{
1070
   147
1040
0.3
1070
    77
1070
     0
1002
}
  0
MTEXT
  5
289D1
102
{ACAD_REACTORS
330
289D0
102
}
330
1F
100
AcDbEntity
  8
sunpo
100
AcDbMText
 10
747.1085853972859
 20
1434.139782869084
 30
0.0
 40
5.0
 41
0.0
 71
     9
 72
     1
  1

  7
dim
 73
     1
 44
1.0
  0
LEADER
  5
289D2
330
1F
100
AcDbEntity
  8
sunpo
100
AcDbLeader
  3
dim2$7
 73
     0
 40
5.0
 76
     3
 10
918.6642357987166
 20
230.0313880473068
 30
0.0
 10
908.9727472662126
 20
198.3395069376397
 30
0.0
 10
838.2716704855175
 20
198.3395069376397
 30
0.0
340
289D3
213
0.131760369334188
223
-0.2999925775284282
233
0.0
1001
ACAD
1000
DSTYLE
1002
{
1070
   147
1040
0.3
1070
    77
1070
     0
1002
}
  0
MTEXT
  5
289D3
102
{ACAD_REACTORS
330
289D2
102
}
330
1F
100
AcDbEntity
  8
sunpo
100
AcDbMText
 10
835.0332816399667
 20
1312.11316174314
 30
0.0
 40
5.0
 41
0.0
 71
     9
 72
     1
  1

  7
dim
 73
     1
 44
1.0
  0
LEADER
  5
289D4
330
1F
100
AcDbEntity
  8
sunpo
100
AcDbLeader
  3
dim2$7
 40
5.0
 76
     3
 10
998.5577677666848
 20
271.9078168997789
 30
0.0
 10
987.654525101747
 20
212.5122719575415
 30
0.0
 10
931.5839488457347
 20
212.5122719575415
 30
0.0
213
0.0
223
2.5
233
0.0
1001
ACAD
1000
DSTYLE
1002
{
1070
   147
1040
0.3
1070
    77
1070
     0
1002
}
  0
LEADER
  5
289D7
330
1F
100
AcDbEntity
  8
sunpo
100
AcDbLeader
  3
dim2$7
 40
5.0
 76
     3
 10
1029.553035802496
 20
274.0313880473069
 30
0.0
 10
1035.165321080832
 20
222.6812595786964
 30
0.0
 10
1001.114201671651
 20
222.6812595786964
 30
0.0
213
0.0
223
2.5
233
0.0
1001
ACAD
1000
DSTYLE
1002
{
1070
   147
1040
0.3
1070
    77
1070
     0
1002
}
  0
LEADER
  5
289D9
330
1F
100
AcDbEntity
  8
sunpo
100
AcDbLeader
  3
dim2$7
 73
     0
 40
5.0
 76
     2
 10
904.1532681973023
 20
620.702811014675
 30
0.0
 10
771.8502362742015
 20
620.702811014675
 30
0.0
340
289DA
213
0.0
223
2.5
233
0.0
1001
ACAD
1000
DSTYLE
1002
{
1070
   147
1040
0.3
1070
    77
1070
     0
1002
}
  0
MTEXT
  5
289DA
102
{ACAD_REACTORS
330
289D9
102
}
330
1F
100
AcDbEntity
  8
sunpo
100
AcDbMText
 10
768.743607797985
 20
1731.676473242647
 30
0.0
 40
5.0
 41
0.0
 71
     9
 72
     1
  1

  7
dim
 73
     1
 44
1.0
  0
LEADER
  5
289DC
330
1F
100
AcDbEntity
  8
sunpo
100
AcDbLeader
  3
dim2$7
 40
5.0
 76
     3
 10
977.0530358024961
 20
689.02137270337
 30
0.0
 10
958.5778271884306
 20
657.0213727033709
 30
0.0
 10
932.9138248687725
 20
657.0213727033753
 30
0.0
213
0.0
223
2.5
233
0.0
1001
ACAD
1000
DSTYLE
1002
{
1070
   147
1040
0.3
1070
    77
1070
     0
1002
}
  0
LEADER
  5
289DD
330
1F
100
AcDbEntity
  8
sunpo
100
AcDbLeader
  3
dim2$7
 40
5.0
 76
     3
 10
998.5577677666832
 20
703.1449438508908
 30
0.0
 10
981.07782718843
 20
733.4210890457146
 30
0.0
 10
926.8183826816285
 20
733.4210890457146
 30
0.0
213
0.0
223
2.5
233
0.0
1001
ACAD
1000
DSTYLE
1002
{
1070
   147
1040
0.3
1070
    77
1070
     0
1002
}
  0
LEADER
  5
289DE
330
1F
100
AcDbEntity
  8
sunpo
100
AcDbLeader
  3
dim2$7
 40
5.0
 76
     3
 10
887.0841150291761
 20
702.0213727033697
 30
0.0
 10
868.6089064151097
 20
734.021372703371
 30
0.0
 10
799.9009569355876
 20
734.021372703382
 30
0.0
213
0.0
223
2.5
233
0.0
1001
ACAD
1000
DSTYLE
1002
{
1070
   147
1040
0.3
1070
    77
1070
     0
1002
}
  0
LWPOLYLINE
  5
289F1
330
1F
100
AcDbEntity
  8
0
100
AcDbPolyline
 90
        7
 70
     1
 43
0.0
 10
145.2347602267468
 20
239.9013296831183
 10
145.2347602267468
 20
265.9013296831183
 10
109.2347602267468
 20
265.9013296831183
 42
0.4142135623730951
 10
101.2347602267468
 20
257.9013296831183
 10
101.2347602267468
 20
221.9013296831183
 10
127.2347602267468
 20
221.9013296831183
 10
127.2347602267468
 20
239.9013296831183
  0
LINE
  5
289F5
330
1F
100
AcDbEntity
  8
hojo
100
AcDbLine
 10
132.7778609217071
 20
551.1914843553214
 30
0.0
 11
132.7778609217071
 21
511.1914843553215
 31
0.0
  0
LEADER
  5
289F6
330
1F
100
AcDbEntity
  8
sunpo
100
AcDbLeader
  3
dim2$7
 74
     0
 40
5.0
 41
16.75
 76
     3
 10
161.9612809933733
 20
471.6073562238027
 30
0.0
 10
128.7579397096306
 20
448.6731103647927
 30
0.0
 10
82.64168756569507
 20
448.6731103647927
 30
0.0
213
0.0
223
-2.5
233
0.0
  0
DIMENSION
  5
289F7
330
1F
100
AcDbEntity
  8
sunpo
100
AcDbDimension
  2
*D5
 10
325.1186326431528
 20
647.4746024046208
 30
0.0
 11
320.8686326431526
 21
632.4746024045479
 31
0.0
 70
    32
  1
<>
 71
     5
 42
30.00000000014598
  3
寸法線
100
AcDbAlignedDimension
 13
325.1186326431523
 23
617.4746024044747
 33
0.0
 14
325.1186326431516
 24
647.4746024046208
 34
0.0
 50
90.0
100
AcDbRotatedDimension
  0
LWPOLYLINE
  5
289F8
330
1F
100
AcDbEntity
  8
0
100
AcDbPolyline
 90
        4
 70
     1
 43
0.0
 10
358.5600139255455
 20
647.4746024044691
 10
383.5600139255408
 20
647.474602404473
 10
383.5600139255423
 20
677.4746024046203
 10
358.5600139255423
 20
677.47460240462
  0
LWPOLYLINE
  5
289F9
330
1F
100
AcDbEntity
  8
0
100
AcDbPolyline
 90
        4
 70
     1
 43
0.0
 10
381.5600139255423
 20
649.4746024044733
 10
381.5600139255423
 20
675.4746024046203
 10
360.5600139255423
 20
675.4746024046201
 10
360.5600139255423
 20
649.4746024044713
  0
LWPOLYLINE
  5
289FA
330
1F
100
AcDbEntity
  8
0
100
AcDbPolyline
 90
        4
 70
     0
 43
0.0
 10
386.0600139255414
 20
623.367669043346
 10
386.0600139255423
 20
647.4746024044727
 10
356.0600139255423
 20
647.4746024044702
 10
356.0600139255414
 20
623.367669043346
  0
TEXT
  5
289FB
330
1F
100
AcDbEntity
  8
sunpo
100
AcDbText
 10
839.6096020777289
 20
199.8395069376397
 30
0.0
 40
5.0
  1
チョークボックス　W型
  7
kanji
100
AcDbText
  0
LINE
  5
28A15
330
1F
100
AcDbEntity
  8
kijun
100
AcDbLine
 10
651.8421669307457
 20
728.8738703569064
 30
0.0
 11
651.8421669307456
 21
677.4746024046205
 31
0.0
  0
LINE
  5
28A16
330
1F
100
AcDbEntity
  8
kijun
100
AcDbLine
 10
651.8421669307457
 20
445.2100934651891
 30
0.0
 11
651.8421669307453
 21
421.2506901689423
 31
0.0
  0
MTEXT
  5
28A17
330
1F
100
AcDbEntity
  8
0
100
AcDbMText
 10
1005.70023418466
 20
757.5991314970382
 30
0.0
 40
6.0
 41
44.3546920035019
 71
     5
 72
     5
  1
《 {\fArial|b0|i0|c0|p32;A }- {\fArial|b0|i0|c0|p32;A }》
  7
gothic
 73
     1
 44
1.0
  0
MTEXT
  5
28A18
330
1F
100
AcDbEntity
  8
0
100
AcDbMText
 10
904.2426115705783
 20
757.5991314970382
 30
0.0
 40
6.0
 41
44.3546920035019
 71
     5
 72
     5
  1
《 {\fArial|b0|i0|c0|p32;B }- {\fArial|b0|i0|c0|p32;B }》
  7
gothic
 73
     1
 44
1.0
  0
LINE
  5
28A19
330
1F
100
AcDbEntity
  8
kijun
100
AcDbLine
 10
503.8600139255423
 20
614.1658770961619
 30
0.0
 11
518.2600139255423
 21
614.1658770961619
 31
0.0
  0
CIRCLE
  5
28A1A
330
1F
100
AcDbEntity
  8
0
100
AcDbCircle
 10
511.0600139255425
 20
614.1658770961619
 30
0.0
 40
6.0
  0
CIRCLE
  5
28A1B
330
1F
100
AcDbEntity
  8
0
100
AcDbCircle
 10
511.0600139255425
 20
614.1658770961619
 30
0.0
 40
5.0
  0
LINE
  5
28A1C
330
1F
100
AcDbEntity
  8
kijun
100
AcDbLine
 10
511.0600139255425
 20
606.9658770961621
 30
0.0
 11
511.0600139255425
 21
621.3658770961617
 31
0.0
  0
ARC
  5
28A1D
330
1F
100
AcDbEntity
  8
0
100
AcDbCircle
 10
-998.9404604678496
 20
-25692.20686613268
 30
0.0
 40
26304.67453951494
100
AcDbArc
 50
86.60007501856611
 51
86.81825088057706
  0
ARC
  5
28A1E
330
1F
100
AcDbEntity
  8
0
100
AcDbCircle
 10
-998.9404604678496
 20
-25692.20686613268
 30
0.0
 40
26224.67453951494
100
AcDbArc
 50
86.58969108925118
 51
86.80853472166502
  0
ARC
  5
28A1F
330
1F
100
AcDbEntity
  8
0
100
AcDbCircle
 10
-998.9404604678496
 20
-25692.20686613268
 30
0.0
 40
26234.67453951494
100
AcDbArc
 50
86.59099254988717
 51
86.80975248717087
  0
ARC
  5
28A20
330
1F
100
AcDbEntity
  8
0
100
AcDbCircle
 10
-998.9404604678496
 20
-25692.20686613268
 30
0.0
 40
26315.57453951494
100
AcDbArc
 50
86.60148493322944
 51
86.81957012736083
  0
ARC
  5
28A21
330
1F
100
AcDbEntity
  8
0
100
AcDbCircle
 10
-998.9404604678496
 20
-25692.20686613268
 30
0.0
 40
26310.07453951494
100
AcDbArc
 50
86.60077365467278
 51
86.81890458921495
  0
ARC
  5
28A22
330
1F
100
AcDbEntity
  8
0
100
AcDbCircle
 10
-998.9404604678496
 20
-25692.20686613268
 30
0.0
 40
26309.67453951494
100
AcDbArc
 50
86.600721913703
 51
86.81885617556956
  0
ARC
  5
28A23
330
1F
100
AcDbEntity
  8
0
100
AcDbCircle
 10
-998.9404604678496
 20
-25692.20686613268
 30
0.0
 40
26339.67453951494
100
AcDbArc
 50
86.604598117893
 51
86.82248311221064
  0
LINE
  5
28A24
330
1F
100
AcDbEntity
  8
0
100
AcDbLine
 10
561.0600139255425
 20
677.4746024046158
 30
0.0
 11
461.0600139255425
 21
677.4746024046208
 31
0.0
  0
LINE
  5
28A25
330
1F
100
AcDbEntity
  8
0
100
AcDbLine
 10
461.0600139255425
 20
647.4746024045057
 30
0.0
 11
561.0600139255425
 21
647.4746024044978
 31
0.0
  0
LINE
  5
28A26
330
1F
100
AcDbEntity
  8
hasen
100
AcDbLine
 10
461.0600139255425
 20
648.9746024044639
 30
0.0
 11
561.0600139255425
 21
648.9746024044523
 31
0.0
  0
LINE
  5
28A27
330
1F
100
AcDbEntity
  8
hasen
100
AcDbLine
 10
461.0600139255425
 20
675.4746024047753
 30
0.0
 11
561.0600139255425
 21
675.4746024047772
 31
0.0
  0
LWPOLYLINE
  5
28A31
330
1F
100
AcDbEntity
  8
moji
  6
Continuous
100
AcDbPolyline
 90
        7
 70
     1
 43
0.0
 10
373.4100139255426
 20
727.1238703569068
 10
373.4100139255426
 20
728.6988703569066
 10
371.1600139255426
 20
726.3738703569067
 10
373.4100139255426
 20
724.0488703569063
 10
373.4100139255426
 20
725.6238703569067
 10
377.1600139255426
 20
725.6238703569067
 10
377.1600139255426
 20
727.1238703569068
  0
LWPOLYLINE
  5
28A32
330
1F
100
AcDbEntity
  8
moji
  6
Continuous
100
AcDbPolyline
 90
        4
 70
     1
 43
0.0
 10
370.9600139255425
 20
728.8738703569064
 10
371.1600139255425
 20
728.8738703569064
 10
371.1600139255425
 20
723.8738703569064
 10
370.9600139255425
 20
723.8738703569064
  0
HATCH
  5
28A33
330
1F
100
AcDbEntity
  8
moji
  6
Continuous
100
AcDbHatch
 10
0.0
 20
0.0
 30
0.0
210
0.0
220
0.0
230
1.0
  2
SOLID
 70
     1
 71
     0
 91
        1
 92
        7
 72
     0
 73
     1
 93
        7
 10
373.4100139255425
 20
727.1238703569068
 10
373.4100139255427
 20
728.6988703569066
 10
371.1600139255425
 20
726.3738703569067
 10
373.4100139255426
 20
724.0488703569067
 10
373.4100139255426
 20
725.6238703569067
 10
377.1600139255426
 20
725.6238703569067
 10
377.1600139255426
 20
727.1238703569068
 97
        0
 75
     0
 76
     1
 47
0.0274036583061721
 98
        1
 10
372.9060552847514
 20
726.6538220726022
450
        0
451
        0
460
0.0
461
0.0
452
        1
462
1.0
453
        2
463
0.0
 63
     5
421
      255
463
1.0
 63
    51
421
 16777113
470
LINEAR
  0
TEXT
  5
28A34
330
1F
100
AcDbEntity
  8
moji
  6
Continuous
100
AcDbText
 10
379.5600139255423
 20
723.2924819145292
 30
0.0
 40
6.0
  1
A
  7
kanji
 11
379.5600139255423
 21
726.2924819145292
 31
0.0
100
AcDbText
 73
     2
  0
TEXT
  5
28A35
330
1F
100
AcDbEntity
  8
moji
  6
Continuous
100
AcDbText
 10
379.560013925542
 20
447.2235994577639
 30
0.0
 40
6.0
  1
A
  7
kanji
 11
379.560013925542
 21
450.2235994577639
 31
0.0
100
AcDbText
 73
     2
  0
HATCH
  5
28A36
330
1F
100
AcDbEntity
  8
moji
  6
Continuous
100
AcDbHatch
 10
0.0
 20
0.0
 30
0.0
210
0.0
220
0.0
230
1.0
  2
SOLID
 70
     1
 71
     0
 91
        1
 92
        7
 72
     0
 73
     1
 93
        7
 10
373.4100139255422
 20
451.0549879001412
 10
373.4100139255422
 20
452.629987900141
 10
371.1600139255422
 20
450.3049879001411
 10
373.4100139255422
 20
447.9799879001411
 10
373.4100139255422
 20
449.5549879001412
 10
377.1600139255422
 20
449.5549879001412
 10
377.1600139255422
 20
451.0549879001412
 97
        0
 75
     0
 76
     1
 47
0.0274036583061721
 98
        1
 10
372.906055284751
 20
450.5849396158366
450
        0
451
        0
460
0.0
461
0.0
452
        1
462
1.0
453
        2
463
0.0
 63
     5
421
      255
463
1.0
 63
    51
421
 16777113
470
LINEAR
  0
LWPOLYLINE
  5
28A37
330
1F
100
AcDbEntity
  8
moji
  6
Continuous
100
AcDbPolyline
 90
        4
 70
     1
 43
0.0
 10
370.9600139255422
 20
452.8049879001412
 10
371.1600139255422
 20
452.8049879001412
 10
371.1600139255422
 20
447.8049879001412
 10
370.9600139255422
 20
447.8049879001412
  0
LWPOLYLINE
  5
28A38
330
1F
100
AcDbEntity
  8
moji
  6
Continuous
100
AcDbPolyline
 90
        7
 70
     1
 43
0.0
 10
373.4100139255422
 20
451.0549879001412
 10
373.4100139255422
 20
452.629987900141
 10
371.1600139255422
 20
450.3049879001411
 10
373.4100139255422
 20
447.9799879001412
 10
373.4100139255422
 20
449.5549879001412
 10
377.1600139255422
 20
449.5549879001412
 10
377.1600139255422
 20
451.0549879001412
  0
TEXT
  5
28A39
330
1F
100
AcDbEntity
  8
moji
  6
Continuous
100
AcDbText
 10
660.3421669307455
 20
723.2924819145292
 30
0.0
 40
6.0
  1
B
  7
kanji
 11
660.3421669307455
 21
726.2924819145292
 31
0.0
100
AcDbText
 73
     2
  0
HATCH
  5
28A3A
330
1F
100
AcDbEntity
  8
moji
  6
Continuous
100
AcDbHatch
 10
0.0
 20
0.0
 30
0.0
210
0.0
220
0.0
230
1.0
  2
SOLID
 70
     1
 71
     0
 91
        1
 92
        7
 72
     0
 73
     1
 93
        7
 10
654.1921669307454
 20
727.1238703569068
 10
654.1921669307454
 20
728.6988703569062
 10
651.9421669307454
 20
726.3738703569064
 10
654.1921669307454
 20
724.0488703569069
 10
654.1921669307454
 20
725.6238703569067
 10
657.9421669307454
 20
725.6238703569067
 10
657.9421669307454
 20
727.1238703569068
 97
        0
 75
     0
 76
     1
 47
0.0274036583061721
 98
        1
 10
653.6882082899543
 20
726.6538220726022
450
        0
451
        0
460
0.0
461
0.0
452
        1
462
1.0
453
        2
463
0.0
 63
     5
421
      255
463
1.0
 63
    51
421
 16777113
470
LINEAR
  0
LWPOLYLINE
  5
28A3B
330
1F
100
AcDbEntity
  8
moji
  6
Continuous
100
AcDbPolyline
 90
        4
 70
     1
 43
0.0
 10
651.7421669307456
 20
728.8738703569064
 10
651.9421669307456
 20
728.8738703569064
 10
651.9421669307456
 20
723.8738703569064
 10
651.7421669307456
 20
723.8738703569064
  0
LWPOLYLINE
  5
28A3C
330
1F
100
AcDbEntity
  8
moji
  6
Continuous
100
AcDbPolyline
 90
        7
 70
     1
 43
0.0
 10
654.1921669307454
 20
727.1238703569068
 10
654.1921669307454
 20
728.6988703569066
 10
651.9421669307454
 20
726.3738703569067
 10
654.1921669307454
 20
724.0488703569063
 10
654.1921669307454
 20
725.6238703569067
 10
657.9421669307454
 20
725.6238703569067
 10
657.9421669307454
 20
727.1238703569068
  0
LWPOLYLINE
  5
28A3D
330
1F
100
AcDbEntity
  8
moji
  6
Continuous
100
AcDbPolyline
 90
        7
 70
     1
 43
0.0
 10
654.1921669307449
 20
424.5006901689423
 10
654.1921669307449
 20
426.0756901689421
 10
651.9421669307449
 20
423.7506901689423
 10
654.1921669307449
 20
421.4256901689425
 10
654.1921669307449
 20
423.0006901689423
 10
657.9421669307452
 20
423.0006901689423
 10
657.9421669307452
 20
424.5006901689423
  0
LWPOLYLINE
  5
28A3E
330
1F
100
AcDbEntity
  8
moji
  6
Continuous
100
AcDbPolyline
 90
        4
 70
     1
 43
0.0
 10
651.7421669307451
 20
426.2506901689423
 10
651.9421669307449
 20
426.2506901689423
 10
651.9421669307449
 20
421.2506901689423
 10
651.7421669307451
 20
421.2506901689423
  0
HATCH
  5
28A3F
330
1F
100
AcDbEntity
  8
moji
  6
Continuous
100
AcDbHatch
 10
0.0
 20
0.0
 30
0.0
210
0.0
220
0.0
230
1.0
  2
SOLID
 70
     1
 71
     0
 91
        1
 92
        7
 72
     0
 73
     1
 93
        7
 10
654.1921669307449
 20
424.5006901689423
 10
654.1921669307452
 20
426.0756901689421
 10
651.9421669307449
 20
423.7506901689423
 10
654.1921669307448
 20
421.425690168942
 10
654.1921669307448
 20
423.0006901689423
 10
657.9421669307452
 20
423.0006901689423
 10
657.9421669307452
 20
424.5006901689423
 97
        0
 75
     0
 76
     1
 47
0.0274036583061721
 98
        1
 10
653.6882082899539
 20
424.0306418846378
450
        0
451
        0
460
0.0
461
0.0
452
        1
462
1.0
453
        2
463
0.0
 63
     5
421
      255
463
1.0
 63
    51
421
 16777113
470
LINEAR
  0
TEXT
  5
28A40
330
1F
100
AcDbEntity
  8
moji
  6
Continuous
100
AcDbText
 10
660.3421669307448
 20
420.669301726565
 30
0.0
 40
6.0
  1
B
  7
kanji
 11
660.3421669307448
 21
423.669301726565
 31
0.0
100
AcDbText
 73
     2
  0
LEADER
  5
29FC2
330
1F
100
AcDbEntity
  8
sunpo
100
AcDbLeader
  3
Std2
 73
     0
 40
21.66666666666666
 41
20.80000000000001
 76
     3
 10
1042.053035802498
 20
155.8105203655561
 30
0.0
 10
1015.354259307745
 20
155.8105203655561
 30
0.0
 10
951.2537762163447
 20
155.8105203655561
 30
0.0
340
29FC3
213
0.0
223
-2.5
233
0.0
1001
ACAD
1000
DSTYLE
1002
{
1070
   147
1040
1.0
1070
    77
1070
     0
1002
}
  0
MTEXT
  5
29FC3
102
{ACAD_REACTORS
330
29FC2
102
}
330
1F
100
AcDbEntity
  8
sunpo
 62
     2
100
AcDbMText
 10
949.2537762163447
 20
158.3105203655561
 30
0.0
 40
5.0
 41
0.0
 71
     3
 72
     1
  1
壁 仕上面\P\P　　　
  7
Std
 73
     1
 44
1.0
  0
LINE
  5
29FC4
330
1F
100
AcDbEntity
  8
躯体
100
AcDbLine
 10
707.3658149958099
 20
686.9746024046214
 30
0.0
 11
576.0600139255425
 21
686.9746024046211
 31
0.0
  0
LINE
  5
29FC8
330
1F
100
AcDbEntity
  8
躯体
100
AcDbLine
 10
707.3658149958097
 20
699.4746024046187
 30
0.0
 11
576.0600139255425
 21
699.4746024046191
 31
0.0
  0
LINE
  5
29FC9
330
1F
100
AcDbEntity
  8
躯体
100
AcDbLine
 10
707.3658149958099
 20
677.4746024046208
 30
0.0
 11
576.0600139255425
 21
677.4746024046205
 31
0.0
  0
LINE
  5
29FD1
330
1F
100
AcDbEntity
  8
躯体
100
AcDbLine
 10
276.0600139255425
 20
699.4746024046198
 30
0.0
 11
72.35879599365834
 21
699.4746024046203
 31
0.0
  0
LINE
  5
29FD2
330
1F
100
AcDbEntity
  8
躯体
100
AcDbLine
 10
276.0600139255426
 20
686.9746024046203
 30
0.0
 11
72.35879599365832
 21
686.9746024046198
 31
0.0
  0
LINE
  5
29FD3
330
1F
100
AcDbEntity
  8
躯体
100
AcDbLine
 10
276.0600139255426
 20
677.47460240462
 30
0.0
 11
72.35879599365832
 21
677.4746024046196
 31
0.0
  0
LINE
  5
29FD4
330
1F
100
AcDbEntity
  8
躯体
100
AcDbLine
 10
446.0600139255425
 20
686.9746024046207
 30
0.0
 11
291.0600139255425
 21
686.9746024046206
 31
0.0
  0
LINE
  5
29FD5
330
1F
100
AcDbEntity
  8
躯体
100
AcDbLine
 10
446.0600139255425
 20
677.4746024046203
 30
0.0
 11
291.0600139255425
 21
677.47460240462
 31
0.0
  0
LINE
  5
29FD6
330
1F
100
AcDbEntity
  8
躯体
100
AcDbLine
 10
446.0600139255423
 20
699.4746024046193
 30
0.0
 11
291.0600139255425
 21
699.4746024046198
 31
0.0
  0
LINE
  5
29FDD
330
1F
100
AcDbEntity
  8
躯体
100
AcDbLine
 10
561.0600139255425
 20
699.4746024046193
 30
0.0
 11
461.0600139255423
 21
699.4746024046194
 31
0.0
  0
LINE
  5
29FDE
330
1F
100
AcDbEntity
  8
躯体
100
AcDbLine
 10
561.0600139255425
 20
686.9746024046211
 30
0.0
 11
461.0600139255423
 21
686.9746024046207
 31
0.0
  0
LINE
  5
29FDF
330
1F
100
AcDbEntity
  8
躯体
100
AcDbLine
 10
561.0600139255425
 20
677.4746024046205
 30
0.0
 11
461.0600139255423
 21
677.4746024046203
 31
0.0
  0
LINE
  5
29FE5
330
1F
100
AcDbEntity
  8
躯体
100
AcDbLine
 10
1042.053035802495
 20
782.0808435579565
 30
0.0
 11
1042.053035802496
 21
480.579519515756
 31
0.0
  0
LINE
  5
29FE6
330
1F
100
AcDbEntity
  8
kijun
100
AcDbLine
 10
1038.547309783071
 20
311.5813880473057
 30
0.0
 11
1081.47640462571
 21
311.5813880473057
 31
0.0
  0
LEADER
  5
2A06C
330
1F
100
AcDbEntity
  8
sunpo
100
AcDbLeader
  3
Std2
 73
     0
 74
     0
 75
     1
 40
13.33333333333333
 41
59.16190476190477
 76
     3
 10
1056.053035802497
 20
313.5313880473088
 30
0.0
 10
1067.422003932128
 20
337.1153424793861
 30
0.0
 10
1072.022003932128
 20
337.1153424793861
 30
0.0
340
2A06D
213
0.0
223
-2.5
233
0.0
1001
ACAD
1000
DSTYLE
1002
{
1070
   147
1040
0.6
1070
    77
1070
     0
1002
}
  0
MTEXT
  5
2A06D
102
{ACAD_REACTORS
330
2A06C
102
}
330
1F
100
AcDbEntity
  8
sunpo
 62
     2
100
AcDbMText
 10
1073.222003932128
 20
339.6153424793861
 30
0.0
 40
5.0
 41
0.0
 71
     1
 72
     1
  1
ユニクロームメッキ 皿ビス\P M4-40（60）
  7
Std
 73
     1
 44
1.0
  0
LINE
  5
2A074
330
1F
100
AcDbEntity
  8
躯体
100
AcDbLine
 10
1042.053035802496
 20
460.5795195157561
 30
0.0
 11
1042.053035802497
 21
152.7503627313978
 31
0.0
  0
LINE
  5
2A077
330
1F
100
AcDbEntity
  8
kijun
100
AcDbLine
 10
1038.547309783075
 20
663.5213727033637
 30
0.0
 11
1081.476404625715
 21
663.5213727033637
 31
0.0
  0
LEADER
  5
2A0FC
330
1F
100
AcDbEntity
  8
sunpo
100
AcDbLeader
  3
Std2
 73
     0
 74
     0
 75
     1
 40
13.33333333333333
 41
59.16190476190477
 76
     3
 10
1056.053035802502
 20
665.471372703367
 30
0.0
 10
1067.422003932133
 20
689.0553271354441
 30
0.0
 10
1072.022003932133
 20
689.0553271354441
 30
0.0
340
2A0FD
213
0.0
223
-2.5
233
0.0
1001
ACAD
1000
DSTYLE
1002
{
1070
   147
1040
0.6
1070
    77
1070
     0
1002
}
  0
MTEXT
  5
2A0FD
102
{ACAD_REACTORS
330
2A0FC
102
}
330
1F
100
AcDbEntity
  8
sunpo
 62
     2
100
AcDbMText
 10
1073.222003932133
 20
691.5553271354441
 30
0.0
 40
5.0
 41
0.0
 71
     1
 72
     1
  1
ユニクロームメッキ 皿ビス\P M4-40（60）
  7
Std
 73
     1
 44
1.0
  0
LINE
  5
2A750
330
1F
100
AcDbEntity
  8
saisen
100
AcDbLine
 10
434.7754520405785
 20
142.2010421937905
 30
0.0
 11
506.2528043530995
 21
142.2010421937905
 31
0.0
  0
LINE
  5
2A751
330
1F
100
AcDbEntity
  8
saisen
100
AcDbLine
 10
435.2754520405785
 20
141.7010421937905
 30
0.0
 11
505.7528043530994
 21
141.7010421937905
 31
0.0
  0
TEXT
  5
2A752
330
1F
100
AcDbEntity
  8
moji
100
AcDbText
 10
441.0136711248705
 20
132.5532458530407
 30
0.0
 40
6.0
  1
正 面 図 1/20
  7
Std
 72
     4
 11
468.4993854105847
 21
135.1246744244692
 31
0.0
100
AcDbText
  0
LINE
  5
2A753
330
1F
100
AcDbEntity
  8
saisen
100
AcDbLine
 10
506.2528043530995
 20
128.5541844154479
 30
0.0
 11
434.7754520405785
 21
128.5541844154479
 31
0.0
  0
LINE
  5
2A754
330
1F
100
AcDbEntity
  8
saisen
100
AcDbLine
 10
505.7528043530994
 20
129.0541844154479
 30
0.0
 11
435.2754520405785
 21
129.0541844154479
 31
0.0
  0
LINE
  5
2A755
330
1F
100
AcDbEntity
  8
saisen
100
AcDbLine
 10
434.7754520405785
 20
128.5541844154479
 30
0.0
 11
434.7754520405785
 21
142.2010421937905
 31
0.0
  0
LINE
  5
2A756
330
1F
100
AcDbEntity
  8
saisen
100
AcDbLine
 10
435.2754520405785
 20
129.0541844154479
 30
0.0
 11
435.2754520405785
 21
141.7010421937905
 31
0.0
  0
LINE
  5
2A757
330
1F
100
AcDbEntity
  8
saisen
100
AcDbLine
 10
505.7528043530994
 20
141.7010421937905
 30
0.0
 11
505.7528043530994
 21
129.0541844154479
 31
0.0
  0
LINE
  5
2A758
330
1F
100
AcDbEntity
  8
saisen
100
AcDbLine
 10
506.2528043530995
 20
142.2010421937905
 30
0.0
 11
506.2528043530995
 21
128.5541844154479
 31
0.0
  0
DIMENSION
  5
2A759
330
1F
100
AcDbEntity
  8
sunpo
100
AcDbDimension
  2
*D68
 10
289.9991727421043
 20
309.0199622791147
 30
0.0
 11
469.9991727421039
 21
313.2199622791147
 31
0.0
 70
    32
  1
W
 71
     5
 42
3599.999999999994
  3
dim2-20
100
AcDbAlignedDimension
 13
649.9991727421035
 23
276.2981386218926
 33
0.0
 14
289.9991727421043
 24
276.2981386218898
 34
0.0
 50
180.0
100
AcDbRotatedDimension
  0
LINE
  5
2A75A
330
1F
100
AcDbEntity
  8
Defpoints
100
AcDbLine
 10
469.9991727421049
 20
285.2981386218908
 30
0.0
 11
469.9991727421036
 21
169.7981386218907
 31
0.0
  0
LINE
  5
2A75B
330
1F
100
AcDbEntity
  8
塗板･掲示板
100
AcDbLine
 10
294.0991727420963
 20
287.298138621891
 30
0.0
 11
645.8991727421099
 21
287.298138621891
 31
0.0
  0
LINE
  5
2A75C
330
1F
100
AcDbEntity
  8
塗板･掲示板
100
AcDbLine
 10
645.8991727421099
 20
285.298138621891
 30
0.0
 11
294.0991727420963
 21
285.298138621891
 31
0.0
  0
LINE
  5
2A75D
330
1F
100
AcDbEntity
  8
塗板･掲示板
100
AcDbLine
 10
646.1991727421035
 20
167.2981386218903
 30
0.0
 11
293.7991727421035
 21
167.2981386218932
 31
0.0
  0
LINE
  5
2A75E
330
1F
100
AcDbEntity
  8
塗板･掲示板
100
AcDbLine
 10
293.7991727421035
 20
169.7981386218914
 30
0.0
 11
646.1991727421035
 21
169.7981386218914
 31
0.0
  0
DIMENSION
  5
2A75F
330
1F
100
AcDbEntity
  8
sunpo
100
AcDbDimension
  2
*D69
 10
319.8209963993211
 20
287.298138621891
 30
0.0
 11
315.620996399321
 21
227.298138621891
 31
0.0
 70
    32
  1
H
 71
     5
 42
1200.0
  3
dim2-20
100
AcDbAlignedDimension
 13
294.0991727420963
 23
167.298138621891
 33
0.0
 14
294.0991727420963
 24
287.298138621891
 34
0.0
 50
90.0
100
AcDbRotatedDimension
  0
LINE
  5
2A760
330
1F
100
AcDbEntity
  8
塗板･掲示板
100
AcDbLine
 10
291.9991727421035
 20
283.1981386218911
 30
0.0
 11
291.9991727421035
 21
169.998138621891
 31
0.0
  0
LINE
  5
2A761
330
1F
100
AcDbEntity
  8
塗板･掲示板
100
AcDbLine
 10
291.9991727421035
 20
283.1981386218911
 30
0.0
 11
291.9991727421035
 21
169.998138621891
 31
0.0
  0
LINE
  5
2A762
330
1F
100
AcDbEntity
  8
塗板･掲示板
100
AcDbLine
 10
289.9991727421035
 20
283.1981386218911
 30
0.0
 11
289.9991727421035
 21
169.998138621891
 31
0.0
  0
LWPOLYLINE
  5
2A763
330
1F
100
AcDbEntity
  8
塗板･掲示板
100
AcDbPolyline
 90
        4
 70
     1
 43
0.0
 10
293.7991727421036
 20
169.998138621891
 10
289.7991727421036
 20
169.998138621891
 10
289.7991727421036
 20
167.0981386218909
 10
293.7991727421036
 20
167.0981386218909
  0
LINE
  5
2A764
330
1F
100
AcDbEntity
  8
塗板･掲示板
100
AcDbLine
 10
289.6991727420963
 20
283.1981386218911
 30
0.0
 11
292.2991727420962
 21
283.1981386218911
 31
0.0
  0
ARC
  5
2A765
330
1F
100
AcDbEntity
  8
塗板･掲示板
100
AcDbCircle
 10
290.4991727420962
 20
286.798138621891
 30
0.0
 40
0.8
100
AcDbArc
 50
90.0
 51
180.0
  0
LINE
  5
2A766
330
1F
100
AcDbEntity
  8
塗板･掲示板
100
AcDbLine
 10
289.6991727420963
 20
286.798138621891
 30
0.0
 11
289.6991727420963
 21
283.1981386218911
 31
0.0
  0
LINE
  5
2A767
330
1F
100
AcDbEntity
  8
塗板･掲示板
100
AcDbLine
 10
294.0991727420963
 20
284.998138621891
 30
0.0
 11
294.0991727420963
 21
287.598138621891
 31
0.0
  0
LINE
  5
2A768
330
1F
100
AcDbEntity
  8
塗板･掲示板
100
AcDbLine
 10
294.0991727420963
 20
287.598138621891
 30
0.0
 11
290.4991727420962
 21
287.598138621891
 31
0.0
  0
LINE
  5
2A769
330
1F
100
AcDbEntity
  8
塗板･掲示板
100
AcDbLine
 10
294.0991727420963
 20
284.998138621891
 30
0.0
 11
292.2991727420962
 21
284.998138621891
 31
0.0
  0
LINE
  5
2A76A
330
1F
100
AcDbEntity
  8
塗板･掲示板
100
AcDbLine
 10
292.2991727420962
 20
284.998138621891
 30
0.0
 11
292.2991727420962
 21
283.1981386218911
 31
0.0
  0
LWPOLYLINE
  5
2A76B
330
1F
100
AcDbEntity
  8
塗板･掲示板
100
AcDbPolyline
 90
        4
 70
     1
 43
0.0
 10
469.9991727421036
 20
167.298138621891
 10
479.9991727421036
 20
167.298138621891
 10
479.9991727421036
 20
161.798138621891
 10
469.9991727421036
 20
161.798138621891
  0
LWPOLYLINE
  5
2A76C
330
1F
100
AcDbEntity
  8
塗板･掲示板
100
AcDbPolyline
 90
        4
 70
     1
 43
0.0
 10
459.9991727421036
 20
167.298138621891
 10
469.9991727421036
 20
167.298138621891
 10
469.9991727421036
 20
161.798138621891
 10
459.9991727421036
 20
161.798138621891
  0
MTEXT
  5
2A76D
330
1F
100
AcDbEntity
  8
moji
100
AcDbMText
 10
469.921812419632
 20
216.5262657056919
 30
0.0
 40
6.0
 41
91.84393749999999
 71
     5
 72
     5
  1
W x H
 73
     1
 44
1.0
  0
CIRCLE
  5
2A76E
330
1F
100
AcDbEntity
  8
saisen
100
AcDbCircle
 10
469.9991727421025
 20
225.3808994942838
 30
0.0
 40
25.0
  0
MTEXT
  5
2A76F
330
1F
100
AcDbEntity
  8
moji
100
AcDbMText
 10
469.921812419632
 20
234.0262657056919
 30
0.0
 40
6.0
 41
91.84393749999999
 71
     5
 72
     5
  1
アルミ枠
 73
     1
 44
1.0
  0
MTEXT
  5
2A770
330
1F
100
AcDbEntity
  8
moji
100
AcDbMText
 10
469.921812419632
 20
225.2762657056919
 30
0.0
 40
6.0
 41
91.84375000000001
 71
     5
 72
     5
  1
曲面黒板
 73
     1
 44
1.0
  0
LINE
  5
2A771
330
1F
100
AcDbEntity
  8
塗板･掲示板
100
AcDbLine
 10
647.9991727421035
 20
283.1981386218911
 30
0.0
 11
647.9991727421035
 21
169.998138621891
 31
0.0
  0
LINE
  5
2A772
330
1F
100
AcDbEntity
  8
塗板･掲示板
100
AcDbLine
 10
649.9991727421035
 20
283.1981386218911
 30
0.0
 11
649.9991727421035
 21
169.998138621891
 31
0.0
  0
LWPOLYLINE
  5
2A773
330
1F
100
AcDbEntity
  8
塗板･掲示板
100
AcDbPolyline
 90
        4
 70
     1
 43
0.0
 10
650.1991727421035
 20
169.998138621891
 10
646.1991727421035
 20
169.998138621891
 10
646.1991727421035
 20
167.0981386218909
 10
650.1991727421035
 20
167.0981386218909
  0
ARC
  5
2A774
330
1F
100
AcDbEntity
  8
塗板･掲示板
100
AcDbCircle
 10
649.4991727421101
 20
286.798138621891
 30
0.0
 40
0.8
100
AcDbArc
 50
0.0
 51
90.0
  0
LINE
  5
2A775
330
1F
100
AcDbEntity
  8
塗板･掲示板
100
AcDbLine
 10
650.2991727421101
 20
283.1981386218911
 30
0.0
 11
647.6991727421101
 21
283.1981386218911
 31
0.0
  0
LINE
  5
2A776
330
1F
100
AcDbEntity
  8
塗板･掲示板
100
AcDbLine
 10
647.6991727421101
 20
284.998138621891
 30
0.0
 11
647.6991727421101
 21
283.1981386218911
 31
0.0
  0
LINE
  5
2A777
330
1F
100
AcDbEntity
  8
塗板･掲示板
100
AcDbLine
 10
645.8991727421099
 20
284.998138621891
 30
0.0
 11
645.8991727421099
 21
287.598138621891
 31
0.0
  0
LINE
  5
2A778
330
1F
100
AcDbEntity
  8
塗板･掲示板
100
AcDbLine
 10
645.8991727421099
 20
284.998138621891
 30
0.0
 11
647.6991727421101
 21
284.998138621891
 31
0.0
  0
LINE
  5
2A779
330
1F
100
AcDbEntity
  8
塗板･掲示板
100
AcDbLine
 10
645.8991727421099
 20
287.598138621891
 30
0.0
 11
649.4991727421101
 21
287.598138621891
 31
0.0
  0
LINE
  5
2A77A
330
1F
100
AcDbEntity
  8
塗板･掲示板
100
AcDbLine
 10
650.2991727421101
 20
286.798138621891
 30
0.0
 11
650.2991727421101
 21
283.1981386218911
 31
0.0
  0
MTEXT
  5
2A77B
330
1F
100
AcDbEntity
  8
wakumoji
100
AcDbMText
 10
509.7500000000003
 20
52.87500000000045
 30
0.0
 40
6.0
 41
0.0
 71
     5
 72
     5
  1
 年   月   日
  7
gothic
 73
     1
 44
1.0
  0
TEXT
  5
2A95C
330
1F
100
AcDbEntity
  8
moji
100
AcDbText
 10
657.1069826306203
 20
44.73087747178988
 30
0.0
 40
7.0
  1
アルミ枠 曲面黒板  詳細図
  7
kanji
 72
     4
 11
708.4403159639537
 21
48.23087747178988
 31
0.0
100
AcDbText
  0
INSERT
  5
2A95D
330
1F
100
AcDbEntity
  8
size
100
AcDbBlockReference
  2
二葉ﾛｺﾞ
 10
923.3571428571432
 20
65.00000000000046
 30
0.0
 41
0.1000000000000014
 42
0.1000000000000227
 43
0.1
  0
MTEXT
  5
2A95E
330
1F
100
AcDbEntity
  8
wakumoji
100
AcDbMText
 10
581.7500000000003
 20
81.00000000000045
 30
0.0
 40
6.0
 41
39.5
 71
     5
 72
     5
  1
1 : 2
  7
gothic
 73
     1
 44
1.0
  0
LWPOLYLINE
  5
2A95F
330
1F
100
AcDbEntity
  8
Defpoints
 62
     4
100
AcDbPolyline
 90
        4
 70
     1
 43
0.0
 10
20.0
 20
20.00000000000046
 10
1168.0
 20
20.00000000000046
 10
1168.0
 20
820.0000000000004
 10
20.0
 20
820.0000000000004
  0
LINE
  5
2A960
330
1F
100
AcDbEntity
  8
size
100
AcDbLine
 10
41.0
 20
89.00000000000046
 30
0.0
 11
1155.0
 21
89.00000000000046
 31
0.0
  0
LINE
  5
2A961
330
1F
100
AcDbEntity
  8
size
100
AcDbLine
 10
1097.0
 20
41.00000000000045
 30
0.0
 11
1097.0
 21
89.00000000000046
 31
0.0
  0
LINE
  5
2A962
330
1F
100
AcDbEntity
  8
size
100
AcDbLine
 10
1097.0
 20
73.00000000000046
 30
0.0
 11
1155.0
 21
73.00000000000046
 31
0.0
  0
MTEXT
  5
2A963
330
1F
100
AcDbEntity
  8
wakumoji
100
AcDbMText
 10
1126.0
 20
81.00000000000045
 30
0.0
 40
8.0
 41
58.0
 71
     5
 72
     5
  1
図面番号
  7
gothic
 73
     1
 44
1.0
  0
LINE
  5
2A964
330
1F
100
AcDbEntity
  8
size
100
AcDbLine
 10
1097.0
 20
72.50000000000046
 30
0.0
 11
1155.0
 21
72.50000000000046
 31
0.0
  0
LINE
  5
2A965
330
1F
100
AcDbEntity
  8
size
100
AcDbLine
 10
1096.5
 20
41.00000000000045
 30
0.0
 11
1096.5
 21
89.00000000000046
 31
0.0
  0
MTEXT
  5
2A966
330
1F
100
AcDbEntity
  8
wakumoji
100
AcDbMText
 10
1097.0
 20
56.75000000000046
 30
0.0
 40
8.0
 41
58.0
 71
     4
 72
     5
  1
Ｎｏ．
  7
gothic
 73
     1
 44
1.0
  0
LINE
  5
2A967
330
1F
100
AcDbEntity
  8
size
100
AcDbLine
 10
900.5
 20
41.00000000000045
 30
0.0
 11
900.5
 21
89.00000000000046
 31
0.0
  0
LINE
  5
2A968
330
1F
100
AcDbEntity
  8
size
100
AcDbLine
 10
900.0
 20
41.00000000000045
 30
0.0
 11
900.0
 21
89.00000000000046
 31
0.0
  0
MTEXT
  5
2A969
330
1F
100
AcDbEntity
  8
wakumoji
100
AcDbMText
 10
900.0000000000005
 20
43.00000000000046
 30
0.0
 40
6.0
 41
101.0
 71
     9
 72
     5
  1
年　　月　　日　
  7
gothic
 73
     1
 44
1.0
  0
LINE
  5
2A96A
330
1F
100
AcDbEntity
  8
size
100
AcDbLine
 10
799.0
 20
41.00000000000045
 30
0.0
 11
799.0
 21
89.00000000000046
 31
0.0
  0
LINE
  5
2A96B
330
1F
100
AcDbEntity
  8
size
100
AcDbLine
 10
798.5
 20
41.00000000000045
 30
0.0
 11
798.5
 21
89.00000000000046
 31
0.0
  0
LINE
  5
2A96C
330
1F
100
AcDbEntity
  8
size
100
AcDbLine
 10
601.5
 20
41.00000000000045
 30
0.0
 11
601.5
 21
89.00000000000046
 31
0.0
  0
LINE
  5
2A96D
330
1F
100
AcDbEntity
  8
size
100
AcDbLine
 10
602.0
 20
41.00000000000045
 30
0.0
 11
602.0
 21
89.00000000000046
 31
0.0
  0
MTEXT
  5
2A96E
330
1F
100
AcDbEntity
  8
wakumoji
100
AcDbMText
 10
603.0000000000003
 20
63.75000000000046
 30
0.0
 40
7.0
 41
196.5
 71
     1
 72
     5
  1
図面名
  7
gothic
 73
     1
 44
1.0
  0
MTEXT
  5
2A96F
330
1F
100
AcDbEntity
  8
wakumoji
100
AcDbMText
 10
603.0000000000003
 20
88.00000000000045
 30
0.0
 40
7.0
 41
196.5
 71
     1
 72
     5
  1
工事名
  7
gothic
 73
     1
 44
1.0
  0
LINE
  5
2A970
330
1F
100
AcDbEntity
  8
size
100
AcDbLine
 10
602.0
 20
64.75000000000045
 30
0.0
 11
798.5
 21
64.75000000000045
 31
0.0
  0
LINE
  5
2A971
330
1F
100
AcDbEntity
  8
size
100
AcDbLine
 10
562.0
 20
41.00000000000045
 30
0.0
 11
562.0
 21
89.00000000000046
 31
0.0
  0
LINE
  5
2A972
330
1F
100
AcDbEntity
  8
size
100
AcDbLine
 10
561.5
 20
41.00000000000045
 30
0.0
 11
561.5
 21
89.00000000000046
 31
0.0
  0
LINE
  5
2A973
330
1F
100
AcDbEntity
  8
size
100
AcDbLine
 10
547.5
 20
41.00000000000045
 30
0.0
 11
547.5
 21
89.00000000000046
 31
0.0
  0
LINE
  5
2A974
330
1F
100
AcDbEntity
  8
size
100
AcDbLine
 10
548.0
 20
41.00000000000045
 30
0.0
 11
548.0
 21
89.00000000000046
 31
0.0
  0
LINE
  5
2A975
330
1F
100
AcDbEntity
  8
size
100
AcDbLine
 10
602.0
 20
65.25000000000045
 30
0.0
 11
798.5
 21
65.25000000000045
 31
0.0
  0
LINE
  5
2A976
330
1F
100
AcDbEntity
  8
size
100
AcDbLine
 10
53.0
 20
65.00000000000046
 30
0.0
 11
399.5
 21
65.00000000000046
 31
0.0
  0
MTEXT
  5
2A977
330
1F
100
AcDbEntity
  8
wakumoji
100
AcDbMText
 10
554.7500000000003
 20
65.00000000000046
 30
0.0
 40
7.0
 41
13.5
 71
     5
 72
     5
  1
縮尺
  7
gothic
 73
     1
 44
1.0
  0
MTEXT
  5
2A978
330
1F
100
AcDbEntity
  8
wakumoji
100
AcDbMText
 10
581.7500000000003
 20
65.00000000000046
 30
0.0
 40
6.0
 41
39.5
 71
     5
 72
     5
  1
1 : 20
  7
gothic
 73
     1
 44
1.0
  0
MTEXT
  5
2A979
330
1F
100
AcDbEntity
  8
wakumoji
100
AcDbMText
 10
581.7500000000003
 20
49.00000000000045
 30
0.0
 40
6.0
 41
39.5
 71
     5
 72
     5
  1
 : 
  7
gothic
 73
     1
 44
1.0
  0
LINE
  5
2A97A
330
1F
100
AcDbEntity
  8
size
100
AcDbLine
 10
472.0
 20
41.00000000000045
 30
0.0
 11
472.0
 21
89.00000000000046
 31
0.0
  0
LINE
  5
2A97B
330
1F
100
AcDbEntity
  8
size
100
AcDbLine
 10
471.4999999999998
 20
41.00000000000045
 30
0.0
 11
471.4999999999998
 21
89.00000000000046
 31
0.0
  0
LINE
  5
2A97C
330
1F
100
AcDbEntity
  8
size
100
AcDbLine
 10
458.0
 20
41.00000000000045
 30
0.0
 11
458.0
 21
89.00000000000046
 31
0.0
  0
LINE
  5
2A97D
330
1F
100
AcDbEntity
  8
size
100
AcDbLine
 10
457.5
 20
41.00000000000045
 30
0.0
 11
457.5
 21
89.00000000000046
 31
0.0
  0
LINE
  5
2A97E
330
1F
100
AcDbEntity
  8
size
100
AcDbLine
 10
425.4999999999998
 20
41.00000000000045
 30
0.0
 11
425.4999999999998
 21
89.00000000000046
 31
0.0
  0
LINE
  5
2A97F
330
1F
100
AcDbEntity
  8
size
100
AcDbLine
 10
426.0
 20
41.00000000000045
 30
0.0
 11
426.0
 21
89.00000000000046
 31
0.0
  0
LINE
  5
2A980
330
1F
100
AcDbEntity
  8
size
100
AcDbLine
 10
412.0
 20
41.00000000000045
 30
0.0
 11
412.0
 21
89.00000000000046
 31
0.0
  0
LINE
  5
2A981
330
1F
100
AcDbEntity
  8
size
100
AcDbLine
 10
411.5
 20
41.00000000000045
 30
0.0
 11
411.5
 21
89.00000000000046
 31
0.0
  0
LINE
  5
2A982
330
1F
100
AcDbEntity
  8
size
100
AcDbLine
 10
412.0
 20
65.25000000000045
 30
0.0
 11
547.5
 21
65.25000000000045
 31
0.0
  0
MTEXT
  5
2A983
330
1F
100
AcDbEntity
  8
wakumoji
100
AcDbMText
 10
43.0
 20
88.00000000000045
 30
0.0
 40
6.0
 41
169.5
 71
     1
 72
     5
  1
記事
  7
gothic
 73
     1
 44
1.0
  0
LINE
  5
2A984
330
1F
100
AcDbEntity
  8
size
100
AcDbLine
 10
412.0
 20
64.75000000000045
 30
0.0
 11
547.5
 21
64.75000000000045
 31
0.0
  0
MTEXT
  5
2A985
330
1F
100
AcDbEntity
  8
wakumoji
100
AcDbMText
 10
418.75
 20
77.12500000000045
 30
0.0
 40
6.0
 41
13.5
 71
     5
 72
     5
  1
製図
  7
gothic
 73
     1
 44
1.0
  0
MTEXT
  5
2A986
330
1F
100
AcDbEntity
  8
wakumoji
100
AcDbMText
 10
464.7499999999998
 20
77.12500000000045
 30
0.0
 40
6.0
 41
13.5
 71
     5
 72
     5
  1
作図
  7
gothic
 73
     1
 44
1.0
  0
MTEXT
  5
2A987
330
1F
100
AcDbEntity
  8
wakumoji
100
AcDbMText
 10
418.75
 20
52.87500000000045
 30
0.0
 40
6.0
 41
13.5
 71
     5
 72
     5
  1
担当
  7
gothic
 73
     1
 44
1.0
  0
MTEXT
  5
2A988
330
1F
100
AcDbEntity
  8
wakumoji
100
AcDbMText
 10
464.7499999999998
 20
52.87500000000045
 30
0.0
 40
6.0
 41
13.5
 71
     5
 72
     5
  1
検図
  7
gothic
 73
     1
 44
1.0
  0
MTEXT
  5
2A989
330
1F
100
AcDbEntity
  8
wakumoji
100
AcDbMText
 10
509.7500000000003
 20
77.12500000000045
 30
0.0
 40
6.0
 41
0.0
 71
     5
 72
     5
  1
 年   月   日
  7
gothic
 73
     1
 44
1.0
  0
LWPOLYLINE
  5
2A98A
330
1F
100
AcDbEntity
  8
size
100
AcDbPolyline
 90
        4
 70
     1
 43
0.0
 10
1155.0
 20
41.00000000000045
 10
1155.0
 20
803.000000000001
 10
41.0
 20
803.000000000001
 10
41.0
 20
41.00000000000045
  0
LWPOLYLINE
  5
2A98B
330
1F
100
AcDbEntity
  8
size
100
AcDbPolyline
 90
        4
 70
     1
 43
0.0
 10
40.49999999999999
 20
803.5000000000005
 10
40.49999999999999
 20
40.50000000000046
 10
1155.5
 20
40.50000000000046
 10
1155.5
 20
803.5000000000005
  0
LWPOLYLINE
  5
2A98C
330
1F
100
AcDbEntity
  8
size
100
AcDbPolyline
 90
        4
 70
     1
 43
0.0
 10
1156.0
 20
40.00000000000045
 10
1156.0
 20
804.0000000000004
 10
40.0
 20
804.0000000000004
 10
40.0
 20
40.00000000000045
  0
LWPOLYLINE
  5
2A98D
330
1F
100
AcDbEntity
  8
size
100
AcDbPolyline
 90
        4
 70
     1
 43
0.0
 10
39.5
 20
804.5000000000005
 10
39.5
 20
39.50000000000045
 10
1156.5
 20
39.50000000000045
 10
1156.5
 20
804.5000000000005
  0
LWPOLYLINE
  5
2A98E
330
1F
100
AcDbEntity
  8
size
100
AcDbPolyline
 90
        4
 70
     1
 43
0.0
 10
1157.0
 20
39.00000000000046
 10
1157.0
 20
805.0000000000009
 10
39.0
 20
805.0000000000009
 10
39.0
 20
39.00000000000046
  0
LWPOLYLINE
  5
2A98F
330
1F
100
AcDbEntity
  8
size
100
AcDbPolyline
 90
        4
 70
     1
 43
0.0
 10
38.5
 20
805.5000000000008
 10
38.5
 20
38.50000000000046
 10
1157.5
 20
38.50000000000046
 10
1157.5
 20
805.5000000000008
  0
LWPOLYLINE
  5
2A990
330
1F
100
AcDbEntity
  8
size
100
AcDbPolyline
 90
        4
 70
     1
 43
0.0
 10
1158.0
 20
38.00000000000046
 10
1158.0
 20
806.0000000000004
 10
38.0
 20
806.0000000000004
 10
38.0
 20
38.00000000000046
  0
POLYLINE
  5
2A991
330
1F
100
AcDbEntity
  8
hojo
370
     0
100
AcDb2dPolyline
 66
     1
 10
0.0
 20
0.0
 30
0.0
 70
     1
  0
VERTEX
  5
2A992
330
2A991
100
AcDbEntity
  8
hojo
370
     0
100
AcDbVertex
100
AcDb2dVertex
 10
916.2300443444873
 20
60.95637915195311
 30
0.0
  0
VERTEX
  5
2A993
330
2A991
100
AcDbEntity
  8
hojo
370
     0
100
AcDbVertex
100
AcDb2dVertex
 10
915.6880570010471
 20
62.10261163583187
 30
0.0
  0
VERTEX
  5
2A994
330
2A991
100
AcDbEntity
  8
hojo
370
     0
100
AcDbVertex
100
AcDb2dVertex
 10
914.6704004022748
 20
61.62128258077245
 30
0.0
  0
VERTEX
  5
2A995
330
2A991
100
AcDbEntity
  8
hojo
370
     0
100
AcDbVertex
100
AcDb2dVertex
 10
914.3901172766543
 20
62.21408508263244
 30
0.0
  0
VERTEX
  5
2A996
330
2A991
100
AcDbEntity
  8
hojo
370
     0
100
AcDbVertex
100
AcDb2dVertex
 10
916.9852584906925
 20
63.44127731043522
 30
0.0
  0
VERTEX
  5
2A997
330
2A991
100
AcDbEntity
  8
hojo
370
     0
100
AcDbVertex
100
AcDb2dVertex
 10
917.8946406599015
 20
61.51792971618897
 30
0.0
  0
VERTEX
  5
2A998
330
2A991
100
AcDbEntity
  8
hojo
370
     0
100
AcDbVertex
100
AcDb2dVertex
 10
917.4106047441027
 20
61.28907694461168
 30
0.0
  0
VERTEX
  5
2A999
330
2A991
100
AcDbEntity
  8
hojo
370
     0
100
AcDbVertex
100
AcDb2dVertex
 10
916.7813826613896
 20
62.61962203699773
 30
0.0
  0
VERTEX
  5
2A99A
330
2A991
100
AcDbEntity
  8
hojo
370
     0
100
AcDbVertex
100
AcDb2dVertex
 10
916.1557287132874
 20
62.32358990344119
 30
0.0
  0
VERTEX
  5
2A99B
330
2A991
100
AcDbEntity
  8
hojo
370
     0
100
AcDbVertex
100
AcDb2dVertex
 10
916.6975930176022
 20
61.17735741956221
 30
0.0
  0
SEQEND
  5
2A99C
330
2A991
100
AcDbEntity
  8
hojo
370
     0
  0
SPLINE
  5
2A99D
330
1F
100
AcDbEntity
  8
hojo
370
     0
100
AcDbSpline
210
0.0
220
0.0
230
1.0
 70
    11
 71
     3
 72
    35
 73
    31
 74
     0
 42
0.0000000001
 43
0.0000000001
 40
0.0
 40
0.0
 40
0.0
 40
0.0
 40
1.0
 40
1.0
 40
1.0
 40
2.0
 40
2.0
 40
2.0
 40
3.0
 40
3.0
 40
3.0
 40
4.0
 40
4.0
 40
4.0
 40
5.0
 40
5.0
 40
5.0
 40
6.0
 40
6.0
 40
6.0
 40
7.0
 40
7.0
 40
7.0
 40
8.0
 40
8.0
 40
8.0
 40
9.0
 40
9.0
 40
9.0
 40
10.0
 40
10.0
 40
10.0
 40
10.0
 10
919.1250319049416
 20
57.86022262293522
 30
0.0
 10
918.6081445429003
 20
57.25733091286588
 30
0.0
 10
917.945455818322
 20
57.30728479741424
 30
0.0
 10
917.3398572475134
 20
57.82650990282104
 30
0.0
 10
916.8586512315782
 20
58.23918312640717
 30
0.0
 10
916.4643108375431
 20
58.89842675549971
 30
0.0
 10
917.0783991079423
 20
59.61476053836168
 30
0.0
 10
917.0783991079423
 20
59.61476053836168
 30
0.0
 10
918.2258619830664
 20
60.95342621296481
 30
0.0
 10
918.2258619830664
 20
60.95342621296481
 30
0.0
 10
918.2258619830664
 20
60.95342621296481
 30
0.0
 10
918.7236782808096
 20
60.52672652918523
 30
0.0
 10
918.7236782808096
 20
60.52672652918523
 30
0.0
 10
918.7236782808096
 20
60.52672652918523
 30
0.0
 10
917.5501311112904
 20
59.15779322995422
 30
0.0
 10
917.5501311112904
 20
59.15779322995422
 30
0.0
 10
917.2537298603613
 20
58.81205329009799
 30
0.0
 10
917.4465321684579
 20
58.45474767253813
 30
0.0
 10
917.6789530746459
 20
58.25542429084203
 30
0.0
 10
918.1047914845544
 20
57.89049024756287
 30
0.0
 10
918.442656920442
 20
58.06619011735506
 30
0.0
 10
918.6038381735428
 20
58.25443997784578
 30
0.0
 10
918.6038381735428
 20
58.25443997784578
 30
0.0
 10
919.7773853430616
 20
59.62361935532567
 30
0.0
 10
919.7773853430616
 20
59.62361935532567
 30
0.0
 10
919.7773853430616
 20
59.62361935532567
 30
0.0
 10
920.2723717409414
 20
59.19913437578725
 30
0.0
 10
920.2723717409414
 20
59.19913437578725
 30
0.0
 10
920.2723717409414
 20
59.19913437578725
 30
0.0
 10
919.1250319049416
 20
57.86022262293522
 30
0.0
 10
919.1250319049416
 20
57.86022262293522
 30
0.0
  0
POLYLINE
  5
2A99E
330
1F
100
AcDbEntity
  8
hojo
370
     0
100
AcDb2dPolyline
 66
     1
 10
0.0
 20
0.0
 30
0.0
 70
     1
  0
VERTEX
  5
2A99F
330
2A99E
100
AcDbEntity
  8
hojo
370
     0
100
AcDbVertex
100
AcDb2dVertex
 10
923.0859074009732
 20
57.88483044783607
 30
0.0
  0
VERTEX
  5
2A9A0
330
2A99E
100
AcDbEntity
  8
hojo
370
     0
100
AcDbVertex
100
AcDb2dVertex
 10
922.1430585898993
 20
58.10826949793522
 30
0.0
  0
VERTEX
  5
2A9A1
330
2A99E
100
AcDbEntity
  8
hojo
370
     0
100
AcDbVertex
100
AcDb2dVertex
 10
921.604024185447
 20
55.83647510309401
 30
0.0
  0
VERTEX
  5
2A9A2
330
2A99E
100
AcDbEntity
  8
hojo
370
     0
100
AcDbVertex
100
AcDb2dVertex
 10
920.9623751511587
 20
55.98879753923006
 30
0.0
  0
VERTEX
  5
2A9A3
330
2A99E
100
AcDbEntity
  8
hojo
370
     0
100
AcDbVertex
100
AcDb2dVertex
 10
921.5015325947353
 20
58.26059193407104
 30
0.0
  0
VERTEX
  5
2A9A4
330
2A99E
100
AcDbEntity
  8
hojo
370
     0
100
AcDbVertex
100
AcDb2dVertex
 10
920.5586837836618
 20
58.4842770624191
 30
0.0
  0
VERTEX
  5
2A9A5
330
2A99E
100
AcDbEntity
  8
hojo
370
     0
100
AcDbVertex
100
AcDb2dVertex
 10
920.6822150646637
 20
59.00547079381794
 30
0.0
  0
VERTEX
  5
2A9A6
330
2A99E
100
AcDbEntity
  8
hojo
370
     0
100
AcDbVertex
100
AcDb2dVertex
 10
923.2094386819747
 20
58.40602417923491
 30
0.0
  0
SEQEND
  5
2A9A7
330
2A99E
100
AcDbEntity
  8
hojo
370
     0
  0
SPLINE
  5
2A9A8
330
1F
100
AcDbEntity
  8
hojo
370
     0
100
AcDbSpline
210
0.0
220
0.0
230
1.0
 70
    11
 71
     3
 72
    41
 73
    37
 74
     0
 42
0.0000000001
 43
0.0000000001
 40
0.0
 40
0.0
 40
0.0
 40
0.0
 40
1.0
 40
1.0
 40
1.0
 40
2.0
 40
2.0
 40
2.0
 40
3.0
 40
3.0
 40
3.0
 40
4.0
 40
4.0
 40
4.0
 40
5.0
 40
5.0
 40
5.0
 40
6.0
 40
6.0
 40
6.0
 40
7.0
 40
7.0
 40
7.0
 40
8.0
 40
8.0
 40
8.0
 40
9.0
 40
9.0
 40
9.0
 40
10.0
 40
10.0
 40
10.0
 40
11.0
 40
11.0
 40
11.0
 40
12.0
 40
12.0
 40
12.0
 40
12.0
 10
915.1059589030195
 20
64.95613501132812
 30
0.0
 10
914.3183854670695
 20
65.16161034924971
 30
0.0
 10
914.2678163868982
 20
65.52137674929918
 30
0.0
 10
914.2653556044082
 20
65.86219512417528
 30
0.0
 10
914.2552663961991
 20
67.18326620397419
 30
0.0
 10
915.2668940778708
 20
69.38062192849066
 30
0.0
 10
915.521831143843
 20
69.78332898299232
 30
0.0
 10
916.2626497124811
 20
70.953431057025
 30
0.0
 10
917.640441828677
 20
72.4232564383492
 30
0.0
 10
918.5921494567146
 20
72.83273064469881
 30
0.0
 10
918.9184492148992
 20
72.97311828575743
 30
0.0
 10
919.1042382929003
 20
72.85758454784854
 30
0.0
 10
919.248686225068
 20
72.63869794535572
 30
0.0
 10
919.248686225068
 20
72.63869794535572
 30
0.0
 10
922.7518561779447
 20
66.0050435477242
 30
0.0
 10
923.0828314228604
 20
65.65844233399662
 30
0.0
 10
923.3581929835002
 20
65.37016166528383
 30
0.0
 10
923.6121457364765
 20
65.41113369374375
 30
0.0
 10
923.8478886990261
 20
65.68403447189348
 30
0.0
 10
924.1225120249193
 20
66.00196756961167
 30
0.0
 10
925.3273111320622
 20
67.88926470037814
 30
0.0
 10
927.9187611723653
 20
72.42239516447785
 30
0.0
 10
928.0169463937191
 20
72.59440386053438
 30
0.0
 10
928.1660698126174
 20
72.74131257519229
 30
0.0
 10
928.5765283319625
 20
72.55675388843633
 30
0.0
 10
929.6262981422303
 20
72.08428365034092
 30
0.0
 10
931.0461696390063
 20
70.21285856663576
 30
0.0
 10
931.7873573250183
 20
68.6936944963852
 30
0.0
 10
932.2930481267293
 20
67.65672075506564
 30
0.0
 10
932.6114733809463
 20
65.70064475370145
 30
0.0
 10
932.5898184950336
 20
65.20688874706729
 30
0.0
 10
932.5745616435952
 20
64.85462773361224
 30
0.0
 10
932.3304520205788
 20
64.81070276616424
 30
0.0
 10
932.088311023555
 20
64.7804351415366
 30
0.0
 10
932.088311023555
 20
64.7804351415366
 30
0.0
 10
915.1059589030195
 20
64.95613501132812
 30
0.0
 10
915.1059589030195
 20
64.95613501132812
 30
0.0
  0
POLYLINE
  5
2A9A9
330
1F
100
AcDbEntity
  8
hojo
370
     0
100
AcDb2dPolyline
 66
     1
 10
0.0
 20
0.0
 30
0.0
 70
     1
  0
VERTEX
  5
2A9AA
330
2A9A9
100
AcDbEntity
  8
hojo
370
     0
100
AcDbVertex
100
AcDb2dVertex
 10
926.2848015989513
 20
56.03924358027621
 30
0.0
  0
VERTEX
  5
2A9AB
330
2A9A9
100
AcDbEntity
  8
hojo
370
     0
100
AcDbVertex
100
AcDb2dVertex
 10
926.0037802385845
 20
56.51835793109467
 30
0.0
  0
VERTEX
  5
2A9AC
330
2A9A9
100
AcDbEntity
  8
hojo
370
     0
100
AcDbVertex
100
AcDb2dVertex
 10
924.9188212387087
 20
56.27867771656133
 30
0.0
  0
VERTEX
  5
2A9AD
330
2A9A9
100
AcDbEntity
  8
hojo
370
     0
100
AcDbVertex
100
AcDb2dVertex
 10
924.8654222586736
 20
55.72623204753814
 30
0.0
  0
VERTEX
  5
2A9AE
330
2A9A9
100
AcDbEntity
  8
hojo
370
     0
100
AcDbVertex
100
AcDb2dVertex
 10
924.2037178470914
 20
55.58006156762758
 30
0.0
  0
VERTEX
  5
2A9AF
330
2A9A9
100
AcDbEntity
  8
hojo
370
     0
100
AcDbVertex
100
AcDb2dVertex
 10
924.5989195149983
 20
58.60707010867418
 30
0.0
  0
VERTEX
  5
2A9B0
330
2A9A9
100
AcDbEntity
  8
hojo
370
     0
100
AcDbVertex
100
AcDb2dVertex
 10
925.3140229066152
 20
58.76480626628813
 30
0.0
  0
VERTEX
  5
2A9B1
330
2A9A9
100
AcDbEntity
  8
hojo
370
     0
100
AcDbVertex
100
AcDb2dVertex
 10
926.9465060105341
 20
56.18541406018721
 30
0.0
  0
SEQEND
  5
2A9B2
330
2A9A9
100
AcDbEntity
  8
hojo
370
     0
  0
SPLINE
  5
2A9B3
330
1F
100
AcDbEntity
  8
hojo
370
     0
100
AcDbSpline
210
0.0
220
0.0
230
1.0
 70
    11
 71
     3
 72
    29
 73
    25
 74
     0
 42
0.0000000001
 43
0.0000000001
 40
0.0
 40
0.0
 40
0.0
 40
0.0
 40
1.0
 40
1.0
 40
1.0
 40
2.0
 40
2.0
 40
2.0
 40
3.0
 40
3.0
 40
3.0
 40
4.0
 40
4.0
 40
4.0
 40
5.0
 40
5.0
 40
5.0
 40
6.0
 40
6.0
 40
6.0
 40
7.0
 40
7.0
 40
7.0
 40
8.0
 40
8.0
 40
8.0
 40
8.0
 10
929.8150401592202
 20
58.04207444895178
 30
0.0
 10
929.8150401592202
 20
58.04207444895178
 30
0.0
 10
928.5674234367492
 20
57.00657717712648
 30
0.0
 10
928.5674234367492
 20
57.00657717712648
 30
0.0
 10
928.5674234367492
 20
57.00657717712648
 30
0.0
 10
926.7343865598897
 20
59.21586769671967
 30
0.0
 10
926.7343865598897
 20
59.21586769671967
 30
0.0
 10
926.7343865598897
 20
59.21586769671967
 30
0.0
 10
927.9231905808464
 20
60.20214931874375
 30
0.0
 10
927.9231905808464
 20
60.20214931874375
 30
0.0
 10
928.3548118296064
 20
60.56019317105029
 30
0.0
 10
928.8137477640066
 20
60.54345985011764
 30
0.0
 10
929.0881250116504
 20
60.21273068345067
 30
0.0
 10
929.3556120683216
 20
59.89036817725036
 30
0.0
 10
929.2057504146763
 20
59.61451446011278
 30
0.0
 10
929.1338955659655
 20
59.47917142315827
 30
0.0
 10
929.2601337077073
 20
59.53183216844604
 30
0.0
 10
929.3241140524488
 20
59.55176450661565
 30
0.0
 10
929.4304198560208
 20
59.55471744560395
 30
0.0
 10
929.6358951939419
 20
59.56406841906619
 30
0.0
 10
929.8455538620972
 20
59.48261651864413
 30
0.0
 10
930.0106723671811
 20
59.28353921519715
 30
0.0
 10
930.3246682129152
 20
58.90507086822299
 30
0.0
 10
930.2439545472402
 20
58.39765751876848
 30
0.0
 10
929.8150401592202
 20
58.04207444895178
 30
0.0
  0
POLYLINE
  5
2A9B4
330
1F
100
AcDbEntity
  8
hojo
370
     0
100
AcDb2dPolyline
 66
     1
 10
0.0
 20
0.0
 30
0.0
 70
     1
  0
VERTEX
  5
2A9B5
330
2A9B4
100
AcDbEntity
  8
hojo
370
     0
100
AcDbVertex
100
AcDb2dVertex
 10
931.8252533753655
 20
60.66772936586676
 30
0.0
  0
VERTEX
  5
2A9B6
330
2A9B4
100
AcDbEntity
  8
hojo
370
     0
100
AcDbVertex
100
AcDb2dVertex
 10
931.5725310136343
 20
60.03924551790055
 30
0.0
  0
VERTEX
  5
2A9B7
330
2A9B4
100
AcDbEntity
  8
hojo
370
     0
100
AcDbVertex
100
AcDb2dVertex
 10
929.2965532885601
 20
62.07357440244891
 30
0.0
  0
VERTEX
  5
2A9B8
330
2A9B4
100
AcDbEntity
  8
hojo
370
     0
100
AcDbVertex
100
AcDb2dVertex
 10
929.5697001449587
 20
62.75275036971106
 30
0.0
  0
VERTEX
  5
2A9B9
330
2A9B4
100
AcDbEntity
  8
hojo
370
     0
100
AcDbVertex
100
AcDb2dVertex
 10
932.62033219791
 20
62.64472201839635
 30
0.0
  0
VERTEX
  5
2A9BA
330
2A9B4
100
AcDbEntity
  8
hojo
370
     0
100
AcDbVertex
100
AcDb2dVertex
 10
932.3676098361787
 20
62.01623817043014
 30
0.0
  0
VERTEX
  5
2A9BB
330
2A9B4
100
AcDbEntity
  8
hojo
370
     0
100
AcDbVertex
100
AcDb2dVertex
 10
931.8136876976623
 20
62.0543802990262
 30
0.0
  0
VERTEX
  5
2A9BC
330
2A9B4
100
AcDbEntity
  8
hojo
370
     0
100
AcDbVertex
100
AcDb2dVertex
 10
931.3990458480834
 20
61.0235585139319
 30
0.0
  0
SEQEND
  5
2A9BD
330
2A9B4
100
AcDbEntity
  8
hojo
370
     0
  0
SPLINE
  5
2A9BE
330
1F
100
AcDbEntity
  8
hojo
370
    -2
100
AcDbSpline
210
0.0
220
0.0
230
1.0
 70
    11
 71
     3
 72
    20
 73
    16
 74
     0
 42
0.0000000001
 43
0.0000000001
 40
0.0
 40
0.0
 40
0.0
 40
0.0
 40
1.0
 40
1.0
 40
1.0
 40
2.0
 40
2.0
 40
2.0
 40
3.0
 40
3.0
 40
3.0
 40
4.0
 40
4.0
 40
4.0
 40
5.0
 40
5.0
 40
5.0
 40
5.0
 10
928.610487130326
 20
59.6932594997952
 30
0.0
 10
928.5314960123942
 20
59.78873786041049
 30
0.0
 10
928.3567804555987
 20
59.91349953265717
 30
0.0
 10
928.1296502317646
 20
59.72500359391756
 30
0.0
 10
928.1296502317646
 20
59.72500359391756
 30
0.0
 10
927.5577643810697
 20
59.25056472982987
 30
0.0
 10
927.5577643810697
 20
59.25056472982987
 30
0.0
 10
927.5577643810697
 20
59.25056472982987
 30
0.0
 10
928.0019356205292
 20
58.71509845998843
 30
0.0
 10
928.0019356205292
 20
58.71509845998843
 30
0.0
 10
928.0019356205292
 20
58.71509845998843
 30
0.0
 10
928.5740675494723
 20
59.18953732407567
 30
0.0
 10
928.5740675494723
 20
59.18953732407567
 30
0.0
 10
928.7815115133863
 20
59.36179209838155
 30
0.0
 10
928.7106409776718
 20
59.57268115778152
 30
0.0
 10
928.610487130326
 20
59.6932594997952
 30
0.0
  0
POLYLINE
  5
2A9BF
330
1F
100
AcDbEntity
  8
hojo
370
    -2
100
AcDb2dPolyline
 66
     1
 10
0.0
 20
0.0
 30
0.0
 70
     1
  0
VERTEX
  5
2A9C0
330
2A9BF
100
AcDbEntity
  8
hojo
370
    -2
100
AcDbVertex
100
AcDb2dVertex
 10
924.9628692452807
 20
56.75483912839172
 30
0.0
  0
VERTEX
  5
2A9C1
330
2A9BF
100
AcDbEntity
  8
hojo
370
    -2
100
AcDbVertex
100
AcDb2dVertex
 10
925.7599166938179
 20
56.9307850764319
 30
0.0
  0
VERTEX
  5
2A9C2
330
2A9BF
100
AcDbEntity
  8
hojo
370
    -2
100
AcDbVertex
100
AcDb2dVertex
 10
925.088123074026
 20
58.08070873404631
 30
0.0
  0
SEQEND
  5
2A9C3
330
2A9BF
100
AcDbEntity
  8
hojo
370
    -2
  0
POLYLINE
  5
2A9C4
330
1F
100
AcDbEntity
  8
hojo
370
     0
100
AcDb2dPolyline
 66
     1
 10
0.0
 20
0.0
 30
0.0
 70
     1
  0
VERTEX
  5
2A9C5
330
2A9C4
100
AcDbEntity
  8
hojo
370
     0
100
AcDbVertex
100
AcDb2dVertex
 10
931.0309127875679
 20
61.32869554270178
 30
0.0
  0
VERTEX
  5
2A9C6
330
2A9C4
100
AcDbEntity
  8
hojo
370
     0
100
AcDbVertex
100
AcDb2dVertex
 10
931.3355576598393
 20
62.08587831489944
 30
0.0
  0
VERTEX
  5
2A9C7
330
2A9C4
100
AcDbEntity
  8
hojo
370
     0
100
AcDbVertex
100
AcDb2dVertex
 10
930.0072272716953
 20
62.18037236251849
 30
0.0
  0
SEQEND
  5
2A9C8
330
2A9C4
100
AcDbEntity
  8
hojo
370
     0
  0
SPLINE
  5
2A9C9
330
1F
100
AcDbEntity
  8
hojo
370
    -2
100
AcDbSpline
210
0.0
220
0.0
230
1.0
 70
    11
 71
     3
 72
    20
 73
    16
 74
     0
 42
0.0000000001
 43
0.0000000001
 40
0.0
 40
0.0
 40
0.0
 40
0.0
 40
1.0
 40
1.0
 40
1.0
 40
2.0
 40
2.0
 40
2.0
 40
3.0
 40
3.0
 40
3.0
 40
4.0
 40
4.0
 40
4.0
 40
5.0
 40
5.0
 40
5.0
 40
5.0
 10
928.831711476184
 20
58.87308069585174
 30
0.0
 10
928.831711476184
 20
58.87308069585174
 30
0.0
 10
928.2625324862284
 20
58.40110261425479
 30
0.0
 10
928.2625324862284
 20
58.40110261425479
 30
0.0
 10
928.2625324862284
 20
58.40110261425479
 30
0.0
 10
928.7532125147507
 20
57.80953050363928
 30
0.0
 10
928.7532125147507
 20
57.80953050363928
 30
0.0
 10
928.7532125147507
 20
57.80953050363928
 30
0.0
 10
929.3226375829547
 20
58.28175466348603
 30
0.0
 10
929.3226375829547
 20
58.28175466348603
 30
0.0
 10
929.5017825482327
 20
58.43063200413576
 30
0.0
 10
929.6137481515316
 20
58.66096124520686
 30
0.0
 10
929.4277129952817
 20
58.88513853005338
 30
0.0
 10
929.2229758921067
 20
59.13170893555911
 30
0.0
 10
928.9719760781185
 20
58.98947570763244
 30
0.0
 10
928.831711476184
 20
58.87308069585174
 30
0.0
  0
MTEXT
  5
2A9CA
330
1F
100
AcDbEntity
  8
wakumoji
100
AcDbMText
 10
998.5000000000002
 20
65.00000000000046
 30
0.0
 40
12.38095238095238
 41
196.0
 71
     5
 72
     5
  1
　　二葉工業株式会社
  7
gothic
 73
     1
 44
1.0
  0
LINE
  5
2A9CB
330
1F
100
AcDbEntity
  8
size
100
AcDbLine
 10
41.0
 20
91.00000000000045
 30
0.0
 11
1155.0
 21
91.00000000000045
 31
0.0
  0
LINE
  5
2A9CC
330
1F
100
AcDbEntity
  8
size
100
AcDbLine
 10
41.0
 20
90.50000000000045
 30
0.0
 11
1155.0
 21
90.50000000000045
 31
0.0
  0
LINE
  5
2A9CD
330
1F
100
AcDbEntity
  8
size
100
AcDbLine
 10
41.0
 20
90.00000000000046
 30
0.0
 11
1155.0
 21
90.00000000000046
 31
0.0
  0
LINE
  5
2A9CE
330
1F
100
AcDbEntity
  8
size
100
AcDbLine
 10
41.0
 20
89.50000000000045
 30
0.0
 11
1155.0
 21
89.50000000000045
 31
0.0
  0
LINE
  5
2ACC4
330
1F
100
AcDbEntity
  8
hatch
100
AcDbLine
 10
861.6584321479235
 20
480.5795195157561
 30
0.0
 11
1061.801472027324
 21
480.5795195157561
 31
0.0
  0
LINE
  5
2ACC5
330
1F
100
AcDbEntity
  8
hatch
100
AcDbLine
 10
861.6584321479235
 20
460.5795195157561
 30
0.0
 11
1061.801472027324
 21
460.5795195157561
 31
0.0
  0
LINE
  5
2ACC6
330
1F
100
AcDbEntity
  8
hatch
100
AcDbLine
 10
576.0600139255425
 20
711.8921695616458
 30
0.0
 11
576.0600139255425
 21
435.4540775334507
 31
0.0
  0
LINE
  5
2ACC7
330
1F
100
AcDbEntity
  8
hatch
100
AcDbLine
 10
561.0600139255425
 20
711.892169561646
 30
0.0
 11
561.0600139255425
 21
435.4540775334509
 31
0.0
  0
LINE
  5
2ACC8
330
1F
100
AcDbEntity
  8
hatch
100
AcDbLine
 10
461.0600139255423
 20
711.8921695616461
 30
0.0
 11
461.0600139255423
 21
435.454077533451
 31
0.0
  0
LINE
  5
2ACC9
330
1F
100
AcDbEntity
  8
hatch
100
AcDbLine
 10
446.0600139255423
 20
711.8921695616462
 30
0.0
 11
446.0600139255423
 21
435.4540775334511
 31
0.0
  0
LINE
  5
2ACCA
330
1F
100
AcDbEntity
  8
hatch
100
AcDbLine
 10
291.0600139255425
 20
711.8921695616466
 30
0.0
 11
291.0600139255425
 21
435.4540775334514
 31
0.0
  0
LINE
  5
2ACCB
330
1F
100
AcDbEntity
  8
hatch
100
AcDbLine
 10
276.0600139255425
 20
711.8921695616466
 30
0.0
 11
276.0600139255425
 21
435.4540775334515
 31
0.0
  0
VIEWPORT
  5
251
330
1B
100
AcDbEntity
 67
     1
  8
0
100
AcDbViewport
 10
589.1061580019334
 20
387.0983625293575
 30
0.0
 40
1391.901708236965
 41
862.1480730124487
 68
     1
 69
     1
 12
589.1061580019334
 22
387.0983625293575
 13
0.0
 23
0.0
 14
10.0
 24
10.0
 15
10.0
 25
10.0
 16
0.0
 26
0.0
 36
1.0
 17
0.0
 27
0.0
 37
0.0
 42
50.0
 43
0.0
 44
0.0
 45
862.1480730124487
 50
0.0
 51
0.0
 72
   100
 90
    32800
  1

281
     0
 71
     1
 74
     0
110
0.0
120
0.0
130
0.0
111
1.0
121
0.0
131
0.0
112
0.0
122
1.0
132
0.0
 79
     0
146
0.0
170
     0
  0
VIEWPORT
  5
19EB
330
1B
100
AcDbEntity
 67
     1
  8
Defpoints
100
AcDbViewport
 10
587.9496948043319
 20
386.9865660031111
 30
0.0
 40
1201.441672765672
 41
854.1951892837358
 68
     2
 69
     2
 12
597.8943602995111
 22
423.5617265824999
 13
0.0
 23
0.0
 14
10.0
 24
10.0
 15
10.0
 25
10.0
 16
0.0
 26
0.0
 36
1.0
 17
0.0
 27
0.0
 37
0.0
 42
50.0
 43
0.0
 44
0.0
 45
854.1951892837358
 50
0.0
 51
0.0
 72
   100
 90
    32864
  1

281
     0
 71
     1
 74
     0
110
0.0
120
0.0
130
0.0
111
1.0
121
0.0
131
0.0
112
0.0
122
1.0
132
0.0
 79
     0
146
0.0
170
     0
  0
ENDSEC
  0
SECTION
  2
OBJECTS
  0
DICTIONARY
  5
C
330
0
100
AcDbDictionary
281
     1
  3
ACAD_COLOR
350
1778
  3
ACAD_GROUP
350
D
  3
ACAD_LAYOUT
350
1A
  3
ACAD_MATERIAL
350
1777
  3
ACAD_MLINESTYLE
350
17
  3
ACAD_PLOTSETTINGS
350
19
  3
ACAD_PLOTSTYLENAME
350
E
  3
AcadDim
350
1EBDB
  0
DICTIONARY
  5
178E
330
2
100
AcDbDictionary
280
     1
281
     1
  3
ACAD_LAYERFILTERS
360
18D9
  3
ACAD_LAYERSTATES
360
178F
  0
DICTIONARY
  5
1A9D4
330
1F
100
AcDbDictionary
280
     1
281
     1
  3
ACAD_SORTENTS
360
1A9D5
  0
DICTIONARY
  5
1778
102
{ACAD_REACTORS
330
C
102
}
330
C
100
AcDbDictionary
281
     1
  0
DICTIONARY
  5
D
102
{ACAD_REACTORS
330
C
102
}
330
C
100
AcDbDictionary
281
     1
  3
*A1
350
1A9D1
  3
*A2
350
1A9D2
  3
*A3
350
1A9D3
  0
DICTIONARY
  5
1A
102
{ACAD_REACTORS
330
C
102
}
330
C
100
AcDbDictionary
281
     1
  3
Model
350
22
  3
ﾚｲｱｳﾄ1
350
1E
  3
ﾚｲｱｳﾄ2
350
26
  0
DICTIONARY
  5
1777
102
{ACAD_REACTORS
330
C
102
}
330
C
100
AcDbDictionary
281
     1
  0
DICTIONARY
  5
17
102
{ACAD_REACTORS
330
C
102
}
330
C
100
AcDbDictionary
281
     1
  3
Standard
350
18
  0
DICTIONARY
  5
19
102
{ACAD_REACTORS
330
C
102
}
330
C
100
AcDbDictionary
281
     1
  0
ACDBDICTIONARYWDFLT
  5
E
102
{ACAD_REACTORS
330
C
102
}
330
C
100
AcDbDictionary
281
     1
  3
Normal
350
F
100
AcDbDictionaryWithDefault
340
F
  0
XRECORD
  5
1EBDB
102
{ACAD_REACTORS
330
C
102
}
330
C
100
AcDbXrecord
280
     1
 90
   990106
  3
ARRI
 60
     0
 61
     0
 62
     1
 63
     1
 64
     0
 65
     0
 66
     0
 67
     3
 68
     1
 69
     0
 70
     0
 71
     0
 72
     0
 40
0.0
170
     2
340
0
  0
DICTIONARY
  5
18D9
102
{ACAD_REACTORS
330
178E
102
}
330
178E
100
AcDbDictionary
281
     1
  0
DICTIONARY
  5
178F
102
{ACAD_REACTORS
330
178E
102
}
330
178E
100
AcDbDictionary
281
     1
  0
SORTENTSTABLE
  5
1A9D5
102
{ACAD_REACTORS
330
1A9D4
102
}
330
1A9D4
100
AcDbSortentsTable
330
1F
  0
GROUP
  5
1A9D1
102
{ACAD_REACTORS
330
D
102
}
330
D
100
AcDbGroup
300

 70
     1
 71
     1
  0
GROUP
  5
1A9D2
102
{ACAD_REACTORS
330
D
102
}
330
D
100
AcDbGroup
300

 70
     1
 71
     1
  0
GROUP
  5
1A9D3
102
{ACAD_REACTORS
330
D
102
}
330
D
100
AcDbGroup
300

 70
     1
 71
     1
  0
LAYOUT
  5
22
102
{ACAD_REACTORS
330
1A
102
}
330
1A
100
AcDbPlotSettings
  1

  2
自動 Canon Inkjet iX5000 (Uehira-pc 上)
  4
A3
  6

 40
4.180416584014892
 41
5.831417560577392
 42
4.180419921875
 43
3.757080078125
 44
296.9683227539062
 45
419.9889831542968
 46
2.459999999999999
 47
1.649999999999999
 48
20.0
 49
20.00000000000046
140
1168.0
141
820.0000000000002
142
1.0
143
2.819999999999998
 70
 11940
 72
     1
 73
     1
 74
     4
  7
monochrome.ctb
 75
     0
147
0.3546099290780143
 76
     0
 77
     2
 78
   300
148
-20.0
149
-20.00000000000046
100
AcDbLayout
  1
Model
 70
     1
 71
     0
 10
0.0
 20
0.0
 11
12.0
 21
9.0
 12
0.0
 22
0.0
 32
0.0
 14
0.0
 24
0.0
 34
0.0
 15
0.0
 25
0.0
 35
0.0
146
0.0
 13
0.0
 23
0.0
 33
0.0
 16
1.0
 26
0.0
 36
0.0
 17
0.0
 27
1.0
 37
0.0
 76
     0
330
1F
  0
LAYOUT
  5
1E
102
{ACAD_REACTORS
330
1A
102
}
330
1A
100
AcDbPlotSettings
  1

  2
HP DesignJet 800 24 by HP
  4
User1294
  6

 40
4.995333194732666
 41
16.97565841674804
 42
4.99530029296875
 43
16.97567749023437
 44
593.97900390625
 45
419.9466552734373
 46
0.0
 47
0.0
 48
0.0
 49
0.0
140
0.0
141
0.0
142
1.0
143
2.0
 70
   688
 72
     1
 73
     2
 74
     5
  7
monochrome.ctb
 75
    17
147
0.5
 76
     1
 77
     2
 78
   300
148
0.0
149
0.0
100
AcDbLayout
  1
ﾚｲｱｳﾄ1
 70
     1
 71
     1
 10
-9.9906005859375
 20
-33.95135498046875
 11
1177.967407226562
 21
805.9419555664062
 12
0.0
 22
0.0
 32
0.0
 14
-12.77114157850405
 24
-40.11102863875668
 34
0.0
 15
1188.670531187168
 25
814.0841606449789
 35
0.0
146
0.0
 13
0.0
 23
0.0
 33
0.0
 16
1.0
 26
0.0
 36
0.0
 17
0.0
 27
1.0
 37
0.0
 76
     0
330
1B
331
251
  0
LAYOUT
  5
26
102
{ACAD_REACTORS
330
1A
102
}
330
1A
100
AcDbPlotSettings
  1

  2
C:\PROGRAM FILES\AUTOCAD LT 2000I\plotters\DWF Classic.pc3
  4

  6

 40
0.0
 41
0.0
 42
0.0
 43
0.0
 44
0.0
 45
0.0
 46
0.0
 47
0.0
 48
0.0
 49
0.0
140
0.0
141
0.0
142
1.0
143
1.0
 70
   688
 72
     0
 73
     0
 74
     5
  7
monochrome.ctb
 75
    16
147
1.0
 76
     0
 77
     2
 78
   300
148
0.0
149
0.0
100
AcDbLayout
  1
ﾚｲｱｳﾄ2
 70
     1
 71
     2
 10
0.0
 20
0.0
 11
12.0
 21
9.0
 12
0.0
 22
0.0
 32
0.0
 14
0.0
 24
0.0
 34
0.0
 15
0.0
 25
0.0
 35
0.0
146
0.0
 13
0.0
 23
0.0
 33
0.0
 16
1.0
 26
0.0
 36
0.0
 17
0.0
 27
1.0
 37
0.0
 76
     0
330
23
  0
MLINESTYLE
  5
18
102
{ACAD_REACTORS
330
17
102
}
330
17
100
AcDbMlineStyle
  2
STANDARD
 70
     0
  3

 62
   256
 51
90.0
 52
90.0
 71
     2
 49
0.5
 62
   256
  6
BYLAYER
 49
-0.5
 62
   256
  6
BYLAYER
  0
ACDBPLACEHOLDER
  5
F
102
{ACAD_REACTORS
330
E
102
}
330
E
  0
ENDSEC
  0
EOF
