  0
SECTION
  2
HEADER
  9
$ACADVER
  1
AC1018
  9
$ACADMAINTVER
 70
     0
  9
$DWGCODEPAGE
  3
ANSI_932
  9
$INSBASE
 10
0.0
 20
0.0
 30
0.0
  9
$EXTMIN
 10
0.0
 20
0.0
 30
0.0
  9
$EXTMAX
 10
1188.0
 20
840.0
 30
0.0
  9
$LIMMIN
 10
0.0
 20
0.0
  9
$LIMMAX
 10
594.0
 20
420.0
  9
$ORTHOMODE
 70
     0
  9
$REGENMODE
 70
     1
  9
$FILLMODE
 70
     1
  9
$QTEXTMODE
 70
     0
  9
$MIRRTEXT
 70
     0
  9
$LTSCALE
 40
2.0
  9
$ATTMODE
 70
     1
  9
$TEXTSIZE
 40
2.5
  9
$TRACEWID
 40
1.0
  9
$TEXTSTYLE
  7
Std
  9
$CLAYER
  8
sunpo
  9
$CELTYPE
  6
ByLayer
  9
$CECOLOR
 62
   256
  9
$CELTSCALE
 40
1.0
  9
$DISPSILH
 70
     0
  9
$DIMSCALE
 40
2.0
  9
$DIMASZ
 40
3.5
  9
$DIMEXO
 40
2.0
  9
$DIMDLI
 40
8.0
  9
$DIMRND
 40
0.0
  9
$DIMDLE
 40
0.0
  9
$DIMEXE
 40
1.0
  9
$DIMTP
 40
0.0
  9
$DIMTM
 40
0.0
  9
$DIMTXT
 40
3.0
  9
$DIMCEN
 40
0.0
  9
$DIMTSZ
 40
0.0
  9
$DIMTOL
 70
     0
  9
$DIMLIM
 70
     0
  9
$DIMTIH
 70
     0
  9
$DIMTOH
 70
     0
  9
$DIMSE1
 70
     0
  9
$DIMSE2
 70
     0
  9
$DIMTAD
 70
     1
  9
$DIMZIN
 70
     8
  9
$DIMBLK
  1
DotSmall
  9
$DIMASO
 70
     1
  9
$DIMSHO
 70
     1
  9
$DIMPOST
  1

  9
$DIMAPOST
  1

  9
$DIMALT
 70
     0
  9
$DIMALTD
 70
     3
  9
$DIMALTF
 40
0.03937007874016
  9
$DIMLFAC
 40
1.0
  9
$DIMTOFL
 70
     1
  9
$DIMTVP
 40
0.0
  9
$DIMTIX
 70
     0
  9
$DIMSOXD
 70
     0
  9
$DIMSAH
 70
     0
  9
$DIMBLK1
  1

  9
$DIMBLK2
  1

  9
$DIMSTYLE
  2
dim2
  9
$DIMCLRD
 70
     3
  9
$DIMCLRE
 70
     3
  9
$DIMCLRT
 70
     2
  9
$DIMTFAC
 40
1.0
  9
$DIMGAP
 40
0.6
  9
$DIMJUST
 70
     0
  9
$DIMSD1
 70
     0
  9
$DIMSD2
 70
     0
  9
$DIMTOLJ
 70
     0
  9
$DIMTZIN
 70
     8
  9
$DIMALTZ
 70
     0
  9
$DIMALTTZ
 70
     0
  9
$DIMUPT
 70
     0
  9
$DIMDEC
 70
     1
  9
$DIMTDEC
 70
     1
  9
$DIMALTU
 70
     2
  9
$DIMALTTD
 70
     3
  9
$DIMTXSTY
  7
Std
  9
$DIMAUNIT
 70
     0
  9
$DIMADEC
 70
     0
  9
$DIMALTRND
 40
0.0
  9
$DIMAZIN
 70
     0
  9
$DIMDSEP
 70
    46
  9
$DIMATFIT
 70
     3
  9
$DIMFRAC
 70
     0
  9
$DIMLDRBLK
  1
Open30
  9
$DIMLUNIT
 70
     6
  9
$DIMLWD
 70
     9
  9
$DIMLWE
 70
     9
  9
$DIMTMOVE
 70
     2
  9
$LUNITS
 70
     2
  9
$LUPREC
 70
     2
  9
$SKETCHINC
 40
1.0
  9
$FILLETRAD
 40
50.0
  9
$AUNITS
 70
     0
  9
$AUPREC
 70
     2
  9
$MENU
  1
.
  9
$ELEVATION
 40
0.0
  9
$PELEVATION
 40
0.0
  9
$THICKNESS
 40
0.0
  9
$LIMCHECK
 70
     0
  9
$CHAMFERA
 40
10.0
  9
$CHAMFERB
 40
10.0
  9
$CHAMFERC
 40
20.0
  9
$CHAMFERD
 40
0.0
  9
$SKPOLY
 70
     0
  9
$TDCREATE
 40
2451935.570731713
  9
$TDUCREATE
 40
2451935.195731713
  9
$TDUPDATE
 40
2455741.408278356
  9
$TDUUPDATE
 40
2455741.033278357
  9
$TDINDWG
 40
3.8042572569
  9
$TDUSRTIMER
 40
3.8042572569
  9
$USRTIMER
 70
     1
  9
$ANGBASE
 50
0.0
  9
$ANGDIR
 70
     0
  9
$PDMODE
 70
     0
  9
$PDSIZE
 40
0.0
  9
$PLINEWID
 40
0.0
  9
$SPLFRAME
 70
     0
  9
$SPLINETYPE
 70
     6
  9
$SPLINESEGS
 70
     8
  9
$HANDSEED
  5
312D2
  9
$SURFTAB1
 70
     6
  9
$SURFTAB2
 70
     6
  9
$SURFTYPE
 70
     6
  9
$SURFU
 70
     6
  9
$SURFV
 70
     6
  9
$UCSBASE
  2

  9
$UCSNAME
  2

  9
$UCSORG
 10
0.0
 20
0.0
 30
0.0
  9
$UCSXDIR
 10
1.0
 20
0.0
 30
0.0
  9
$UCSYDIR
 10
0.0
 20
1.0
 30
0.0
  9
$UCSORTHOREF
  2

  9
$UCSORTHOVIEW
 70
     0
  9
$UCSORGTOP
 10
0.0
 20
0.0
 30
0.0
  9
$UCSORGBOTTOM
 10
0.0
 20
0.0
 30
0.0
  9
$UCSORGLEFT
 10
0.0
 20
0.0
 30
0.0
  9
$UCSORGRIGHT
 10
0.0
 20
0.0
 30
0.0
  9
$UCSORGFRONT
 10
0.0
 20
0.0
 30
0.0
  9
$UCSORGBACK
 10
0.0
 20
0.0
 30
0.0
  9
$PUCSBASE
  2

  9
$PUCSNAME
  2

  9
$PUCSORG
 10
0.0
 20
0.0
 30
0.0
  9
$PUCSXDIR
 10
1.0
 20
0.0
 30
0.0
  9
$PUCSYDIR
 10
0.0
 20
1.0
 30
0.0
  9
$PUCSORTHOREF
  2

  9
$PUCSORTHOVIEW
 70
     0
  9
$PUCSORGTOP
 10
0.0
 20
0.0
 30
0.0
  9
$PUCSORGBOTTOM
 10
0.0
 20
0.0
 30
0.0
  9
$PUCSORGLEFT
 10
0.0
 20
0.0
 30
0.0
  9
$PUCSORGRIGHT
 10
0.0
 20
0.0
 30
0.0
  9
$PUCSORGFRONT
 10
0.0
 20
0.0
 30
0.0
  9
$PUCSORGBACK
 10
0.0
 20
0.0
 30
0.0
  9
$USERI1
 70
     0
  9
$USERI2
 70
     0
  9
$USERI3
 70
     0
  9
$USERI4
 70
     0
  9
$USERI5
 70
     0
  9
$USERR1
 40
0.0
  9
$USERR2
 40
0.0
  9
$USERR3
 40
0.0
  9
$USERR4
 40
0.0
  9
$USERR5
 40
0.0
  9
$WORLDVIEW
 70
     1
  9
$SHADEDGE
 70
     3
  9
$SHADEDIF
 70
    70
  9
$TILEMODE
 70
     1
  9
$MAXACTVP
 70
    64
  9
$PINSBASE
 10
0.0
 20
0.0
 30
0.0
  9
$PLIMCHECK
 70
     0
  9
$PEXTMIN
 10
-13.47440845624715
 20
-22.21867993191836
 30
-0.000000000000013
  9
$PEXTMAX
 10
601.5572178000511
 20
405.7592843052872
 30
0.0000000000000023
  9
$PLIMMIN
 10
-4.99530029296875
 20
-16.97567749023437
  9
$PLIMMAX
 10
588.9837036132812
 20
402.9709777832031
  9
$UNITMODE
 70
     0
  9
$VISRETAIN
 70
     1
  9
$PLINEGEN
 70
     0
  9
$PSLTSCALE
 70
     1
  9
$TREEDEPTH
 70
  3020
  9
$CMLSTYLE
  2
Standard
  9
$CMLJUST
 70
     0
  9
$CMLSCALE
 40
20.0
  9
$PROXYGRAPHICS
 70
     1
  9
$MEASUREMENT
 70
     1
  9
$CELWEIGHT
370
    -1
  9
$ENDCAPS
280
     0
  9
$JOINSTYLE
280
     0
  9
$LWDISPLAY
290
     0
  9
$INSUNITS
 70
     4
  9
$HYPERLINKBASE
  1

  9
$STYLESHEET
  1
monochrome.ctb
  9
$XEDIT
290
     1
  9
$CEPSNTYPE
380
     0
  9
$PSTYLEMODE
290
     1
  9
$FINGERPRINTGUID
  2
{1128C918-EA32-49CA-A447-4FB40908B966}
  9
$VERSIONGUID
  2
{E81FE4D5-F4A7-47E4-82B2-DD76DB593BFA}
  9
$EXTNAMES
290
     1
  9
$PSVPSCALE
 40
0.0
  9
$OLESTARTUP
290
     0
  9
$SORTENTS
280
   127
  9
$INDEXCTL
280
     0
  9
$HIDETEXT
280
     0
  9
$XCLIPFRAME
290
     0
  9
$HALOGAP
280
     0
  9
$OBSCOLOR
 70
   257
  9
$OBSLTYPE
280
     0
  9
$INTERSECTIONDISPLAY
280
     0
  9
$INTERSECTIONCOLOR
 70
   257
  9
$DIMASSOC
280
     1
  9
$PROJECTNAME
  1

  0
ENDSEC
  0
SECTION
  2
CLASSES
  0
CLASS
  1
ACDBDICTIONARYWDFLT
  2
AcDbDictionaryWithDefault
  3
ObjectDBX Classes
 90
        0
 91
        1
280
     0
281
     0
  0
CLASS
  1
DICTIONARYVAR
  2
AcDbDictionaryVar
  3
ObjectDBX Classes
 90
        0
 91
        0
280
     0
281
     0
  0
CLASS
  1
PLOTSETTINGS
  2
AcDbPlotSettings
  3
ObjectDBX Classes
 90
        0
 91
        0
280
     0
281
     0
  0
CLASS
  1
SORTENTSTABLE
  2
AcDbSortentsTable
  3
ObjectDBX Classes
 90
        0
 91
        0
280
     0
281
     0
  0
CLASS
  1
MATERIAL
  2
AcDbMaterial
  3
ObjectDBX Classes
 90
        0
 91
        1
280
     0
281
     0
  0
ENDSEC
  0
SECTION
  2
TABLES
  0
TABLE
  2
VPORT
  5
8
330
0
100
AcDbSymbolTable
 70
     2
  0
VPORT
  5
312D1
330
8
100
AcDbSymbolTableRecord
100
AcDbViewportTableRecord
  2
*Active
 70
     0
 10
0.0
 20
0.0
 11
1.0
 21
1.0
 12
594.0000055322251
 22
420.0000039116743
 13
0.0
 23
0.0
 14
10.0
 24
10.0
 15
10.0
 25
10.0
 16
0.0
 26
0.0
 36
1.0
 17
0.0
 27
0.0
 37
0.0
 40
846.4669553902865
 41
1.458912768647281
 42
50.0
 43
0.0
 44
0.0
 50
0.0
 51
0.0
 71
     0
 72
   100
 73
     1
 74
     3
 75
     0
 76
     0
 77
     0
 78
     0
281
     0
 65
     1
110
0.0
120
0.0
130
0.0
111
1.0
121
0.0
131
0.0
112
0.0
122
1.0
132
0.0
 79
     0
146
0.0
  0
ENDTAB
  0
TABLE
  2
LTYPE
  5
5
330
0
100
AcDbSymbolTable
 70
    30
  0
LTYPE
  5
14
330
5
100
AcDbSymbolTableRecord
100
AcDbLinetypeTableRecord
  2
ByBlock
 70
     0
  3

 72
    65
 73
     0
 40
0.0
  0
LTYPE
  5
15
330
5
100
AcDbSymbolTableRecord
100
AcDbLinetypeTableRecord
  2
ByLayer
 70
     0
  3

 72
    65
 73
     0
 40
0.0
  0
LTYPE
  5
16
330
5
100
AcDbSymbolTableRecord
100
AcDbLinetypeTableRecord
  2
Continuous
 70
     0
  3
Solid line
 72
    65
 73
     0
 40
0.0
  0
LTYPE
  5
36CB
330
5
100
AcDbSymbolTableRecord
100
AcDbLinetypeTableRecord
  2
HOJO
 70
     0
  3
-----------------------------------------------
 72
    65
 73
     2
 40
0.0
 49
0.0
 74
     0
 49
0.0
 74
     0
  0
LTYPE
  5
3DD2
330
5
100
AcDbSymbolTableRecord
100
AcDbLinetypeTableRecord
  2
HIDS
 70
     0
  3
(破線１)- - - - - - - - - - - - - - - - - - - -
 72
    65
 73
     2
 40
2.5
 49
1.5
 74
     0
 49
-1.0
 74
     0
  0
LTYPE
  5
3DD3
330
5
100
AcDbSymbolTableRecord
100
AcDbLinetypeTableRecord
  2
PHAS
 70
     0
  3
(二点鎖線１)---- - - ---- - - ---- - - ---- - -
 72
    65
 73
     6
 40
15.0
 49
10.0
 74
     0
 49
-1.0
 74
     0
 49
1.0
 74
     0
 49
-1.0
 74
     0
 49
1.0
 74
     0
 49
-1.0
 74
     0
  0
LTYPE
  5
3DD4
330
5
100
AcDbSymbolTableRecord
100
AcDbLinetypeTableRecord
  2
CENL
 70
     0
  3
(一点鎖線２)------ - ------ - ------ - ------ -
 72
    65
 73
     4
 40
19.5
 49
15.0
 74
     0
 49
-1.5
 74
     0
 49
1.5
 74
     0
 49
-1.5
 74
     0
  0
LTYPE
  5
3DD5
330
5
100
AcDbSymbolTableRecord
100
AcDbLinetypeTableRecord
  2
DOT
 70
     0
  3
...............................................
 72
    65
 73
     2
 40
0.25
 49
0.0
 74
     0
 49
-0.25
 74
     0
  0
LTYPE
  5
4BF4
330
5
100
AcDbSymbolTableRecord
100
AcDbLinetypeTableRecord
  2
CENS
 70
     0
  3
(一点鎖線１)---- - ---- - ---- - ---- - ---- - 
 72
    65
 73
     4
 40
13.0
 49
10.0
 74
     0
 49
-1.0
 74
     0
 49
1.0
 74
     0
 49
-1.0
 74
     0
  0
LTYPE
  5
4C06
330
5
100
AcDbSymbolTableRecord
100
AcDbLinetypeTableRecord
  2
AXIS
 70
     0
  3
ｰｰｰｰｰｰｰｰ . ｰｰｰｰｰｰｰｰ . ｰｰｰｰｰｰｰｰ . ｰｰｰｰｰｰｰｰ
 72
    65
 73
     4
 40
2.299999999999999
 49
2.0
 74
     0
 49
-0.15
 74
     0
 49
0.0
 74
     0
 49
-0.15
 74
     0
  0
LTYPE
  5
4C07
330
5
100
AcDbSymbolTableRecord
100
AcDbLinetypeTableRecord
  2
BORDER2
 70
     0
  3
Border (.5x) __.__.__.__.__.__.__.__.__.__.__.
 72
    65
 73
     6
 40
0.875
 49
0.25
 74
     0
 49
-0.125
 74
     0
 49
0.25
 74
     0
 49
-0.125
 74
     0
 49
0.0
 74
     0
 49
-0.125
 74
     0
  0
LTYPE
  5
4C08
330
5
100
AcDbSymbolTableRecord
100
AcDbLinetypeTableRecord
  2
CENTER
 70
     0
  3
Center ____ _ ____ _ ____ _ ____ _ ____ _ ____
 72
    65
 73
     4
 40
2.0
 49
1.25
 74
     0
 49
-0.25
 74
     0
 49
0.25
 74
     0
 49
-0.25
 74
     0
  0
LTYPE
  5
4C09
330
5
100
AcDbSymbolTableRecord
100
AcDbLinetypeTableRecord
  2
CENTER1
 70
     0
  3
----- - ----- - ----- - ----- - 
 72
    65
 73
     4
 40
10.0
 49
6.25
 74
     0
 49
-1.25
 74
     0
 49
1.25
 74
     0
 49
-1.25
 74
     0
  0
LTYPE
  5
4C0A
330
5
100
AcDbSymbolTableRecord
100
AcDbLinetypeTableRecord
  2
CENTER2
 70
     0
  3
----------  --  ----------  --  
 72
    65
 73
     4
 40
20.0
 49
12.5
 74
     0
 49
-2.5
 74
     0
 49
2.5
 74
     0
 49
-2.5
 74
     0
  0
LTYPE
  5
4C0B
330
5
100
AcDbSymbolTableRecord
100
AcDbLinetypeTableRecord
  2
CENTERX2
 70
     0
  3
Center (2x) ________  __  ________  __  _____
 72
    65
 73
     4
 40
101.6
 49
63.5
 74
     0
 49
-12.7
 74
     0
 49
12.7
 74
     0
 49
-12.7
 74
     0
  0
LTYPE
  5
4C0C
330
5
100
AcDbSymbolTableRecord
100
AcDbLinetypeTableRecord
  2
CHAIN
 70
     0
  3
-------------- -- --------------
 72
    65
 73
     4
 40
18.5
 49
12.0
 74
     0
 49
-1.5
 74
     0
 49
3.5
 74
     0
 49
-1.5
 74
     0
  0
LTYPE
  5
4C0D
330
5
100
AcDbSymbolTableRecord
100
AcDbLinetypeTableRecord
  2
DASHDOT
 70
     0
  3
Dash dot __ . __ . __ . __ . __ . __ . __ . __
 72
    65
 73
     4
 40
25.4
 49
12.7
 74
     0
 49
-6.349999999999998
 74
     0
 49
0.0
 74
     0
 49
-6.349999999999998
 74
     0
  0
LTYPE
  5
4C0E
330
5
100
AcDbSymbolTableRecord
100
AcDbLinetypeTableRecord
  2
DASHDOT2
 70
     0
  3
Dash dot (.5x) _._._._._._._._._._._._._._._.
 72
    65
 73
     4
 40
0.5
 49
0.25
 74
     0
 49
-0.125
 74
     0
 49
0.0
 74
     0
 49
-0.125
 74
     0
  0
LTYPE
  5
4C0F
330
5
100
AcDbSymbolTableRecord
100
AcDbLinetypeTableRecord
  2
DASHED
 70
     0
  3
__ __ __ __ __ __ __ __ __ __ __ __ __ __ __
 72
    65
 73
     2
 40
0.75
 49
0.5
 74
     0
 49
-0.25
 74
     0
  0
LTYPE
  5
4C10
330
5
100
AcDbSymbolTableRecord
100
AcDbLinetypeTableRecord
  2
DASHED1
 70
     0
  3
--  --  --  --  --  --  --  --  
 72
    65
 73
     2
 40
2.5
 49
1.25
 74
     0
 49
-1.25
 74
     0
  0
LTYPE
  5
4C11
330
5
100
AcDbSymbolTableRecord
100
AcDbLinetypeTableRecord
  2
DASHED2
 70
     0
  3
CADPAC LINETYPE
 72
    65
 73
     2
 40
14.22744361
 49
9.484962409999999
 74
     0
 49
-4.7424812
 74
     0
  0
LTYPE
  5
4C12
330
5
100
AcDbSymbolTableRecord
100
AcDbLinetypeTableRecord
  2
DASHED3
 70
     0
  3
------  ------  ------  ------  
 72
    65
 73
     2
 40
5.0
 49
3.75
 74
     0
 49
-1.25
 74
     0
  0
LTYPE
  5
4C13
330
5
100
AcDbSymbolTableRecord
100
AcDbLinetypeTableRecord
  2
DIVIDE
 70
     0
  3
Divide ____ . . ____ . . ____ . . ____ . . ____
 72
    65
 73
     6
 40
1.25
 49
0.5
 74
     0
 49
-0.25
 74
     0
 49
0.0
 74
     0
 49
-0.25
 74
     0
 49
0.0
 74
     0
 49
-0.25
 74
     0
  0
LTYPE
  5
4C14
330
5
100
AcDbSymbolTableRecord
100
AcDbLinetypeTableRecord
  2
DOT_18
 70
     0
  3
----        --------        ----
 72
    65
 73
     2
 40
1.6
 49
0.8
 74
     0
 49
-0.8
 74
     0
  0
LTYPE
  5
4C15
330
5
100
AcDbSymbolTableRecord
100
AcDbLinetypeTableRecord
  2
DOT2
 70
     0
  3
Dot (.5x) .....................................
 72
    65
 73
     2
 40
3.174999999999998
 49
0.0
 74
     0
 49
-3.174999999999998
 74
     0
  0
LTYPE
  5
4C16
330
5
100
AcDbSymbolTableRecord
100
AcDbLinetypeTableRecord
  2
DOTTED
 70
     0
  3
   -       -       -       -    
 72
    65
 73
     2
 40
1.75
 49
0.25
 74
     0
 49
-1.5
 74
     0
  0
LTYPE
  5
4C18
330
5
100
AcDbSymbolTableRecord
100
AcDbLinetypeTableRecord
  2
HIDDEN
 70
     0
  3
Hidden __ __ __ __ __ __ __ __ __ __ __ __ __ _
 72
    65
 73
     2
 40
0.375
 49
0.25
 74
     0
 49
-0.125
 74
     0
  0
LTYPE
  5
4C19
330
5
100
AcDbSymbolTableRecord
100
AcDbLinetypeTableRecord
  2
HIDDEN2
 70
     0
  3
Hidden (.5x) _ _ _ _ _ _ _ _ _ _ _ _ _ _ _ _ _
 72
    65
 73
     2
 40
4.762499999999999
 49
3.174999999999999
 74
     0
 49
-1.587499999999999
 74
     0
  0
LTYPE
  5
4C1A
330
5
100
AcDbSymbolTableRecord
100
AcDbLinetypeTableRecord
  2
HIDDEN3
 70
     0
  3
DASH 0.10
 72
    65
 73
     2
 40
0.2
 49
0.1
 74
     0
 49
-0.1
 74
     0
  0
LTYPE
  5
4C20
330
5
100
AcDbSymbolTableRecord
100
AcDbLinetypeTableRecord
  2
PHANTOM
 70
     0
  3
______  __  __  ______  __  __  _____
 72
    65
 73
     6
 40
2.5
 49
1.25
 74
     0
 49
-0.25
 74
     0
 49
0.25
 74
     0
 49
-0.25
 74
     0
 49
0.25
 74
     0
 49
-0.25
 74
     0
  0
LTYPE
  5
4C21
330
5
100
AcDbSymbolTableRecord
100
AcDbLinetypeTableRecord
  2
PHANTOM1
 70
     0
  3
--- - - --- - - --- - - --- - - 
 72
    65
 73
     6
 40
10.0
 49
3.25
 74
     0
 49
-1.25
 74
     0
 49
1.25
 74
     0
 49
-1.25
 74
     0
 49
1.25
 74
     0
 49
-1.25
 74
     0
  0
LTYPE
  5
4C22
330
5
100
AcDbSymbolTableRecord
100
AcDbLinetypeTableRecord
  2
PHANTOM2
 70
     0
  3
--------  -  -  --------  -  -  
 72
    65
 73
     6
 40
20.0
 49
10.0
 74
     0
 49
-2.5
 74
     0
 49
1.25
 74
     0
 49
-2.5
 74
     0
 49
1.25
 74
     0
 49
-2.5
 74
     0
  0
ENDTAB
  0
TABLE
  2
LAYER
  5
2
102
{ACAD_XDICTIONARY
360
1B46
102
}
330
0
100
AcDbSymbolTable
 70
    19
  0
LAYER
  5
10
330
2
100
AcDbSymbolTableRecord
100
AcDbLayerTableRecord
  2
0
 70
     0
 62
     7
  6
Continuous
370
    -3
390
F
  0
LAYER
  5
32
330
2
100
AcDbSymbolTableRecord
100
AcDbLayerTableRecord
  2
Defpoints
 70
     0
 62
   177
  6
Continuous
290
     0
370
    20
390
F
  0
LAYER
  5
33
330
2
100
AcDbSymbolTableRecord
100
AcDbLayerTableRecord
  2
hojo
 70
     0
 62
     6
  6
Continuous
290
     0
370
     9
390
F
  0
LAYER
  5
35
330
2
100
AcDbSymbolTableRecord
100
AcDbLayerTableRecord
  2
moji
 70
     0
 62
     7
  6
Continuous
370
    20
390
F
  0
LAYER
  5
36
330
2
100
AcDbSymbolTableRecord
100
AcDbLayerTableRecord
  2
size
 70
     0
 62
     7
  6
Continuous
370
    20
390
F
  0
LAYER
  5
36CC
330
2
100
AcDbSymbolTableRecord
100
AcDbLayerTableRecord
  2
sunpo
 70
     0
 62
   111
  6
Continuous
370
    18
390
F
  0
LAYER
  5
3765
330
2
100
AcDbSymbolTableRecord
100
AcDbLayerTableRecord
  2
ADD_LINE
 70
     0
 62
   223
  6
Continuous
290
     0
370
    -3
390
F
  0
LAYER
  5
3834
330
2
100
AcDbSymbolTableRecord
100
AcDbLayerTableRecord
  2
wakumoji
 70
     0
 62
     7
  6
Continuous
370
    20
390
F
  0
LAYER
  5
3DD6
330
2
100
AcDbSymbolTableRecord
100
AcDbLayerTableRecord
  2
kijun
 70
     0
 62
   242
  6
CENL
370
     9
390
F
  0
LAYER
  5
3DD7
330
2
100
AcDbSymbolTableRecord
100
AcDbLayerTableRecord
  2
2tensasen
 70
     0
 62
   131
  6
PHAS
370
     9
390
F
  0
LAYER
  5
3DD8
330
2
100
AcDbSymbolTableRecord
100
AcDbLayerTableRecord
  2
saisen
 70
     0
 62
   134
  6
Continuous
370
     9
390
F
  0
LAYER
  5
3DD9
330
2
100
AcDbSymbolTableRecord
100
AcDbLayerTableRecord
  2
sunpo2
 70
     0
 62
   111
  6
Continuous
370
    18
390
F
  0
LAYER
  5
3DDA
330
2
100
AcDbSymbolTableRecord
100
AcDbLayerTableRecord
  2
hatch
 70
     0
 62
     8
  6
Continuous
370
     5
390
F
  0
LAYER
  5
3DDB
330
2
100
AcDbSymbolTableRecord
100
AcDbLayerTableRecord
  2
hasen
 70
     0
 62
    41
  6
HIDS
370
     9
390
F
  0
LAYER
  5
4BF5
330
2
100
AcDbSymbolTableRecord
100
AcDbLayerTableRecord
  2
KUTAI
 70
     0
 62
     9
  6
Continuous
370
    15
390
F
  0
LAYER
  5
4BF6
330
2
100
AcDbSymbolTableRecord
100
AcDbLayerTableRecord
  2
ハッチング
 70
     0
 62
   195
  6
Continuous
370
     5
390
F
  0
LAYER
  5
4BF8
330
2
100
AcDbSymbolTableRecord
100
AcDbLayerTableRecord
  2
中心線
 70
     0
 62
    16
  6
CENS
370
     9
390
F
  0
LAYER
  5
CFA6
330
2
100
AcDbSymbolTableRecord
100
AcDbLayerTableRecord
  2
塗板・掲示板
 70
     0
 62
     7
  6
Continuous
370
    20
390
F
  0
LAYER
  5
2FADA
102
{ACAD_XDICTIONARY
360
2FADB
102
}
330
2
100
AcDbSymbolTableRecord
100
AcDbLayerTableRecord
  2
SIAGE
 70
     0
 62
     9
  6
Continuous
370
    13
390
F
  0
ENDTAB
  0
TABLE
  2
STYLE
  5
3
330
0
100
AcDbSymbolTable
 70
    11
  0
STYLE
  5
11
330
3
100
AcDbSymbolTableRecord
100
AcDbTextStyleTableRecord
  2
Standard
 70
     0
 40
0.0
 41
1.0
 50
0.0
 71
     0
 42
2.5
  3
txt.shx
  4
bigfont.shx
  0
STYLE
  5
41
330
3
100
AcDbSymbolTableRecord
100
AcDbTextStyleTableRecord
  2
gothic
 70
     0
 40
0.0
 41
1.0
 50
0.0
 71
     0
 42
2.5
  3
MS PGothic.ttf
  4

1001
ACAD
1000
MS PGothic
1071
    32818
  0
STYLE
  5
43
330
3
100
AcDbSymbolTableRecord
100
AcDbTextStyleTableRecord
  2
dim
 70
     0
 40
0.0
 41
0.75
 50
0.0
 71
     0
 42
2.5
  3
txt.shx
  4
bigfont.shx
  0
STYLE
  5
36CD
330
3
100
AcDbSymbolTableRecord
100
AcDbTextStyleTableRecord
  2
Std
 70
     0
 40
0.0
 41
0.8
 50
0.0
 71
     0
 42
2.5
  3
romans.shx
  4
bigfont.shx
  0
STYLE
  5
36CE
330
3
100
AcDbSymbolTableRecord
100
AcDbTextStyleTableRecord
  2
StdW
 70
     0
 40
0.0
 41
1.0
 50
0.0
 71
     0
 42
2.5
  3
romans.shx
  4
bigfont.shx
  0
STYLE
  5
3835
330
3
100
AcDbSymbolTableRecord
100
AcDbTextStyleTableRecord
  2
kanji
 70
     0
 40
0.0
 41
1.0
 50
0.0
 71
     0
 42
2.5
  3
romans.shx
  4
bigfont.shx
  0
STYLE
  5
3DDD
330
3
100
AcDbSymbolTableRecord
100
AcDbTextStyleTableRecord
  2
mincho
 70
     0
 40
0.0
 41
1.0
 50
0.0
 71
     0
 42
2.5
  3
MS PMincho.ttf
  4

1001
ACAD
1000
MS PMincho
1071
    32786
  0
STYLE
  5
4BFD
330
3
100
AcDbSymbolTableRecord
100
AcDbTextStyleTableRecord
  2
StdS
 70
     0
 40
0.0
 41
0.7
 50
0.0
 71
     0
 42
2.5
  3
romans.shx
  4
bigfont.shx
  0
STYLE
  5
4C27
330
3
100
AcDbSymbolTableRecord
100
AcDbTextStyleTableRecord
  2
moji
 70
     0
 40
0.0
 41
0.8
 50
0.0
 71
     0
 42
115.0
  3
romans.shx
  4
extfont.shx
  0
STYLE
  5
4C28
330
3
100
AcDbSymbolTableRecord
100
AcDbTextStyleTableRecord
  2
TATEGAKI
 70
     4
 40
0.0
 41
1.0
 50
0.0
 71
     0
 42
1.0
  3
romans.shx
  4
bigfont.shx
  0
STYLE
  5
30257
330
3
100
AcDbSymbolTableRecord
100
AcDbTextStyleTableRecord
  2
丸ゴシック
 70
     0
 40
0.0
 41
1.0
 50
0.0
 71
     0
 42
2.5
  3
HGRSMP.TTF
  4

1001
ACAD
1000
HGMaruGothicMPRO
1071
    32818
  0
ENDTAB
  0
TABLE
  2
VIEW
  5
6
330
0
100
AcDbSymbolTable
 70
     0
  0
ENDTAB
  0
TABLE
  2
UCS
  5
7
330
0
100
AcDbSymbolTable
 70
     0
  0
ENDTAB
  0
TABLE
  2
APPID
  5
9
330
0
100
AcDbSymbolTable
 70
    26
  0
APPID
  5
12
330
9
100
AcDbSymbolTableRecord
100
AcDbRegAppTableRecord
  2
ACAD
 70
     0
  0
APPID
  5
1AD5
330
9
100
AcDbSymbolTableRecord
100
AcDbRegAppTableRecord
  2
CONTENTTABDATA
 70
     0
  0
APPID
  5
1AD6
330
9
100
AcDbSymbolTableRecord
100
AcDbRegAppTableRecord
  2
CONTENTCURRENTTAB
 70
     0
  0
APPID
  5
1AD7
330
9
100
AcDbSymbolTableRecord
100
AcDbRegAppTableRecord
  2
CONTENTBLOCKDESCRIPTION
 70
     0
  0
APPID
  5
1AD8
330
9
100
AcDbSymbolTableRecord
100
AcDbRegAppTableRecord
  2
CONTENTBLOCKICON
 70
     0
  0
APPID
  5
1AD9
330
9
100
AcDbSymbolTableRecord
100
AcDbRegAppTableRecord
  2
EX_DIM
 70
     0
  0
APPID
  5
1ADA
330
9
100
AcDbSymbolTableRecord
100
AcDbRegAppTableRecord
  2
EX_ETC
 70
     0
  0
APPID
  5
1ADB
330
9
100
AcDbSymbolTableRecord
100
AcDbRegAppTableRecord
  2
EX_TSTY
 70
     0
  0
APPID
  5
1ADC
330
9
100
AcDbSymbolTableRecord
100
AcDbRegAppTableRecord
  2
EX_TSTYL
 70
     0
  0
APPID
  5
1ADD
330
9
100
AcDbSymbolTableRecord
100
AcDbRegAppTableRecord
  2
EX_TCON
 70
     0
  0
APPID
  5
1ADE
330
9
100
AcDbSymbolTableRecord
100
AcDbRegAppTableRecord
  2
EX_TCONL
 70
     0
  0
APPID
  5
1ADF
330
9
100
AcDbSymbolTableRecord
100
AcDbRegAppTableRecord
  2
DRAWINGVARIABLESXDATA
 70
     0
  0
APPID
  5
1F70
330
9
100
AcDbSymbolTableRecord
100
AcDbRegAppTableRecord
  2
X_OBJNAME
 70
     0
  0
APPID
  5
1F71
330
9
100
AcDbSymbolTableRecord
100
AcDbRegAppTableRecord
  2
X_PARAM_BALLOON
 70
     0
  0
APPID
  5
1F72
330
9
100
AcDbSymbolTableRecord
100
AcDbRegAppTableRecord
  2
X_PARAM_TXTPATERN
 70
     0
  0
APPID
  5
1F73
330
9
100
AcDbSymbolTableRecord
100
AcDbRegAppTableRecord
  2
X_PARAM_CTXTPATERN
 70
     0
  0
APPID
  5
1F74
330
9
100
AcDbSymbolTableRecord
100
AcDbRegAppTableRecord
  2
X_PARAM_SYSVAL
 70
     0
  0
APPID
  5
1F75
330
9
100
AcDbSymbolTableRecord
100
AcDbRegAppTableRecord
  2
X_DEFINELIST
 70
     0
  0
APPID
  5
1F76
330
9
100
AcDbSymbolTableRecord
100
AcDbRegAppTableRecord
  2
X_UNIONHANDLE
 70
     0
  0
APPID
  5
1F77
330
9
100
AcDbSymbolTableRecord
100
AcDbRegAppTableRecord
  2
X_PARENTHANDLE
 70
     0
  0
APPID
  5
1F78
330
9
100
AcDbSymbolTableRecord
100
AcDbRegAppTableRecord
  2
X_OBJDATA
 70
     0
  0
APPID
  5
1F79
330
9
100
AcDbSymbolTableRecord
100
AcDbRegAppTableRecord
  2
DCO15
 70
     0
  0
APPID
  5
1F7A
330
9
100
AcDbSymbolTableRecord
100
AcDbRegAppTableRecord
  2
PRODULE_A
 70
     0
  0
APPID
  5
1F7B
330
9
100
AcDbSymbolTableRecord
100
AcDbRegAppTableRecord
  2
TOGO
 70
     0
  0
APPID
  5
16B03
330
9
100
AcDbSymbolTableRecord
100
AcDbRegAppTableRecord
  2
AcAecLayerStandard
 70
     0
  0
APPID
  5
26E49
330
9
100
AcDbSymbolTableRecord
100
AcDbRegAppTableRecord
  2
ACAD_PSEXT
 70
     0
  0
ENDTAB
  0
TABLE
  2
DIMSTYLE
  5
A
330
0
100
AcDbSymbolTable
 70
     9
100
AcDbDimStyleTable
 71
     4
340
2FADF
340
11F18
340
2FADE
340
2FAE1
  0
DIMSTYLE
105
4A
330
A
100
AcDbSymbolTableRecord
100
AcDbDimStyleTableRecord
  2
dim
 70
     0
 41
2.5
 42
3.0
 43
5.0
 44
1.0
 73
     0
 74
     0
 77
     1
 78
     8
140
2.5
141
0.0
143
0.03937007874016
147
0.3
171
     3
172
     1
271
     2
272
     2
274
     3
277
     6
279
     2
283
     0
284
     8
340
43
341
46
342
46
  0
DIMSTYLE
105
1AD4
330
A
100
AcDbSymbolTableRecord
100
AcDbDimStyleTableRecord
  2
Standard
 70
     0
340
11
  0
DIMSTYLE
105
4C00
330
A
100
AcDbSymbolTableRecord
100
AcDbDimStyleTableRecord
  2
ISO-25
 70
     0
 41
2.5
 42
0.625
 43
3.75
 44
1.25
 73
     0
 74
     0
 77
     1
 78
     8
140
2.5
141
2.5
143
0.03937007874016
147
0.625
171
     3
172
     1
271
     2
272
     2
274
     3
283
     0
284
     8
340
11
  0
DIMSTYLE
105
11F18
330
A
100
AcDbSymbolTableRecord
100
AcDbDimStyleTableRecord
  2
Std2
 70
     0
 40
2.0
 41
2.299999999999999
 42
2.0
 43
8.0
 44
1.0
 73
     0
 74
     0
 77
     1
 78
     8
140
3.0
141
0.0
143
0.03937007874016
147
1.0
171
     3
172
     1
176
     3
177
     3
178
     2
271
     1
272
     1
274
     3
277
     6
279
     2
283
     0
284
     8
340
36CD
341
36C5
342
36C5
371
     9
372
     9
  0
DIMSTYLE
105
2FADE
102
{ACAD_REACTORS
330
2FCC9
330
2FCCA
330
2FCCB
330
2FCCC
330
2FCCE
330
2FCCF
330
2FCE6
330
2FCE7
330
2FCEA
330
2FCEB
330
2FCFB
330
2FD0B
330
2FD4A
330
2FD4C
330
2FD4F
330
2FD50
330
2FD51
330
2FD55
330
2FD5D
330
2FCCD
330
2FD14
102
}
330
A
100
AcDbSymbolTableRecord
100
AcDbDimStyleTableRecord
  2
dim2
 70
     0
 40
2.0
 41
3.5
 42
2.0
 43
8.0
 44
1.0
 73
     0
 74
     0
 77
     1
 78
     8
140
3.0
141
0.0
143
0.03937007874016
147
0.6
171
     3
172
     1
176
     3
177
     3
178
     2
271
     1
272
     1
274
     3
277
     6
279
     2
283
     0
284
     8
340
36CD
341
2F99B
342
46
371
     9
372
     9
  0
DIMSTYLE
105
2FADF
330
A
100
AcDbSymbolTableRecord
100
AcDbDimStyleTableRecord
  2
dim2de
 70
     0
 40
2.0
 41
3.5
 42
2.0
 43
8.0
 44
1.0
 73
     0
 74
     0
 77
     1
 78
     8
140
3.0
141
0.0
143
0.03937007874016
147
0.5
171
     3
172
     1
176
   256
177
   256
178
   256
271
     1
272
     1
274
     3
277
     6
279
     2
283
     0
284
     8
340
36CD
341
46
342
46
371
     9
372
     9
  0
DIMSTYLE
105
2FAE0
330
A
100
AcDbSymbolTableRecord
100
AcDbDimStyleTableRecord
  2
Std2de
 70
     0
 40
2.0
 41
2.299999999999999
 42
2.0
 43
8.0
 44
1.0
 73
     0
 74
     0
 77
     1
 78
     8
140
3.0
141
0.0
143
0.03937007874016
147
1.0
171
     3
172
     1
271
     1
272
     1
274
     3
277
     6
279
     2
283
     0
284
     8
340
36CD
341
36C5
342
36C5
371
     9
372
     9
  0
DIMSTYLE
105
2FAE1
102
{ACAD_REACTORS
330
2FD59
330
2FD22
330
2FD21
102
}
330
A
100
AcDbSymbolTableRecord
100
AcDbDimStyleTableRecord
  2
dim2_20
 70
     0
 40
2.0
 41
3.5
 42
2.0
 43
8.0
 44
1.0
 73
     0
 74
     0
 77
     1
 78
     8
140
3.0
141
0.0
143
0.03937007874016
144
10.0
147
0.5
171
     3
172
     1
176
     3
177
     3
178
     2
271
     1
272
     1
274
     3
277
     6
279
     2
283
     0
284
     8
340
36CD
341
46
342
46
371
     9
372
     9
  0
DIMSTYLE
105
30258
330
A
100
AcDbSymbolTableRecord
100
AcDbDimStyleTableRecord
  2
dim2_30
 70
     0
 40
2.0
 41
3.5
 42
2.0
 43
8.0
 44
1.0
 73
     0
 74
     0
 77
     1
 78
     8
140
3.0
141
0.0
143
0.03937007874016
144
15.0
147
0.5
171
     3
172
     1
176
     3
177
     3
178
     2
271
     1
272
     1
274
     3
277
     6
279
     2
283
     0
284
     8
340
36CD
341
46
342
46
371
     9
372
     9
  0
ENDTAB
  0
TABLE
  2
BLOCK_RECORD
  5
1
330
0
100
AcDbSymbolTable
 70
    30
  0
BLOCK_RECORD
  5
1F
330
1
100
AcDbSymbolTableRecord
100
AcDbBlockTableRecord
  2
*Model_Space
340
22
  0
BLOCK_RECORD
  5
1B
330
1
100
AcDbSymbolTableRecord
100
AcDbBlockTableRecord
  2
*Paper_Space
340
1E
  0
BLOCK_RECORD
  5
23
330
1
100
AcDbSymbolTableRecord
100
AcDbBlockTableRecord
  2
*Paper_Space0
340
26
  0
BLOCK_RECORD
  5
46
330
1
100
AcDbSymbolTableRecord
100
AcDbBlockTableRecord
  2
_DotSmall
340
0
102
{BLKREFS
331
311AE
331
311B6
331
311B7
331
311BF
331
311C0
331
311C9
331
311CA
331
311D2
331
311D3
331
311DB
331
311DC
331
311E5
331
311E6
331
311EE
331
311EF
331
311F7
331
311F8
331
31200
331
31201
331
31209
331
3120A
331
31212
331
31213
331
3121B
331
3121C
331
31224
331
31225
331
3122D
331
3122E
331
31237
331
31238
331
31240
331
31241
331
3125A
331
3125B
331
31263
331
31264
331
3126C
331
3126D
331
31276
331
31277
331
3127E
331
3127F
331
31287
331
31288
331
31291
331
31292
102
}
  0
BLOCK_RECORD
  5
36C5
330
1
100
AcDbSymbolTableRecord
100
AcDbBlockTableRecord
  2
ARRI
340
0
310
2800000020000000200000000100080000000000000400000000000000000000000000000000000000000000000080000080000000808000800000008000800080800000C0C0C000C0DCC000F0CAA6000020400000206000002080000020A0000020C0000020E00000400000004020000040400000406000004080000040A0
310
000040C0000040E00000600000006020000060400000606000006080000060A0000060C0000060E00000800000008020000080400000806000008080000080A0000080C0000080E00000A0000000A0200000A0400000A0600000A0800000A0A00000A0C00000A0E00000C0000000C0200000C0400000C0600000C0800000C0
310
A00000C0C00000C0E00000E0000000E0200000E0400000E0600000E0800000E0A00000E0C00000E0E00040000000400020004000400040006000400080004000A0004000C0004000E00040200000402020004020400040206000402080004020A0004020C0004020E000404000004040200040404000404060004040800040
310
40A0004040C0004040E00040600000406020004060400040606000406080004060A0004060C0004060E00040800000408020004080400040806000408080004080A0004080C0004080E00040A0000040A0200040A0400040A0600040A0800040A0A00040A0C00040A0E00040C0000040C0200040C0400040C0600040C08000
310
40C0A00040C0C00040C0E00040E0000040E0200040E0400040E0600040E0800040E0A00040E0C00040E0E00080000000800020008000400080006000800080008000A0008000C0008000E00080200000802020008020400080206000802080008020A0008020C0008020E00080400000804020008040400080406000804080
310
008040A0008040C0008040E00080600000806020008060400080606000806080008060A0008060C0008060E00080800000808020008080400080806000808080008080A0008080C0008080E00080A0000080A0200080A0400080A0600080A0800080A0A00080A0C00080A0E00080C0000080C0200080C0400080C0600080C0
310
800080C0A00080C0C00080C0E00080E0000080E0200080E0400080E0600080E0800080E0A00080E0C00080E0E000C0000000C0002000C0004000C0006000C0008000C000A000C000C000C000E000C0200000C0202000C0204000C0206000C0208000C020A000C020C000C020E000C0400000C0402000C0404000C0406000C0
310
408000C040A000C040C000C040E000C0600000C0602000C0604000C0606000C0608000C060A000C060C000C060E000C0800000C0802000C0804000C0806000C0808000C080A000C080C000C080E000C0A00000C0A02000C0A04000C0A06000C0A08000C0A0A000C0A0C000C0A0E000C0C00000C0C02000C0C04000C0C06000
310
C0C08000C0C0A000F0FBFF00A4A0A000808080000000FF0000FF000000FFFF00FF000000FF00FF00FFFF0000FFFFFF0000000000000000000000000000000000000000000000000000000000000000000000000000000000000000000000000000000000000000000000000000000000000000000000000000000000000000
310
00000000000000000000000000000000000000000000000000000000000000000000000000000000000000000000000000000000000000000000000000000000000000000000000000000000000000000000000000000000000000000000000000000000000000000000000000000000000000000000000000000000000000
310
00000000000000000000000000000000000000000000000000000000000000000000000000000000000000000000000000000000000000000000000000000000000000000000000000000000000000000000000000000000000000000000000000000000000000000000000000000000000000FFFFFF000000000000000000
310
0000000000000000000000000000000000000000000000FFFFFFFFFF0000000000000000000000000000000000000000000000000000000000000000FFFFFFFFFF0000000000000000000000000000000000000000000000000000000000000000FFFFFFFF0000000000000000000000000000000000000000000000000000
310
000000000000FFFFFFFFFF0000000000000000000000000000000000000000000000000000000000000000FFFFFFFFFF0000000000FFFFFFFFFFFFFFFFFFFFFFFFFFFFFFFFFFFFFFFFFFFFFFFFFFFFFFFFFFFF0000000000000000000000000000000000000000000000FFFFFFFFFFFF000000000000000000000000000000
310
0000000000FFFFFFFFFFFF0000000000000000000000000000000000000000FFFFFFFFFFFF0000000000000000000000000000000000000000FFFFFFFFFFFF0000000000000000000000000000000000000000000000FFFFFF0000000000000000000000000000000000000000000000000000000000000000000000000000
310
00000000000000000000000000000000000000000000000000000000000000000000000000000000000000000000000000000000000000000000000000000000000000000000000000000000000000000000000000000000000000000000000000000000000000000000000000000000000000000000000000000000000000
310
00000000000000000000000000000000000000000000000000000000000000000000000000000000000000000000000000000000000000000000000000000000000000000000000000000000000000000000000000000000000000000000000000000000000000000000000000000000000000000000000000000000000000
310
0000000000000000000000000000000000000000000000000000000000000000000000000000000000000000000000000000000000000000
  0
BLOCK_RECORD
  5
3829
330
1
100
AcDbSymbolTableRecord
100
AcDbBlockTableRecord
  2
二葉ﾛｺﾞ
340
0
310
2800000020000000200000000100080000000000000400000000000000000000000000000000000000000000000080000080000000808000800000008000800080800000C0C0C000C0DCC000F0CAA6000020400000206000002080000020A0000020C0000020E00000400000004020000040400000406000004080000040A0
310
000040C0000040E00000600000006020000060400000606000006080000060A0000060C0000060E00000800000008020000080400000806000008080000080A0000080C0000080E00000A0000000A0200000A0400000A0600000A0800000A0A00000A0C00000A0E00000C0000000C0200000C0400000C0600000C0800000C0
310
A00000C0C00000C0E00000E0000000E0200000E0400000E0600000E0800000E0A00000E0C00000E0E00040000000400020004000400040006000400080004000A0004000C0004000E00040200000402020004020400040206000402080004020A0004020C0004020E000404000004040200040404000404060004040800040
310
40A0004040C0004040E00040600000406020004060400040606000406080004060A0004060C0004060E00040800000408020004080400040806000408080004080A0004080C0004080E00040A0000040A0200040A0400040A0600040A0800040A0A00040A0C00040A0E00040C0000040C0200040C0400040C0600040C08000
310
40C0A00040C0C00040C0E00040E0000040E0200040E0400040E0600040E0800040E0A00040E0C00040E0E00080000000800020008000400080006000800080008000A0008000C0008000E00080200000802020008020400080206000802080008020A0008020C0008020E00080400000804020008040400080406000804080
310
008040A0008040C0008040E00080600000806020008060400080606000806080008060A0008060C0008060E00080800000808020008080400080806000808080008080A0008080C0008080E00080A0000080A0200080A0400080A0600080A0800080A0A00080A0C00080A0E00080C0000080C0200080C0400080C0600080C0
310
800080C0A00080C0C00080C0E00080E0000080E0200080E0400080E0600080E0800080E0A00080E0C00080E0E000C0000000C0002000C0004000C0006000C0008000C000A000C000C000C000E000C0200000C0202000C0204000C0206000C0208000C020A000C020C000C020E000C0400000C0402000C0404000C0406000C0
310
408000C040A000C040C000C040E000C0600000C0602000C0604000C0606000C0608000C060A000C060C000C060E000C0800000C0802000C0804000C0806000C0808000C080A000C080C000C080E000C0A00000C0A02000C0A04000C0A06000C0A08000C0A0A000C0A0C000C0A0E000C0C00000C0C02000C0C04000C0C06000
310
C0C08000C0C0A000F0FBFF00A4A0A000808080000000FF0000FF000000FFFF00FF000000FF00FF00FFFF0000FFFFFF000000000000000000000000000000000000000000000000000000000000000000000000000000000000000000000000FFFFFF000000000000000000000000000000000000000000000000FFFFFFFFFF
310
000000FFFFFF0000000000000000000000000000000000000000FF0000FFFF000000FFFFFF00FFFF0000000000000000000000000000000000FF000000FFFF000000FFFFFFFF0000FFFF00000000000000000000000000FFFFFFFF000000FFFF0000FFFFFFFF00FFFF00FF0000000000000000000000FF00FFFFFFFF0000FF
310
FFFF00FFFFFF00FFFFFFFFFFFF000000000000000000FF0000FFFFFFFFFFFFFFFFFF00FFFF00FFFFFFFFFFFF00FF00000000000000FF000000FFFF00FFFF0000000000000000FFFFFFFFFFFF00FF00000000000000FF000000FFFFFF0000000000000000000000FFFFFF000000FFFF0000000000FF000000FFFFFFFF000000
310
000000000000000000000000FFFFFFFF0000000000FF00FFFFFFFFFF000000000000000000000000000000FFFFFFFFFFFF00000000FFFFFFFFFFFFFF000000000000000000000000000000FFFFFFFFFFFF000000FF00000000FFFF000000000000000000000000000000000000000000FF000000FF00000000000000000000
310
000000000000000000000000000000000000FF0000FF0000FFFFFFFFFFFFFFFFFFFFFFFFFFFFFFFFFFFFFFFFFFFFFFFFFF00FF0000FF00FFFFFFFFFFFFFFFFFFFFFFFFFFFFFFFFFFFFFFFFFFFFFFFFFFFF00FF0000FF00FFFFFFFFFFFFFFFFFFFFFFFFFFFFFFFFFFFFFFFFFFFFFFFFFFFF00FF0000FF00FFFFFFFFFFFFFFFF
310
FFFFFFFF0000FFFFFFFFFFFFFFFFFFFFFFFFFF00000000FF00FFFFFFFFFFFFFFFFFFFFFF000000FFFFFFFFFFFFFFFFFFFF00FF00000000FF00FFFFFFFFFFFFFFFFFFFF0000000000FFFFFFFFFFFFFFFFFF00FF00000000FF00FFFFFFFFFFFFFFFFFFFF0000000000FFFFFFFFFFFFFFFFFFFF000000000000FF00FFFFFFFFFF
310
FFFFFF000000000000FFFFFFFFFFFFFFFF00FF000000000000FF00FFFFFFFFFFFFFFFF00000000000000FFFFFFFFFFFFFFFF0000000000000000FF00FFFFFFFFFFFF000000000000000000FFFFFFFFFF00FF000000000000000000FF00FFFFFFFFFF000000000000000000FFFFFFFF00FF0000000000000000000000FFFFFF
310
FFFF0000000000000000000000FFFF00FF0000000000000000000000000000FF0000000000000000000000000000FFFF00000000000000000000000000000000FF0000000000000000000000FFFF00000000000000000000000000000000000000FFFFFFFFFF000000FFFFFF00000000000000000000000000000000000000
310
00000000000000FFFFFF00000000000000000000000000000000000000000000000000000000000000000000000000000000000000000000
102
{BLKREFS
331
178F8
102
}
1001
ACAD
1000
DesignCenter Data
1002
{
1070
     1
1070
     4
1002
}
  0
BLOCK_RECORD
  5
2C7EC
330
1
100
AcDbSymbolTableRecord
100
AcDbBlockTableRecord
  2
_ClosedBlank
340
0
102
{BLKREFS
331
311AF
102
}
  0
BLOCK_RECORD
  5
2F99B
330
1
100
AcDbSymbolTableRecord
100
AcDbBlockTableRecord
  2
_Open30
340
0
  0
BLOCK_RECORD
  5
2FD72
330
1
100
AcDbSymbolTableRecord
100
AcDbBlockTableRecord
  2
*D6
340
0
  0
BLOCK_RECORD
  5
2FD7E
330
1
100
AcDbSymbolTableRecord
100
AcDbBlockTableRecord
  2
*D7
340
0
  0
BLOCK_RECORD
  5
2FD8A
330
1
100
AcDbSymbolTableRecord
100
AcDbBlockTableRecord
  2
*D8
340
0
  0
BLOCK_RECORD
  5
2FD96
330
1
100
AcDbSymbolTableRecord
100
AcDbBlockTableRecord
  2
*D9
340
0
  0
BLOCK_RECORD
  5
2FDA2
330
1
100
AcDbSymbolTableRecord
100
AcDbBlockTableRecord
  2
*D10
340
0
  0
BLOCK_RECORD
  5
2FDAE
330
1
100
AcDbSymbolTableRecord
100
AcDbBlockTableRecord
  2
*D11
340
0
  0
BLOCK_RECORD
  5
2FDBA
330
1
100
AcDbSymbolTableRecord
100
AcDbBlockTableRecord
  2
*D12
340
0
  0
BLOCK_RECORD
  5
2FDDE
330
1
100
AcDbSymbolTableRecord
100
AcDbBlockTableRecord
  2
*D13
340
0
  0
BLOCK_RECORD
  5
2FDEA
330
1
100
AcDbSymbolTableRecord
100
AcDbBlockTableRecord
  2
*D14
340
0
  0
BLOCK_RECORD
  5
2FDF6
330
1
100
AcDbSymbolTableRecord
100
AcDbBlockTableRecord
  2
*D15
340
0
  0
BLOCK_RECORD
  5
2FE02
330
1
100
AcDbSymbolTableRecord
100
AcDbBlockTableRecord
  2
*D16
340
0
  0
BLOCK_RECORD
  5
2FE0E
330
1
100
AcDbSymbolTableRecord
100
AcDbBlockTableRecord
  2
*D17
340
0
  0
BLOCK_RECORD
  5
2FE1A
330
1
100
AcDbSymbolTableRecord
100
AcDbBlockTableRecord
  2
*D18
340
0
  0
BLOCK_RECORD
  5
2FE26
330
1
100
AcDbSymbolTableRecord
100
AcDbBlockTableRecord
  2
*D19
340
0
  0
BLOCK_RECORD
  5
2FE32
330
1
100
AcDbSymbolTableRecord
100
AcDbBlockTableRecord
  2
*D20
340
0
  0
BLOCK_RECORD
  5
2FE3E
330
1
100
AcDbSymbolTableRecord
100
AcDbBlockTableRecord
  2
*D21
340
0
  0
BLOCK_RECORD
  5
2FE4A
330
1
100
AcDbSymbolTableRecord
100
AcDbBlockTableRecord
  2
*D22
340
0
  0
BLOCK_RECORD
  5
2FE56
330
1
100
AcDbSymbolTableRecord
100
AcDbBlockTableRecord
  2
*D23
340
0
  0
BLOCK_RECORD
  5
2FE63
330
1
100
AcDbSymbolTableRecord
100
AcDbBlockTableRecord
  2
*D24
340
0
  0
BLOCK_RECORD
  5
2FE6F
330
1
100
AcDbSymbolTableRecord
100
AcDbBlockTableRecord
  2
*D25
340
0
  0
BLOCK_RECORD
  5
2FE7B
330
1
100
AcDbSymbolTableRecord
100
AcDbBlockTableRecord
  2
*D26
340
0
  0
BLOCK_RECORD
  5
2FE88
330
1
100
AcDbSymbolTableRecord
100
AcDbBlockTableRecord
  2
*D27
340
0
  0
BLOCK_RECORD
  5
2FE94
330
1
100
AcDbSymbolTableRecord
100
AcDbBlockTableRecord
  2
*D28
340
0
  0
BLOCK_RECORD
  5
2FEA0
330
1
100
AcDbSymbolTableRecord
100
AcDbBlockTableRecord
  2
*D29
340
0
  0
ENDTAB
  0
ENDSEC
  0
SECTION
  2
BLOCKS
  0
BLOCK
  5
20
330
1F
100
AcDbEntity
  8
0
100
AcDbBlockBegin
  2
*Model_Space
 70
     0
 10
0.0
 20
0.0
 30
0.0
  3
*Model_Space
  1

  0
ENDBLK
  5
21
330
1F
100
AcDbEntity
  8
0
100
AcDbBlockEnd
  0
BLOCK
  5
1C
330
1B
100
AcDbEntity
 67
     1
  8
0
100
AcDbBlockBegin
  2
*Paper_Space
 70
     0
 10
0.0
 20
0.0
 30
0.0
  3
*Paper_Space
  1

  0
ENDBLK
  5
1D
330
1B
100
AcDbEntity
 67
     1
  8
0
100
AcDbBlockEnd
  0
BLOCK
  5
24
330
23
100
AcDbEntity
  8
0
100
AcDbBlockBegin
  2
*Paper_Space0
 70
     0
 10
0.0
 20
0.0
 30
0.0
  3
*Paper_Space0
  1

  0
ENDBLK
  5
25
330
23
100
AcDbEntity
  8
0
100
AcDbBlockEnd
  0
BLOCK
  5
48
330
46
100
AcDbEntity
  8
0
100
AcDbBlockBegin
  2
_DotSmall
 70
     0
 10
0.0
 20
0.0
 30
0.0
  3
_DotSmall
  1

  0
LWPOLYLINE
  5
47
330
46
100
AcDbEntity
  8
0
  6
ByBlock
 62
     0
100
AcDbPolyline
 90
        2
 70
     1
 43
0.5
 10
-0.0625
 20
0.0
 42
1.0
 10
0.0625
 20
0.0
 42
1.0
  0
ENDBLK
  5
49
330
46
100
AcDbEntity
  8
0
100
AcDbBlockEnd
  0
BLOCK
  5
36C6
330
36C5
100
AcDbEntity
  8
0
100
AcDbBlockBegin
  2
ARRI
 70
     0
 10
0.0
 20
0.0
 30
0.0
  3
ARRI
  1

  0
LINE
  5
36C7
330
36C5
100
AcDbEntity
  8
0
  6
ByBlock
 62
     0
100
AcDbLine
 10
-0.9999999999995168
 20
-0.2125565616699987
 30
0.0
 11
0.0000000000005826
 21
0.0000000000000142
 31
0.0
  0
LINE
  5
36C8
330
36C5
100
AcDbEntity
  8
0
  6
ByBlock
 62
     0
100
AcDbLine
 10
0.0000000000005826
 20
0.0000000000000142
 30
0.0
 11
-0.9999999999995168
 21
0.2125565616699276
 31
0.0
  0
LINE
  5
36C9
330
36C5
100
AcDbEntity
  8
0
  6
ByBlock
 62
     0
100
AcDbLine
 10
0.0000000000004832
 20
0.0
 30
0.0
 11
-0.9999999999995168
 21
0.0000000000000284
 31
0.0
  0
ENDBLK
  5
36CA
330
36C5
100
AcDbEntity
  8
0
100
AcDbBlockEnd
  0
BLOCK
  5
382A
330
3829
100
AcDbEntity
  8
0
100
AcDbBlockBegin
  2
二葉ﾛｺﾞ
 70
     0
 10
0.0
 20
0.0
 30
0.0
  3
二葉ﾛｺﾞ
  1

  0
HATCH
  5
382B
330
3829
100
AcDbEntity
  8
0
  6
ByBlock
 62
     0
370
     0
100
AcDbHatch
 10
0.0
 20
0.0
 30
0.0
210
0.0
220
0.0
230
1.0
  2
SOLID
 70
     1
 71
     0
 91
        2
 92
       16
 93
        3
 72
     1
 10
76.73769930424715
 20
-36.71304457298436
 11
79.78414802696352
 21
-29.1412168510102
 72
     1
 10
79.78414802696534
 20
-29.14121685100997
 11
66.50084414551566
 21
-28.19627637481938
 72
     1
 10
66.50084414551748
 20
-28.19627637481915
 11
76.73769930424715
 21
-36.71304457298379
 97
        0
 92
        1
 93
        8
 72
     1
 10
84.6811051822242
 20
-43.32270634133806
 11
82.15388156491099
 21
-49.6075448210006
 72
     1
 10
82.15388156491099
 20
-49.60754482100004
 11
59.39410431416582
 21
-29.26425597551384
 72
     1
 10
59.39410431417127
 20
-29.2642559755144
 11
62.12557287816162
 21
-22.47249630289525
 72
     1
 10
62.12557287815798
 20
-22.47249630289502
 11
92.63189340767349
 21
-23.55277981603967
 72
     1
 10
92.63189340767349
 20
-23.55277981604013
 11
90.10466979036028
 21
-29.83761829570267
 72
     1
 10
90.10466979035482
 20
-29.83761829570301
 11
84.56544840518654
 21
-29.45619700974067
 72
     1
 10
84.56544840519018
 20
-29.45619700973987
 11
80.41902990940617
 21
-39.76441486068234
 72
     1
 10
80.41902990940434
 20
-39.76441486068291
 11
84.6811051822242
 21
-43.32270634133749
 97
        0
 75
     0
 76
     1
 98
        1
 10
-710.8849522954551
 20
-714.907159621347
450
        0
451
        0
460
0.0
461
0.0
452
        1
462
1.0
453
        2
463
0.0
 63
     5
421
      255
463
1.0
 63
    51
421
 16777113
470
LINEAR
  0
HATCH
  5
382C
330
3829
100
AcDbEntity
  8
0
  6
ByBlock
 62
     0
370
     0
100
AcDbHatch
 10
0.0
 20
0.0
 30
0.0
210
0.0
220
0.0
230
1.0
  2
SOLID
 70
     1
 71
     0
 91
        3
 92
        1
 93
        1
 72
     4
 94
        3
 73
     0
 74
     0
 95
       29
 96
       25
 40
0.0
 40
0.0
 40
0.0
 40
0.0
 40
1.0
 40
1.0
 40
1.0
 40
2.0
 40
2.0
 40
2.0
 40
3.0
 40
3.0
 40
3.0
 40
4.0
 40
4.0
 40
4.0
 40
5.0
 40
5.0
 40
5.0
 40
6.0
 40
6.0
 40
6.0
 40
7.0
 40
7.0
 40
7.0
 40
8.0
 40
8.0
 40
8.0
 40
8.0
 10
64.57897302076526
 20
-69.57925551048436
 10
64.57897302076526
 20
-69.57925551048436
 10
52.10280579606297
 20
-79.93422822873879
 10
52.10280579606297
 20
-79.93422822873879
 10
52.10280579606297
 20
-79.93422822873879
 10
33.77243702746091
 20
-57.84132303280569
 10
33.77243702746091
 20
-57.84132303280569
 10
33.77243702746091
 20
-57.84132303280569
 10
45.66047723703195
 20
-47.97850681256806
 10
45.66047723703195
 20
-47.97850681256806
 10
49.97668972463362
 20
-44.39806828950224
 10
54.5660490686314
 20
-44.565401498828
 10
57.30982154507183
 20
-47.87269316549429
 10
59.98469211178417
 20
-51.09631822749872
 10
58.48607557533068
 20
-53.85485539887724
 10
57.76752708822641
 20
-55.20828576842075
 10
59.02990850563583
 20
-54.68167831554456
 10
59.66971195305632
 20
-54.48235493384709
 10
60.7327699887719
 20
-54.45282554396658
 10
62.78752336798607
 20
-54.35931580934379
 10
64.88411004953741
 20
-55.17383481356012
 10
66.53529510037697
 20
-57.16460784803349
 10
69.67525355771977
 20
-60.94929131777576
 10
68.86811690097056
 20
-66.02342481231914
 10
64.57897302076526
 20
-69.57925551048436
 97
        0
 92
       16
 93
        1
 72
     4
 94
        3
 73
     0
 74
     0
 95
       20
 96
       16
 40
0.0
 40
0.0
 40
0.0
 40
0.0
 40
1.0
 40
1.0
 40
1.0
 40
2.0
 40
2.0
 40
2.0
 40
3.0
 40
3.0
 40
3.0
 40
4.0
 40
4.0
 40
4.0
 40
5.0
 40
5.0
 40
5.0
 40
5.0
 10
54.74568619040656
 20
-61.26919304148657
 10
54.74568619040656
 20
-61.26919304148657
 10
49.0538962908522
 20
-65.98897385745863
 10
49.0538962908522
 20
-65.98897385745863
 10
49.0538962908522
 20
-65.98897385745863
 10
53.96069657607404
 20
-71.90469496360936
 10
53.96069657607404
 20
-71.90469496360936
 10
53.96069657607404
 20
-71.90469496360936
 10
59.6549472581155
 20
-67.18245336514724
 10
59.6549472581155
 20
-67.18245336514724
 10
61.44639691089469
 20
-65.69367995864945
 10
62.56605294387918
 20
-63.39038754793512
 10
60.70570138137918
 20
-61.14861469947323
 10
58.65833034963362
 20
-58.68291064441291
 10
56.14833220975197
 20
-60.10524292367847
 10
54.74568619040656
 20
-61.26919304148657
 97
        0
 92
       16
 93
        1
 72
     4
 94
        3
 73
     0
 74
     0
 95
       20
 96
       16
 40
0.0
 40
0.0
 40
0.0
 40
0.0
 40
1.0
 40
1.0
 40
1.0
 40
2.0
 40
2.0
 40
2.0
 40
3.0
 40
3.0
 40
3.0
 40
4.0
 40
4.0
 40
4.0
 40
5.0
 40
5.0
 40
5.0
 40
5.0
 10
52.53344273182847
 20
-53.0674050020524
 10
51.74353155250719
 20
-52.11262139590167
 10
49.99637598455411
 20
-50.86500467343069
 10
47.72507374621091
 20
-52.74996406083142
 10
47.72507374621091
 20
-52.74996406083142
 10
42.00621523926383
 20
-57.49435270170522
 10
42.00621523926383
 20
-57.49435270170522
 10
42.00621523926383
 20
-57.49435270170522
 10
46.44792763385703
 20
-62.84901540011708
 10
46.44792763385703
 20
-62.84901540011708
 10
46.44792763385703
 20
-62.84901540011708
 10
52.16924692329303
 20
-58.1046267592443
 10
52.16924692329303
 20
-58.1046267592443
 10
54.24368656243132
 20
-56.38207901618864
 10
53.53498120528638
 20
-54.27318842219086
 10
52.53344273182847
 20
-53.0674050020524
 97
        0
 75
     0
 76
     1
 98
        1
 10
-710.8849522954551
 20
-714.907159621347
450
        0
451
        0
460
0.0
461
0.0
452
        0
462
0.0
453
        2
463
0.0
 63
     5
421
      255
463
1.0
 63
    51
421
 16777113
470

  0
HATCH
  5
382D
330
3829
100
AcDbEntity
  8
0
  6
ByBlock
 62
     0
370
     0
100
AcDbHatch
 10
0.0
 20
0.0
 30
0.0
210
0.0
220
0.0
230
1.0
  2
SOLID
 70
     1
 71
     0
 91
        2
 92
        1
 93
        8
 72
     1
 10
29.27658741808591
 20
-89.607564197241
 11
26.4663738144136
 21
-84.81642068905648
 72
     1
 10
26.46637381441542
 20
-84.8164206890557
 11
15.61678381565434
 21
-87.21322283439292
 72
     1
 10
15.61678381565434
 20
-87.21322283439281
 11
15.08279401530671
 21
-92.73767952462106
 72
     1
 10
15.08279401530854
 20
-92.73767952462151
 11
8.465749899487491
 21
-94.19938432372862
 72
     1
 10
8.465749899482034
 20
-94.19938432372873
 11
12.41776657855007
 21
-63.92929891326241
 72
     1
 10
12.41776657855371
 20
-63.92929891326218
 11
19.5688004947242
 21
-62.35193733712117
 72
     1
 10
19.5688004947242
 20
-62.35193733712151
 11
35.89363153391059
 21
-88.14585939813332
 72
     1
 10
35.89363153391242
 20
-88.14585939813275
 11
29.27658741809137
 21
-89.60756419723987
 97
        0
 92
       16
 93
        3
 72
     1
 10
16.05726388137918
 20
-82.45160871608936
 11
24.02773836674715
 21
-80.69214923568257
 72
     1
 10
24.02773836674533
 20
-80.6921492356829
 11
17.30980216882744
 21
-69.19291265954223
 72
     1
 10
17.3098021688329
 20
-69.19291265954234
 11
16.05726388138282
 21
-82.45160871608993
 97
        0
 75
     0
 76
     1
 98
        1
 10
-710.8849522954551
 20
-714.907159621347
450
        0
451
        0
460
0.0
461
0.0
452
        0
462
0.0
453
        2
463
0.0
 63
     5
421
      255
463
1.0
 63
    51
421
 16777113
470

  0
HATCH
  5
382E
330
3829
100
AcDbEntity
  8
0
  6
ByBlock
 62
     0
370
     0
100
AcDbHatch
 10
0.0
 20
0.0
 30
0.0
210
0.0
220
0.0
230
1.0
  2
SOLID
 70
     1
 71
     0
 91
        1
 92
        3
 72
     0
 73
     1
 93
        8
 10
-27.98459073481536
 20
-65.15722937581142
 10
-18.55610262407572
 20
-67.39408065929456
 10
-23.94767705984123
 20
-90.11202460770642
 10
-17.53118671696029
 20
-91.63524896906585
 10
-12.14084267243743
 20
-68.91730502065297
 10
-2.712354561701431
 20
-71.15169552164502
 10
-1.477041751681099
 20
-65.93975820765741
 10
-26.74927792479503
 20
-59.94529206182358
 97
        0
 75
     2
 76
     1
 98
        1
 10
0.5032729572103563
 20
0.4066288986183509
450
        0
451
        0
460
0.0
461
0.0
452
        0
462
0.0
453
        0
470

  0
HATCH
  5
382F
330
3829
100
AcDbEntity
  8
0
  6
ByBlock
 62
     0
370
     0
100
AcDbHatch
 10
0.0
 20
0.0
 30
0.0
210
0.0
220
0.0
230
1.0
  2
SOLID
 70
     1
 71
     0
 91
        1
 92
        1
 93
        1
 72
     4
 94
        3
 73
     0
 74
     0
 95
       35
 96
       31
 40
0.0
 40
0.0
 40
0.0
 40
0.0
 40
1.0
 40
1.0
 40
1.0
 40
2.0
 40
2.0
 40
2.0
 40
3.0
 40
3.0
 40
3.0
 40
4.0
 40
4.0
 40
4.0
 40
5.0
 40
5.0
 40
5.0
 40
6.0
 40
6.0
 40
6.0
 40
7.0
 40
7.0
 40
7.0
 40
8.0
 40
8.0
 40
8.0
 40
9.0
 40
9.0
 40
9.0
 40
10.0
 40
10.0
 40
10.0
 40
10.0
 10
-47.53304683600435
 20
-67.45560022154575
 10
-49.14485936701203
 20
-69.33809882645642
 10
-52.52351372588782
 20
-71.09509752437372
 10
-56.78189782497248
 20
-67.44575709158585
 10
-59.10610688684937
 20
-65.45252327462151
 10
-61.03412996782572
 20
-61.87946709902667
 10
-58.07011745852651
 20
-58.42206770046437
 10
-58.07011745852651
 20
-58.42206770046437
 10
-46.33464576333972
 20
-44.73273470815297
 10
-46.33464576333972
 20
-44.73273470815297
 10
-46.33464576333972
 20
-44.73273470815297
 10
-51.31280874076947
 20
-40.46573787035595
 10
-51.31280874076947
 20
-40.46573787035595
 10
-51.31280874076947
 20
-40.46573787035595
 10
-62.78743749200839
 20
-53.85239461638718
 10
-62.78743749200839
 20
-53.85239461638718
 10
-68.92832019600246
 20
-61.01573244500776
 10
-64.98491625565112
 20
-67.60816873593069
 10
-60.17285609629652
 20
-71.73490097179456
 10
-54.11687038821401
 20
-76.92715202586157
 10
-47.48998314242817
 20
-77.42669087134823
 10
-42.32110952201765
 20
-71.39777377065297
 10
-42.32110952201765
 20
-71.39777377065297
 10
-30.84771116202137
 20
-58.00865624213168
 10
-30.84771116202137
 20
-58.00865624213168
 10
-30.84771116202137
 20
-58.00865624213168
 10
-35.79757514081939
 20
-53.7638064467443
 10
-35.79757514081939
 20
-53.7638064467443
 10
-35.79757514081939
 20
-53.7638064467443
 10
-47.53304683600435
 20
-67.45560022154575
 10
-47.53304683600435
 20
-67.45560022154575
 97
        0
 75
     2
 76
     1
 98
        1
 10
0.5032729572103563
 20
0.4066288986183509
450
        0
451
        0
460
0.0
461
0.0
452
        0
462
0.0
453
        0
470

  0
HATCH
  5
3830
330
3829
100
AcDbEntity
  8
0
  6
ByBlock
 62
     0
370
     0
100
AcDbHatch
 10
0.0
 20
0.0
 30
0.0
210
0.0
220
0.0
230
1.0
  2
SOLID
 70
     1
 71
     0
 91
        1
 92
        3
 72
     0
 73
     1
 93
       10
 10
-65.75760195753173
 20
-23.80377963002798
 10
-59.46538113040151
 20
-37.10923055388719
 10
-54.62502197241701
 20
-34.82070283811367
 10
-63.71884366450467
 20
-15.58722689565297
 10
-89.67025580488188
 20
-27.85914917367847
 10
-86.86742454868181
 20
-33.78717419228019
 10
-76.69085856095444
 20
-28.97388364168512
 10
-71.27098512655539
 20
-40.43620848047431
 10
-66.59549839540523
 20
-38.22642580438389
 10
-72.01414143855981
 20
-26.7641009655938
 97
        0
 75
     2
 76
     1
 98
        1
 10
0.5032729572103563
 20
0.4066288986183509
450
        0
451
        0
460
0.0
461
0.0
452
        0
462
0.0
453
        0
470

  0
HATCH
  5
3831
330
3829
100
AcDbEntity
  8
0
  6
ByBlock
 62
     0
370
     0
100
AcDbHatch
 10
0.0
 20
0.0
 30
0.0
210
0.0
220
0.0
230
1.0
  2
SOLID
 70
     1
 71
     0
 91
        1
 92
        1
 93
        1
 72
     4
 94
        3
 73
     0
 74
     0
 95
       41
 96
       37
 40
0.0
 40
0.0
 40
0.0
 40
0.0
 40
1.0
 40
1.0
 40
1.0
 40
2.0
 40
2.0
 40
2.0
 40
3.0
 40
3.0
 40
3.0
 40
4.0
 40
4.0
 40
4.0
 40
5.0
 40
5.0
 40
5.0
 40
6.0
 40
6.0
 40
6.0
 40
7.0
 40
7.0
 40
7.0
 40
8.0
 40
8.0
 40
8.0
 40
9.0
 40
9.0
 40
9.0
 40
10.0
 40
10.0
 40
10.0
 40
11.0
 40
11.0
 40
11.0
 40
12.0
 40
12.0
 40
12.0
 40
12.0
 10
92.32675637890134
 20
2.068887470666368
 10
92.54330523802854
 20
7.006447537010217
 10
89.35905269586147
 20
26.5672075506518
 10
84.30214467875158
 20
36.93694496384592
 10
76.89026781863322
 20
52.12858566635055
 10
62.69155285087435
 20
70.84283650340399
 10
52.19385474819318
 20
75.56753888435719
 10
48.08926955474089
 20
77.41312575191637
 10
46.59803536575418
 20
75.9440386053393
 10
45.61618315221676
 20
74.22395164477348
 10
19.70168274918797
 20
28.8926470037768
 10
7.653691677754977
 20
10.01967569611281
 10
4.907458418832902
 20
6.840344718929713
 10
2.550028793333694
 20
4.111336937431929
 10
0.0105012635740423
 20
3.701616652833763
 10
-2.743114342827539
 20
6.584423339962086
 10
-6.052866791986161
 20
10.05043547723892
 10
-41.08456632075467
 20
76.38697945355364
 10
-41.08456632075467
 20
76.38697945355364
 10
-42.52904564242817
 20
78.57584547847887
 10
-44.38693642243925
 20
79.73118285757152
 10
-47.64993400429012
 20
78.32730644698108
 10
-57.16701028466559
 20
74.23256438348892
 10
-70.9449314466201
 20
59.53431057024443
 10
-78.35311713300507
 20
47.83328982991747
 10
-80.90248779272588
 20
43.80621928490177
 10
-91.01876460944367
 20
21.83266203973892
 10
-90.9178725273523
 20
8.621951241747751
 10
-90.89326470245032
 20
5.213767492987813
 10
-90.38757390073625
 20
1.616103492491106
 10
-82.51183954123916
 20
-0.4386498867243063
 10
-82.51183954123916
 20
-0.4386498867243063
 10
87.31168166411771
 20
-2.195648584640593
 10
87.31168166411771
 20
-2.195648584640593
 10
89.73309163435443
 20
-1.89297233836146
 10
92.17418786451526
 20
-1.453722663881649
 10
92.32675637890134
 20
2.068887470666368
 97
        0
 75
     2
 76
     1
 98
        1
 10
0.5032729572103563
 20
0.4066288986183509
450
        0
451
        0
460
0.0
461
0.0
452
        0
462
0.0
453
        0
470

  0
CIRCLE
  5
3832
330
3829
100
AcDbEntity
  8
0
  6
ByBlock
 62
     0
370
    -2
100
AcDbCircle
 10
0.0
 20
0.0
 30
0.0
 40
103.5714285714286
  0
ENDBLK
  5
3833
330
3829
100
AcDbEntity
  8
0
100
AcDbBlockEnd
  0
BLOCK
  5
2C7ED
330
2C7EC
100
AcDbEntity
  8
0
100
AcDbBlockBegin
  2
_ClosedBlank
 70
     0
 10
0.0
 20
0.0
 30
0.0
  3
_ClosedBlank
  1

  0
LINE
  5
2C7EE
330
2C7EC
100
AcDbEntity
  8
0
  6
ByBlock
 62
     0
370
    -2
100
AcDbLine
 10
-1.0
 20
0.1666666666666666
 30
0.0
 11
0.0
 21
0.0
 31
0.0
  0
LINE
  5
2C7EF
330
2C7EC
100
AcDbEntity
  8
0
  6
ByBlock
 62
     0
370
    -2
100
AcDbLine
 10
0.0
 20
0.0
 30
0.0
 11
-1.0
 21
-0.1666666666666666
 31
0.0
  0
LINE
  5
2C7F0
330
2C7EC
100
AcDbEntity
  8
0
  6
ByBlock
 62
     0
370
    -2
100
AcDbLine
 10
-1.0
 20
0.1666666666666666
 30
0.0
 11
-1.0
 21
-0.1666666666666666
 31
0.0
  0
ENDBLK
  5
2C7F1
330
2C7EC
100
AcDbEntity
  8
0
100
AcDbBlockEnd
  0
BLOCK
  5
2F99C
330
2F99B
100
AcDbEntity
  8
0
100
AcDbBlockBegin
  2
_Open30
 70
     0
 10
0.0
 20
0.0
 30
0.0
  3
_Open30
  1

  0
LINE
  5
2F99D
330
2F99B
100
AcDbEntity
  8
0
  6
ByBlock
 62
     0
370
    -2
100
AcDbLine
 10
-1.0
 20
0.26794919
 30
0.0
 11
0.0
 21
0.0
 31
0.0
  0
LINE
  5
2F99E
330
2F99B
100
AcDbEntity
  8
0
  6
ByBlock
 62
     0
370
    -2
100
AcDbLine
 10
0.0
 20
0.0
 30
0.0
 11
-1.0
 21
-0.26794919
 31
0.0
  0
LINE
  5
2F99F
330
2F99B
100
AcDbEntity
  8
0
  6
ByBlock
 62
     0
370
    -2
100
AcDbLine
 10
0.0
 20
0.0
 30
0.0
 11
-1.0
 21
0.0
 31
0.0
  0
ENDBLK
  5
2F9A0
330
2F99B
100
AcDbEntity
  8
0
100
AcDbBlockEnd
  0
BLOCK
  5
2FD7C
330
2FD72
100
AcDbEntity
  8
0
100
AcDbBlockBegin
  2
*D6
 70
     1
 10
0.0
 20
0.0
 30
0.0
  3
*D6
  1

  0
LINE
  5
3128D
330
2FD72
100
AcDbEntity
  8
sunpo
 62
     3
370
     9
100
AcDbLine
 10
259.7487260606213
 20
706.8743029112042
 30
0.0
 11
263.7487260606217
 21
706.8743029112042
 31
0.0
  0
LINE
  5
3128E
330
2FD72
100
AcDbEntity
  8
sunpo
 62
     3
370
     9
100
AcDbLine
 10
259.7487260606213
 20
703.8743029112041
 30
0.0
 11
263.7487260606217
 21
703.8743029112041
 31
0.0
  0
LINE
  5
3128F
330
2FD72
100
AcDbEntity
  8
sunpo
 62
     3
370
     9
100
AcDbLine
 10
261.7487260606217
 20
706.8743029112042
 30
0.0
 11
261.7487260606217
 21
703.8743029112041
 31
0.0
  0
MTEXT
  5
31290
330
2FD72
100
AcDbEntity
  8
sunpo
 62
     2
100
AcDbMText
 10
258.1693824201684
 20
712.8404186431234
 30
0.0
 40
6.0
 41
0.0
 71
     5
 72
     1
  1
3
  7
Std
 11
0.0000000000000001
 21
1.0
 31
0.0
 73
     1
 44
1.0
  0
INSERT
  5
31291
330
2FD72
100
AcDbEntity
  8
sunpo
 62
     3
370
     9
100
AcDbBlockReference
  2
_DotSmall
 10
261.7487260606217
 20
706.8743029112042
 30
0.0
 41
7.0
 42
7.0
 43
7.0
 50
90.0
  0
INSERT
  5
31292
330
2FD72
100
AcDbEntity
  8
sunpo
 62
     3
370
     9
100
AcDbBlockReference
  2
_DotSmall
 10
261.7487260606217
 20
703.8743029112041
 30
0.0
 41
7.0
 42
7.0
 43
7.0
 50
270.0
  0
POINT
  5
31293
330
2FD72
100
AcDbEntity
  8
Defpoints
 62
     0
100
AcDbPoint
 10
255.7487260606213
 20
706.8743029112042
 30
0.0
  0
POINT
  5
31294
330
2FD72
100
AcDbEntity
  8
Defpoints
 62
     0
100
AcDbPoint
 10
255.7487260606213
 20
703.8743029112042
 30
0.0
  0
POINT
  5
31295
330
2FD72
100
AcDbEntity
  8
Defpoints
 62
     0
100
AcDbPoint
 10
261.7487260606217
 20
703.8743029112041
 30
0.0
  0
ENDBLK
  5
2FD7D
330
2FD72
100
AcDbEntity
  8
0
100
AcDbBlockEnd
  0
BLOCK
  5
2FD88
330
2FD7E
100
AcDbEntity
  8
0
100
AcDbBlockBegin
  2
*D7
 70
     1
 10
0.0
 20
0.0
 30
0.0
  3
*D7
  1

  0
LINE
  5
31284
330
2FD7E
100
AcDbEntity
  8
sunpo
 62
     3
370
     9
100
AcDbLine
 10
259.7487260606213
 20
703.8743029112041
 30
0.0
 11
263.7487260606213
 21
703.8743029112041
 31
0.0
  0
LINE
  5
31285
330
2FD7E
100
AcDbEntity
  8
sunpo
 62
     3
370
     9
100
AcDbLine
 10
259.7487260606213
 20
668.8743029112087
 30
0.0
 11
263.7487260606213
 21
668.8743029112087
 31
0.0
  0
LINE
  5
31286
330
2FD7E
100
AcDbEntity
  8
sunpo
 62
     3
370
     9
100
AcDbLine
 10
261.7487260606213
 20
703.8743029112041
 30
0.0
 11
261.7487260606213
 21
668.8743029112087
 31
0.0
  0
INSERT
  5
31287
330
2FD7E
100
AcDbEntity
  8
sunpo
 62
     3
370
     9
100
AcDbBlockReference
  2
_DotSmall
 10
261.7487260606213
 20
703.8743029112041
 30
0.0
 41
7.0
 42
7.0
 43
7.0
 50
90.0
  0
INSERT
  5
31288
330
2FD7E
100
AcDbEntity
  8
sunpo
 62
     3
370
     9
100
AcDbBlockReference
  2
_DotSmall
 10
261.7487260606213
 20
668.8743029112087
 30
0.0
 41
7.0
 42
7.0
 43
7.0
 50
270.0
  0
MTEXT
  5
31289
330
2FD7E
100
AcDbEntity
  8
sunpo
 62
     2
100
AcDbMText
 10
257.5487260606212
 20
686.3743029112065
 30
0.0
 40
6.0
 41
0.0
 71
     5
 72
     1
  1
35
  7
Std
 11
0.0000000000000001
 21
1.0
 31
0.0
 73
     1
 44
1.0
  0
POINT
  5
3128A
330
2FD7E
100
AcDbEntity
  8
Defpoints
 62
     0
100
AcDbPoint
 10
255.7487260606213
 20
703.8743029112042
 30
0.0
  0
POINT
  5
3128B
330
2FD7E
100
AcDbEntity
  8
Defpoints
 62
     0
100
AcDbPoint
 10
255.7487260606213
 20
668.8743029112088
 30
0.0
  0
POINT
  5
3128C
330
2FD7E
100
AcDbEntity
  8
Defpoints
 62
     0
100
AcDbPoint
 10
261.7487260606213
 20
668.8743029112087
 30
0.0
  0
ENDBLK
  5
2FD89
330
2FD7E
100
AcDbEntity
  8
0
100
AcDbBlockEnd
  0
BLOCK
  5
2FD94
330
2FD8A
100
AcDbEntity
  8
0
100
AcDbBlockBegin
  2
*D8
 70
     1
 10
0.0
 20
0.0
 30
0.0
  3
*D8
  1

  0
LINE
  5
3127B
330
2FD8A
100
AcDbEntity
  8
sunpo
 62
     3
370
     9
100
AcDbLine
 10
239.7487260606212
 20
703.8743029112079
 30
0.0
 11
243.7487260606213
 21
703.8743029112079
 31
0.0
  0
LINE
  5
3127C
330
2FD8A
100
AcDbEntity
  8
sunpo
 62
     3
370
     9
100
AcDbLine
 10
239.7487260606212
 20
673.8743029112079
 30
0.0
 11
243.7487260606213
 21
673.8743029112079
 31
0.0
  0
LINE
  5
3127D
330
2FD8A
100
AcDbEntity
  8
sunpo
 62
     3
370
     9
100
AcDbLine
 10
241.7487260606212
 20
703.8743029112079
 30
0.0
 11
241.7487260606212
 21
673.8743029112079
 31
0.0
  0
INSERT
  5
3127E
330
2FD8A
100
AcDbEntity
  8
sunpo
 62
     3
370
     9
100
AcDbBlockReference
  2
_DotSmall
 10
241.7487260606212
 20
703.8743029112079
 30
0.0
 41
7.0
 42
7.0
 43
7.0
 50
90.0
  0
INSERT
  5
3127F
330
2FD8A
100
AcDbEntity
  8
sunpo
 62
     3
370
     9
100
AcDbBlockReference
  2
_DotSmall
 10
241.7487260606212
 20
673.8743029112079
 30
0.0
 41
7.0
 42
7.0
 43
7.0
 50
270.0
  0
MTEXT
  5
31280
330
2FD8A
100
AcDbEntity
  8
sunpo
 62
     2
100
AcDbMText
 10
237.5487260606212
 20
688.8743029112078
 30
0.0
 40
6.0
 41
0.0
 71
     5
 72
     1
  1
30
  7
Std
 11
0.0000000000000001
 21
1.0
 31
0.0
 73
     1
 44
1.0
  0
POINT
  5
31281
330
2FD8A
100
AcDbEntity
  8
Defpoints
 62
     0
100
AcDbPoint
 10
235.7487260606212
 20
703.8743029112079
 30
0.0
  0
POINT
  5
31282
330
2FD8A
100
AcDbEntity
  8
Defpoints
 62
     0
100
AcDbPoint
 10
235.7487260606212
 20
673.8743029112079
 30
0.0
  0
POINT
  5
31283
330
2FD8A
100
AcDbEntity
  8
Defpoints
 62
     0
100
AcDbPoint
 10
241.7487260606212
 20
673.8743029112079
 30
0.0
  0
ENDBLK
  5
2FD95
330
2FD8A
100
AcDbEntity
  8
0
100
AcDbBlockEnd
  0
BLOCK
  5
2FDA0
330
2FD96
100
AcDbEntity
  8
0
100
AcDbBlockBegin
  2
*D9
 70
     1
 10
0.0
 20
0.0
 30
0.0
  3
*D9
  1

  0
LINE
  5
31272
330
2FD96
100
AcDbEntity
  8
sunpo
 62
     3
370
     9
100
AcDbLine
 10
239.7487260606212
 20
673.8743029112079
 30
0.0
 11
243.7487260606213
 21
673.8743029112079
 31
0.0
  0
LINE
  5
31273
330
2FD96
100
AcDbEntity
  8
sunpo
 62
     3
370
     9
100
AcDbLine
 10
239.7487260606212
 20
668.8743029112079
 30
0.0
 11
243.7487260606213
 21
668.8743029112079
 31
0.0
  0
LINE
  5
31274
330
2FD96
100
AcDbEntity
  8
sunpo
 62
     3
370
     9
100
AcDbLine
 10
241.7487260606212
 20
673.8743029112079
 30
0.0
 11
241.7487260606212
 21
668.8743029112079
 31
0.0
  0
MTEXT
  5
31275
330
2FD96
100
AcDbEntity
  8
sunpo
 62
     2
100
AcDbMText
 10
238.2259989761733
 20
663.7824403667582
 30
0.0
 40
6.0
 41
0.0
 71
     5
 72
     1
  1
5
  7
Std
 11
0.0000000000000001
 21
1.0
 31
0.0
 73
     1
 44
1.0
  0
INSERT
  5
31276
330
2FD96
100
AcDbEntity
  8
sunpo
 62
     3
370
     9
100
AcDbBlockReference
  2
_DotSmall
 10
241.7487260606212
 20
673.8743029112079
 30
0.0
 41
7.0
 42
7.0
 43
7.0
 50
90.0
  0
INSERT
  5
31277
330
2FD96
100
AcDbEntity
  8
sunpo
 62
     3
370
     9
100
AcDbBlockReference
  2
_DotSmall
 10
241.7487260606212
 20
668.8743029112079
 30
0.0
 41
7.0
 42
7.0
 43
7.0
 50
270.0
  0
POINT
  5
31278
330
2FD96
100
AcDbEntity
  8
Defpoints
 62
     0
100
AcDbPoint
 10
235.7487260606212
 20
673.8743029112079
 30
0.0
  0
POINT
  5
31279
330
2FD96
100
AcDbEntity
  8
Defpoints
 62
     0
100
AcDbPoint
 10
235.7487260606212
 20
668.8743029112079
 30
0.0
  0
POINT
  5
3127A
330
2FD96
100
AcDbEntity
  8
Defpoints
 62
     0
100
AcDbPoint
 10
241.7487260606212
 20
668.8743029112079
 30
0.0
  0
ENDBLK
  5
2FDA1
330
2FD96
100
AcDbEntity
  8
0
100
AcDbBlockEnd
  0
BLOCK
  5
2FDAC
330
2FDA2
100
AcDbEntity
  8
0
100
AcDbBlockBegin
  2
*D10
 70
     1
 10
0.0
 20
0.0
 30
0.0
  3
*D10
  1

  0
LINE
  5
31269
330
2FDA2
100
AcDbEntity
  8
sunpo
 62
     3
370
     9
100
AcDbLine
 10
164.9987260606222
 20
624.8743029112079
 30
0.0
 11
164.9987260606222
 21
566.8743029112079
 31
0.0
  0
LINE
  5
3126A
330
2FDA2
100
AcDbEntity
  8
sunpo
 62
     3
370
     9
100
AcDbLine
 10
724.9987260606367
 20
624.8743029112079
 30
0.0
 11
724.9987260606367
 21
566.8743029112079
 31
0.0
  0
LINE
  5
3126B
330
2FDA2
100
AcDbEntity
  8
sunpo
 62
     3
370
     9
100
AcDbLine
 10
164.9987260606222
 20
568.8743029112079
 30
0.0
 11
724.9987260606367
 21
568.8743029112079
 31
0.0
  0
INSERT
  5
3126C
330
2FDA2
100
AcDbEntity
  8
sunpo
 62
     3
370
     9
100
AcDbBlockReference
  2
_DotSmall
 10
164.9987260606222
 20
568.8743029112079
 30
0.0
 41
7.0
 42
7.0
 43
7.0
 50
180.0
  0
INSERT
  5
3126D
330
2FDA2
100
AcDbEntity
  8
sunpo
 62
     3
370
     9
100
AcDbBlockReference
  2
_DotSmall
 10
724.9987260606367
 20
568.8743029112079
 30
0.0
 41
7.0
 42
7.0
 43
7.0
  0
MTEXT
  5
3126E
330
2FDA2
100
AcDbEntity
  8
sunpo
 62
     2
100
AcDbMText
 10
444.9987260606294
 20
573.0743029112079
 30
0.0
 40
6.0
 41
0.0
 71
     5
 72
     1
  1
W
  7
Std
 73
     1
 44
1.0
  0
POINT
  5
3126F
330
2FDA2
100
AcDbEntity
  8
Defpoints
 62
     0
100
AcDbPoint
 10
164.9987260606222
 20
628.8743029112079
 30
0.0
  0
POINT
  5
31270
330
2FDA2
100
AcDbEntity
  8
Defpoints
 62
     0
100
AcDbPoint
 10
724.9987260606367
 20
628.8743029112079
 30
0.0
  0
POINT
  5
31271
330
2FDA2
100
AcDbEntity
  8
Defpoints
 62
     0
100
AcDbPoint
 10
724.9987260606367
 20
568.8743029112079
 30
0.0
  0
ENDBLK
  5
2FDAD
330
2FDA2
100
AcDbEntity
  8
0
100
AcDbBlockEnd
  0
BLOCK
  5
2FDB8
330
2FDAE
100
AcDbEntity
  8
0
100
AcDbBlockBegin
  2
*D11
 70
     1
 10
0.0
 20
0.0
 30
0.0
  3
*D11
  1

  0
LINE
  5
31260
330
2FDAE
100
AcDbEntity
  8
sunpo
 62
     3
370
     9
100
AcDbLine
 10
164.9987260606222
 20
624.8743029112079
 30
0.0
 11
164.9987260606222
 21
586.8743029112079
 31
0.0
  0
LINE
  5
31261
330
2FDAE
100
AcDbEntity
  8
sunpo
 62
     3
370
     9
100
AcDbLine
 10
184.9987260602147
 20
624.8743029112079
 30
0.0
 11
184.9987260602147
 21
586.8743029112079
 31
0.0
  0
LINE
  5
31262
330
2FDAE
100
AcDbEntity
  8
sunpo
 62
     3
370
     9
100
AcDbLine
 10
164.9987260606222
 20
588.8743029112078
 30
0.0
 11
184.9987260602147
 21
588.8743029112078
 31
0.0
  0
INSERT
  5
31263
330
2FDAE
100
AcDbEntity
  8
sunpo
 62
     3
370
     9
100
AcDbBlockReference
  2
_DotSmall
 10
164.9987260606222
 20
588.8743029112078
 30
0.0
 41
7.0
 42
7.0
 43
7.0
 50
180.0
  0
INSERT
  5
31264
330
2FDAE
100
AcDbEntity
  8
sunpo
 62
     3
370
     9
100
AcDbBlockReference
  2
_DotSmall
 10
184.9987260602147
 20
588.8743029112078
 30
0.0
 41
7.0
 42
7.0
 43
7.0
  0
MTEXT
  5
31265
330
2FDAE
100
AcDbEntity
  8
sunpo
 62
     2
100
AcDbMText
 10
174.9987260604184
 20
593.0743029112079
 30
0.0
 40
6.0
 41
0.0
 71
     5
 72
     1
  1
20
  7
Std
 73
     1
 44
1.0
  0
POINT
  5
31266
330
2FDAE
100
AcDbEntity
  8
Defpoints
 62
     0
100
AcDbPoint
 10
164.9987260606222
 20
628.8743029112079
 30
0.0
  0
POINT
  5
31267
330
2FDAE
100
AcDbEntity
  8
Defpoints
 62
     0
100
AcDbPoint
 10
184.9987260602147
 20
628.8743029112079
 30
0.0
  0
POINT
  5
31268
330
2FDAE
100
AcDbEntity
  8
Defpoints
 62
     0
100
AcDbPoint
 10
184.9987260602147
 20
588.8743029112078
 30
0.0
  0
ENDBLK
  5
2FDB9
330
2FDAE
100
AcDbEntity
  8
0
100
AcDbBlockEnd
  0
BLOCK
  5
2FDC4
330
2FDBA
100
AcDbEntity
  8
0
100
AcDbBlockBegin
  2
*D12
 70
     1
 10
0.0
 20
0.0
 30
0.0
  3
*D12
  1

  0
LINE
  5
31257
330
2FDBA
100
AcDbEntity
  8
sunpo
 62
     3
370
     9
100
AcDbLine
 10
704.9987260606367
 20
624.8743029112079
 30
0.0
 11
704.9987260606367
 21
586.8743029112079
 31
0.0
  0
LINE
  5
31258
330
2FDBA
100
AcDbEntity
  8
sunpo
 62
     3
370
     9
100
AcDbLine
 10
724.9987260606367
 20
624.8743029112079
 30
0.0
 11
724.9987260606367
 21
586.8743029112079
 31
0.0
  0
LINE
  5
31259
330
2FDBA
100
AcDbEntity
  8
sunpo
 62
     3
370
     9
100
AcDbLine
 10
704.9987260606367
 20
588.8743029112078
 30
0.0
 11
724.9987260606367
 21
588.8743029112078
 31
0.0
  0
INSERT
  5
3125A
330
2FDBA
100
AcDbEntity
  8
sunpo
 62
     3
370
     9
100
AcDbBlockReference
  2
_DotSmall
 10
704.9987260606367
 20
588.8743029112078
 30
0.0
 41
7.0
 42
7.0
 43
7.0
 50
180.0
  0
INSERT
  5
3125B
330
2FDBA
100
AcDbEntity
  8
sunpo
 62
     3
370
     9
100
AcDbBlockReference
  2
_DotSmall
 10
724.9987260606367
 20
588.8743029112078
 30
0.0
 41
7.0
 42
7.0
 43
7.0
  0
MTEXT
  5
3125C
330
2FDBA
100
AcDbEntity
  8
sunpo
 62
     2
100
AcDbMText
 10
714.9987260606367
 20
593.0743029112079
 30
0.0
 40
6.0
 41
0.0
 71
     5
 72
     1
  1
20
  7
Std
 73
     1
 44
1.0
  0
POINT
  5
3125D
330
2FDBA
100
AcDbEntity
  8
Defpoints
 62
     0
100
AcDbPoint
 10
704.9987260606367
 20
628.8743029112079
 30
0.0
  0
POINT
  5
3125E
330
2FDBA
100
AcDbEntity
  8
Defpoints
 62
     0
100
AcDbPoint
 10
724.9987260606367
 20
628.8743029112079
 30
0.0
  0
POINT
  5
3125F
330
2FDBA
100
AcDbEntity
  8
Defpoints
 62
     0
100
AcDbPoint
 10
724.9987260606367
 20
588.8743029112078
 30
0.0
  0
ENDBLK
  5
2FDC5
330
2FDBA
100
AcDbEntity
  8
0
100
AcDbBlockEnd
  0
BLOCK
  5
2FDE8
330
2FDDE
100
AcDbEntity
  8
0
100
AcDbBlockBegin
  2
*D13
 70
     1
 10
0.0
 20
0.0
 30
0.0
  3
*D13
  1

  0
LINE
  5
3123C
330
2FDDE
100
AcDbEntity
  8
sunpo
 62
     3
370
     9
100
AcDbLine
 10
1050.995094724193
 20
631.0045311841163
 30
0.0
 11
1050.995094724193
 21
627.0045311841163
 31
0.0
  0
LINE
  5
3123D
330
2FDDE
100
AcDbEntity
  8
sunpo
 62
     3
370
     9
100
AcDbLine
 10
1047.995094724193
 20
631.0045311841163
 30
0.0
 11
1047.995094724193
 21
627.0045311841163
 31
0.0
  0
LINE
  5
3123E
330
2FDDE
100
AcDbEntity
  8
sunpo
 62
     3
370
     9
100
AcDbLine
 10
1050.995094724193
 20
629.0045311841163
 30
0.0
 11
1047.995094724193
 21
629.0045311841163
 31
0.0
  0
MTEXT
  5
3123F
330
2FDDE
100
AcDbEntity
  8
sunpo
 62
     2
100
AcDbMText
 10
1056.095094724193
 20
633.1292415309063
 30
0.0
 40
6.0
 41
0.0
 71
     5
 72
     1
  1
3
  7
Std
 73
     1
 44
1.0
  0
INSERT
  5
31240
330
2FDDE
100
AcDbEntity
  8
sunpo
 62
     3
370
     9
100
AcDbBlockReference
  2
_DotSmall
 10
1050.995094724193
 20
629.0045311841163
 30
0.0
 41
7.0
 42
7.0
 43
7.0
  0
INSERT
  5
31241
330
2FDDE
100
AcDbEntity
  8
sunpo
 62
     3
370
     9
100
AcDbBlockReference
  2
_DotSmall
 10
1047.995094724193
 20
629.0045311841163
 30
0.0
 41
7.0
 42
7.0
 43
7.0
 50
180.0
  0
POINT
  5
31242
330
2FDDE
100
AcDbEntity
  8
Defpoints
 62
     0
100
AcDbPoint
 10
1050.995094724193
 20
635.0045311841163
 30
0.0
  0
POINT
  5
31243
330
2FDDE
100
AcDbEntity
  8
Defpoints
 62
     0
100
AcDbPoint
 10
1047.995094724193
 20
635.0045311841163
 30
0.0
  0
POINT
  5
31244
330
2FDDE
100
AcDbEntity
  8
Defpoints
 62
     0
100
AcDbPoint
 10
1047.995094724193
 20
629.0045311841163
 30
0.0
  0
ENDBLK
  5
2FDE9
330
2FDDE
100
AcDbEntity
  8
0
100
AcDbBlockEnd
  0
BLOCK
  5
2FDF4
330
2FDEA
100
AcDbEntity
  8
0
100
AcDbBlockBegin
  2
*D14
 70
     1
 10
0.0
 20
0.0
 30
0.0
  3
*D14
  1

  0
LINE
  5
31233
330
2FDEA
100
AcDbEntity
  8
sunpo
 62
     3
370
     9
100
AcDbLine
 10
1017.995094724199
 20
651.0045311841217
 30
0.0
 11
1017.995094724199
 21
647.0045311841218
 31
0.0
  0
LINE
  5
31234
330
2FDEA
100
AcDbEntity
  8
sunpo
 62
     3
370
     9
100
AcDbLine
 10
1012.995094724199
 20
651.0045311841217
 30
0.0
 11
1012.995094724199
 21
647.0045311841218
 31
0.0
  0
LINE
  5
31235
330
2FDEA
100
AcDbEntity
  8
sunpo
 62
     3
370
     9
100
AcDbLine
 10
1017.995094724199
 20
649.0045311841218
 30
0.0
 11
1012.995094724199
 21
649.0045311841218
 31
0.0
  0
MTEXT
  5
31236
330
2FDEA
100
AcDbEntity
  8
sunpo
 62
     2
100
AcDbMText
 10
1007.74715390372
 20
653.3034275880536
 30
0.0
 40
6.0
 41
0.0
 71
     5
 72
     1
  1
5
  7
Std
 73
     1
 44
1.0
  0
INSERT
  5
31237
330
2FDEA
100
AcDbEntity
  8
sunpo
 62
     3
370
     9
100
AcDbBlockReference
  2
_DotSmall
 10
1017.995094724199
 20
649.0045311841218
 30
0.0
 41
7.0
 42
7.0
 43
7.0
  0
INSERT
  5
31238
330
2FDEA
100
AcDbEntity
  8
sunpo
 62
     3
370
     9
100
AcDbBlockReference
  2
_DotSmall
 10
1012.995094724199
 20
649.0045311841218
 30
0.0
 41
7.0
 42
7.0
 43
7.0
 50
180.0
  0
POINT
  5
31239
330
2FDEA
100
AcDbEntity
  8
Defpoints
 62
     0
100
AcDbPoint
 10
1017.995094724199
 20
655.0045311841217
 30
0.0
  0
POINT
  5
3123A
330
2FDEA
100
AcDbEntity
  8
Defpoints
 62
     0
100
AcDbPoint
 10
1012.995094724199
 20
655.0045311841217
 30
0.0
  0
POINT
  5
3123B
330
2FDEA
100
AcDbEntity
  8
Defpoints
 62
     0
100
AcDbPoint
 10
1012.995094724199
 20
649.0045311841218
 30
0.0
  0
ENDBLK
  5
2FDF5
330
2FDEA
100
AcDbEntity
  8
0
100
AcDbBlockEnd
  0
BLOCK
  5
2FE00
330
2FDF6
100
AcDbEntity
  8
0
100
AcDbBlockBegin
  2
*D15
 70
     1
 10
0.0
 20
0.0
 30
0.0
  3
*D15
  1

  0
LINE
  5
3122A
330
2FDF6
100
AcDbEntity
  8
sunpo
 62
     3
370
     9
100
AcDbLine
 10
1047.995094724193
 20
631.0045311841163
 30
0.0
 11
1047.995094724193
 21
627.0045311841163
 31
0.0
  0
LINE
  5
3122B
330
2FDF6
100
AcDbEntity
  8
sunpo
 62
     3
370
     9
100
AcDbLine
 10
1012.995094724183
 20
631.0045311841163
 30
0.0
 11
1012.995094724183
 21
627.0045311841163
 31
0.0
  0
LINE
  5
3122C
330
2FDF6
100
AcDbEntity
  8
sunpo
 62
     3
370
     9
100
AcDbLine
 10
1047.995094724193
 20
629.0045311841163
 30
0.0
 11
1012.995094724183
 21
629.0045311841163
 31
0.0
  0
INSERT
  5
3122D
330
2FDF6
100
AcDbEntity
  8
sunpo
 62
     3
370
     9
100
AcDbBlockReference
  2
_DotSmall
 10
1047.995094724193
 20
629.0045311841163
 30
0.0
 41
7.0
 42
7.0
 43
7.0
  0
INSERT
  5
3122E
330
2FDF6
100
AcDbEntity
  8
sunpo
 62
     3
370
     9
100
AcDbBlockReference
  2
_DotSmall
 10
1012.995094724183
 20
629.0045311841163
 30
0.0
 41
7.0
 42
7.0
 43
7.0
 50
180.0
  0
MTEXT
  5
3122F
330
2FDF6
100
AcDbEntity
  8
sunpo
 62
     2
100
AcDbMText
 10
1030.495094724188
 20
633.2045311841163
 30
0.0
 40
6.0
 41
0.0
 71
     5
 72
     1
  1
35
  7
Std
 73
     1
 44
1.0
  0
POINT
  5
31230
330
2FDF6
100
AcDbEntity
  8
Defpoints
 62
     0
100
AcDbPoint
 10
1047.995094724193
 20
635.0045311841163
 30
0.0
  0
POINT
  5
31231
330
2FDF6
100
AcDbEntity
  8
Defpoints
 62
     0
100
AcDbPoint
 10
1012.995094724183
 20
635.0045311841163
 30
0.0
  0
POINT
  5
31232
330
2FDF6
100
AcDbEntity
  8
Defpoints
 62
     0
100
AcDbPoint
 10
1012.995094724183
 20
629.0045311841163
 30
0.0
  0
ENDBLK
  5
2FE01
330
2FDF6
100
AcDbEntity
  8
0
100
AcDbBlockEnd
  0
BLOCK
  5
2FE0C
330
2FE02
100
AcDbEntity
  8
0
100
AcDbBlockBegin
  2
*D16
 70
     1
 10
0.0
 20
0.0
 30
0.0
  3
*D16
  1

  0
LINE
  5
31221
330
2FE02
100
AcDbEntity
  8
sunpo
 62
     3
370
     9
100
AcDbLine
 10
1047.995094724198
 20
651.0045311841217
 30
0.0
 11
1047.995094724198
 21
647.0045311841218
 31
0.0
  0
LINE
  5
31222
330
2FE02
100
AcDbEntity
  8
sunpo
 62
     3
370
     9
100
AcDbLine
 10
1017.995094724199
 20
651.0045311841217
 30
0.0
 11
1017.995094724199
 21
647.0045311841218
 31
0.0
  0
LINE
  5
31223
330
2FE02
100
AcDbEntity
  8
sunpo
 62
     3
370
     9
100
AcDbLine
 10
1047.995094724198
 20
649.0045311841218
 30
0.0
 11
1017.995094724199
 21
649.0045311841218
 31
0.0
  0
INSERT
  5
31224
330
2FE02
100
AcDbEntity
  8
sunpo
 62
     3
370
     9
100
AcDbBlockReference
  2
_DotSmall
 10
1047.995094724198
 20
649.0045311841218
 30
0.0
 41
7.0
 42
7.0
 43
7.0
  0
INSERT
  5
31225
330
2FE02
100
AcDbEntity
  8
sunpo
 62
     3
370
     9
100
AcDbBlockReference
  2
_DotSmall
 10
1017.995094724199
 20
649.0045311841218
 30
0.0
 41
7.0
 42
7.0
 43
7.0
 50
180.0
  0
MTEXT
  5
31226
330
2FE02
100
AcDbEntity
  8
sunpo
 62
     2
100
AcDbMText
 10
1032.995094724198
 20
653.2045311841218
 30
0.0
 40
6.0
 41
0.0
 71
     5
 72
     1
  1
30
  7
Std
 73
     1
 44
1.0
  0
POINT
  5
31227
330
2FE02
100
AcDbEntity
  8
Defpoints
 62
     0
100
AcDbPoint
 10
1047.995094724198
 20
655.0045311841217
 30
0.0
  0
POINT
  5
31228
330
2FE02
100
AcDbEntity
  8
Defpoints
 62
     0
100
AcDbPoint
 10
1017.995094724199
 20
655.0045311841217
 30
0.0
  0
POINT
  5
31229
330
2FE02
100
AcDbEntity
  8
Defpoints
 62
     0
100
AcDbPoint
 10
1017.995094724199
 20
649.0045311841218
 30
0.0
  0
ENDBLK
  5
2FE0D
330
2FE02
100
AcDbEntity
  8
0
100
AcDbBlockEnd
  0
BLOCK
  5
2FE18
330
2FE0E
100
AcDbEntity
  8
0
100
AcDbBlockBegin
  2
*D17
 70
     1
 10
0.0
 20
0.0
 30
0.0
  3
*D17
  1

  0
LINE
  5
31218
330
2FE0E
100
AcDbEntity
  8
sunpo
 62
     3
370
     9
100
AcDbLine
 10
956.9999999999991
 20
732.9999999999918
 30
0.0
 11
888.9999999999991
 21
732.9999999999918
 31
0.0
  0
LINE
  5
31219
330
2FE0E
100
AcDbEntity
  8
sunpo
 62
     3
370
     9
100
AcDbLine
 10
956.9999999999991
 20
713.0000000000014
 30
0.0
 11
888.9999999999991
 21
713.0000000000014
 31
0.0
  0
LINE
  5
3121A
330
2FE0E
100
AcDbEntity
  8
sunpo
 62
     3
370
     9
100
AcDbLine
 10
890.9999999999991
 20
732.9999999999918
 30
0.0
 11
890.9999999999991
 21
713.0000000000014
 31
0.0
  0
INSERT
  5
3121B
330
2FE0E
100
AcDbEntity
  8
sunpo
 62
     3
370
     9
100
AcDbBlockReference
  2
_DotSmall
 10
890.9999999999991
 20
732.9999999999918
 30
0.0
 41
7.0
 42
7.0
 43
7.0
 50
90.0
  0
INSERT
  5
3121C
330
2FE0E
100
AcDbEntity
  8
sunpo
 62
     3
370
     9
100
AcDbBlockReference
  2
_DotSmall
 10
890.9999999999991
 20
713.0000000000014
 30
0.0
 41
7.0
 42
7.0
 43
7.0
 50
270.0
  0
MTEXT
  5
3121D
330
2FE0E
100
AcDbEntity
  8
sunpo
 62
     2
100
AcDbMText
 10
886.7999999999989
 20
722.9999999999968
 30
0.0
 40
6.0
 41
0.0
 71
     5
 72
     1
  1
20
  7
Std
 11
0.0000000000000001
 21
1.0
 31
0.0
 73
     1
 44
1.0
  0
POINT
  5
3121E
330
2FE0E
100
AcDbEntity
  8
Defpoints
 62
     0
100
AcDbPoint
 10
960.999999999999
 20
732.9999999999918
 30
0.0
  0
POINT
  5
3121F
330
2FE0E
100
AcDbEntity
  8
Defpoints
 62
     0
100
AcDbPoint
 10
960.999999999999
 20
713.0000000000014
 30
0.0
  0
POINT
  5
31220
330
2FE0E
100
AcDbEntity
  8
Defpoints
 62
     0
100
AcDbPoint
 10
890.9999999999991
 20
713.0000000000014
 30
0.0
  0
ENDBLK
  5
2FE19
330
2FE0E
100
AcDbEntity
  8
0
100
AcDbBlockEnd
  0
BLOCK
  5
2FE24
330
2FE1A
100
AcDbEntity
  8
0
100
AcDbBlockBegin
  2
*D18
 70
     1
 10
0.0
 20
0.0
 30
0.0
  3
*D18
  1

  0
LINE
  5
3120F
330
2FE1A
100
AcDbEntity
  8
sunpo
 62
     3
370
     9
100
AcDbLine
 10
956.9999999999991
 20
303.0000000000064
 30
0.0
 11
888.9999999999995
 21
303.0000000000064
 31
0.0
  0
LINE
  5
31210
330
2FE1A
100
AcDbEntity
  8
sunpo
 62
     3
370
     9
100
AcDbLine
 10
956.9999999999991
 20
283.0000000000009
 30
0.0
 11
888.9999999999995
 21
283.000000000001
 31
0.0
  0
LINE
  5
31211
330
2FE1A
100
AcDbEntity
  8
sunpo
 62
     3
370
     9
100
AcDbLine
 10
890.9999999999994
 20
303.0000000000064
 30
0.0
 11
890.9999999999994
 21
283.000000000001
 31
0.0
  0
INSERT
  5
31212
330
2FE1A
100
AcDbEntity
  8
sunpo
 62
     3
370
     9
100
AcDbBlockReference
  2
_DotSmall
 10
890.9999999999994
 20
303.0000000000064
 30
0.0
 41
7.0
 42
7.0
 43
7.0
 50
90.0
  0
INSERT
  5
31213
330
2FE1A
100
AcDbEntity
  8
sunpo
 62
     3
370
     9
100
AcDbBlockReference
  2
_DotSmall
 10
890.9999999999994
 20
283.000000000001
 30
0.0
 41
7.0
 42
7.0
 43
7.0
 50
270.0
  0
MTEXT
  5
31214
330
2FE1A
100
AcDbEntity
  8
sunpo
 62
     2
100
AcDbMText
 10
886.7999999999993
 20
293.0000000000038
 30
0.0
 40
6.0
 41
0.0
 71
     5
 72
     1
  1
20
  7
Std
 11
0.0000000000000001
 21
1.0
 31
0.0
 73
     1
 44
1.0
  0
POINT
  5
31215
330
2FE1A
100
AcDbEntity
  8
Defpoints
 62
     0
100
AcDbPoint
 10
960.999999999999
 20
303.0000000000064
 30
0.0
  0
POINT
  5
31216
330
2FE1A
100
AcDbEntity
  8
Defpoints
 62
     0
100
AcDbPoint
 10
960.999999999999
 20
283.0000000000009
 30
0.0
  0
POINT
  5
31217
330
2FE1A
100
AcDbEntity
  8
Defpoints
 62
     0
100
AcDbPoint
 10
890.9999999999994
 20
283.000000000001
 30
0.0
  0
ENDBLK
  5
2FE25
330
2FE1A
100
AcDbEntity
  8
0
100
AcDbBlockEnd
  0
BLOCK
  5
2FE30
330
2FE26
100
AcDbEntity
  8
0
100
AcDbBlockBegin
  2
*D19
 70
     1
 10
0.0
 20
0.0
 30
0.0
  3
*D19
  1

  0
LINE
  5
31206
330
2FE26
100
AcDbEntity
  8
sunpo
 62
     3
370
     9
100
AcDbLine
 10
956.9999999999991
 20
732.9999999999918
 30
0.0
 11
868.9999999999995
 21
732.9999999999918
 31
0.0
  0
LINE
  5
31207
330
2FE26
100
AcDbEntity
  8
sunpo
 62
     3
370
     9
100
AcDbLine
 10
956.9999999999991
 20
283.0000000000005
 30
0.0
 11
868.9999999999995
 21
283.0000000000005
 31
0.0
  0
LINE
  5
31208
330
2FE26
100
AcDbEntity
  8
sunpo
 62
     3
370
     9
100
AcDbLine
 10
870.9999999999995
 20
732.9999999999918
 30
0.0
 11
870.9999999999995
 21
283.0000000000005
 31
0.0
  0
INSERT
  5
31209
330
2FE26
100
AcDbEntity
  8
sunpo
 62
     3
370
     9
100
AcDbBlockReference
  2
_DotSmall
 10
870.9999999999995
 20
732.9999999999918
 30
0.0
 41
7.0
 42
7.0
 43
7.0
 50
90.0
  0
INSERT
  5
3120A
330
2FE26
100
AcDbEntity
  8
sunpo
 62
     3
370
     9
100
AcDbBlockReference
  2
_DotSmall
 10
870.9999999999995
 20
283.0000000000005
 30
0.0
 41
7.0
 42
7.0
 43
7.0
 50
270.0
  0
MTEXT
  5
3120B
330
2FE26
100
AcDbEntity
  8
sunpo
 62
     2
100
AcDbMText
 10
866.7999999999993
 20
507.9999999999962
 30
0.0
 40
6.0
 41
0.0
 71
     5
 72
     1
  1
H
  7
Std
 11
0.0000000000000001
 21
1.0
 31
0.0
 73
     1
 44
1.0
  0
POINT
  5
3120C
330
2FE26
100
AcDbEntity
  8
Defpoints
 62
     0
100
AcDbPoint
 10
960.999999999999
 20
732.9999999999918
 30
0.0
  0
POINT
  5
3120D
330
2FE26
100
AcDbEntity
  8
Defpoints
 62
     0
100
AcDbPoint
 10
960.999999999999
 20
283.0000000000005
 30
0.0
  0
POINT
  5
3120E
330
2FE26
100
AcDbEntity
  8
Defpoints
 62
     0
100
AcDbPoint
 10
870.9999999999995
 20
283.0000000000005
 30
0.0
  0
ENDBLK
  5
2FE31
330
2FE26
100
AcDbEntity
  8
0
100
AcDbBlockEnd
  0
BLOCK
  5
2FE3C
330
2FE32
100
AcDbEntity
  8
0
100
AcDbBlockBegin
  2
*D20
 70
     1
 10
0.0
 20
0.0
 30
0.0
  3
*D20
  1

  0
LINE
  5
311FD
330
2FE32
100
AcDbEntity
  8
sunpo
 62
     3
370
     9
100
AcDbLine
 10
247.5092633339004
 20
412.1880261748524
 30
0.0
 11
247.5092633339004
 21
430.1880261748524
 31
0.0
  0
LINE
  5
311FE
330
2FE32
100
AcDbEntity
  8
sunpo
 62
     3
370
     9
100
AcDbLine
 10
427.5092633339004
 20
412.1880261748524
 30
0.0
 11
427.5092633339004
 21
430.1880261748524
 31
0.0
  0
LINE
  5
311FF
330
2FE32
100
AcDbEntity
  8
sunpo
 62
     3
370
     9
100
AcDbLine
 10
247.5092633339004
 20
428.1880261748524
 30
0.0
 11
427.5092633339004
 21
428.1880261748524
 31
0.0
  0
INSERT
  5
31200
330
2FE32
100
AcDbEntity
  8
sunpo
 62
     3
370
     9
100
AcDbBlockReference
  2
_DotSmall
 10
247.5092633339004
 20
428.1880261748524
 30
0.0
 41
7.0
 42
7.0
 43
7.0
 50
180.0
  0
INSERT
  5
31201
330
2FE32
100
AcDbEntity
  8
sunpo
 62
     3
370
     9
100
AcDbBlockReference
  2
_DotSmall
 10
427.5092633339004
 20
428.1880261748524
 30
0.0
 41
7.0
 42
7.0
 43
7.0
  0
MTEXT
  5
31202
330
2FE32
100
AcDbEntity
  8
sunpo
 62
     2
100
AcDbMText
 10
337.5092633339004
 20
432.1880261748524
 30
0.0
 40
6.0
 41
0.0
 71
     5
 72
     1
  1
W
  7
Std
 73
     1
 44
1.0
  0
POINT
  5
31203
330
2FE32
100
AcDbEntity
  8
Defpoints
 62
     0
100
AcDbPoint
 10
247.5092633339004
 20
408.1880261748524
 30
0.0
  0
POINT
  5
31204
330
2FE32
100
AcDbEntity
  8
Defpoints
 62
     0
100
AcDbPoint
 10
427.5092633339004
 20
408.1880261748524
 30
0.0
  0
POINT
  5
31205
330
2FE32
100
AcDbEntity
  8
Defpoints
 62
     0
100
AcDbPoint
 10
427.5092633339004
 20
428.1880261748524
 30
0.0
  0
ENDBLK
  5
2FE3D
330
2FE32
100
AcDbEntity
  8
0
100
AcDbBlockEnd
  0
BLOCK
  5
2FE48
330
2FE3E
100
AcDbEntity
  8
0
100
AcDbBlockBegin
  2
*D21
 70
     1
 10
0.0
 20
0.0
 30
0.0
  3
*D21
  1

  0
LINE
  5
311F4
330
2FE3E
100
AcDbEntity
  8
sunpo
 62
     3
370
     9
100
AcDbLine
 10
243.5092633339004
 20
408.1880261748524
 30
0.0
 11
225.5092633339005
 21
408.1880261748524
 31
0.0
  0
LINE
  5
311F5
330
2FE3E
100
AcDbEntity
  8
sunpo
 62
     3
370
     9
100
AcDbLine
 10
243.5092633339004
 20
318.1880261748525
 30
0.0
 11
225.5092633339004
 21
318.1880261748525
 31
0.0
  0
LINE
  5
311F6
330
2FE3E
100
AcDbEntity
  8
sunpo
 62
     3
370
     9
100
AcDbLine
 10
227.5092633339005
 20
408.1880261748524
 30
0.0
 11
227.5092633339004
 21
318.1880261748525
 31
0.0
  0
INSERT
  5
311F7
330
2FE3E
100
AcDbEntity
  8
sunpo
 62
     3
370
     9
100
AcDbBlockReference
  2
_DotSmall
 10
227.5092633339005
 20
408.1880261748524
 30
0.0
 41
7.0
 42
7.0
 43
7.0
 50
90.0
  0
INSERT
  5
311F8
330
2FE3E
100
AcDbEntity
  8
sunpo
 62
     3
370
     9
100
AcDbBlockReference
  2
_DotSmall
 10
227.5092633339004
 20
318.1880261748525
 30
0.0
 41
7.0
 42
7.0
 43
7.0
 50
270.0
  0
MTEXT
  5
311F9
330
2FE3E
100
AcDbEntity
  8
sunpo
 62
     2
100
AcDbMText
 10
223.5092633339004
 20
363.1880261748525
 30
0.0
 40
6.0
 41
0.0
 71
     5
 72
     1
  1
H
  7
Std
 11
0.0000000000000001
 21
1.0
 31
0.0
 73
     1
 44
1.0
  0
POINT
  5
311FA
330
2FE3E
100
AcDbEntity
  8
Defpoints
 62
     0
100
AcDbPoint
 10
247.5092633339004
 20
408.1880261748524
 30
0.0
  0
POINT
  5
311FB
330
2FE3E
100
AcDbEntity
  8
Defpoints
 62
     0
100
AcDbPoint
 10
247.5092633339004
 20
318.1880261748525
 30
0.0
  0
POINT
  5
311FC
330
2FE3E
100
AcDbEntity
  8
Defpoints
 62
     0
100
AcDbPoint
 10
227.5092633339004
 20
318.1880261748525
 30
0.0
  0
ENDBLK
  5
2FE49
330
2FE3E
100
AcDbEntity
  8
0
100
AcDbBlockEnd
  0
BLOCK
  5
2FE54
330
2FE4A
100
AcDbEntity
  8
0
100
AcDbBlockBegin
  2
*D22
 70
     1
 10
0.0
 20
0.0
 30
0.0
  3
*D22
  1

  0
LINE
  5
311EB
330
2FE4A
100
AcDbEntity
  8
sunpo
 62
     3
370
     9
100
AcDbLine
 10
682.5814888598491
 20
346.4684862178615
 30
0.0
 11
684.581488859849
 21
346.4684862178615
 31
0.0
  0
LINE
  5
311EC
330
2FE4A
100
AcDbEntity
  8
sunpo
 62
     3
370
     9
100
AcDbLine
 10
682.5814888598491
 20
326.4684862178615
 30
0.0
 11
684.581488859849
 21
326.4684862178615
 31
0.0
  0
LINE
  5
311ED
330
2FE4A
100
AcDbEntity
  8
sunpo
 62
     3
370
     9
100
AcDbLine
 10
686.5814888598491
 20
346.4684862178615
 30
0.0
 11
686.5814888598491
 21
326.4684862178615
 31
0.0
  0
INSERT
  5
311EE
330
2FE4A
100
AcDbEntity
  8
sunpo
 62
     3
370
     9
100
AcDbBlockReference
  2
_DotSmall
 10
686.5814888598491
 20
346.4684862178615
 30
0.0
 41
7.0
 42
7.0
 43
7.0
 50
90.0
  0
INSERT
  5
311EF
330
2FE4A
100
AcDbEntity
  8
sunpo
 62
     3
370
     9
100
AcDbBlockReference
  2
_DotSmall
 10
686.5814888598491
 20
326.4684862178615
 30
0.0
 41
7.0
 42
7.0
 43
7.0
 50
270.0
  0
MTEXT
  5
311F0
330
2FE4A
100
AcDbEntity
  8
sunpo
 62
     2
100
AcDbMText
 10
682.3814888598489
 20
336.4684862178616
 30
0.0
 40
6.0
 41
0.0
 71
     5
 72
     1
  1
20
  7
Std
 11
0.0000000000000001
 21
1.0
 31
0.0
 73
     1
 44
1.0
  0
POINT
  5
311F1
330
2FE4A
100
AcDbEntity
  8
Defpoints
 62
     0
100
AcDbPoint
 10
686.5814888598491
 20
346.4684862178615
 30
0.0
  0
POINT
  5
311F2
330
2FE4A
100
AcDbEntity
  8
Defpoints
 62
     0
100
AcDbPoint
 10
686.5814888598491
 20
326.4684862178615
 30
0.0
  0
POINT
  5
311F3
330
2FE4A
100
AcDbEntity
  8
Defpoints
 62
     0
100
AcDbPoint
 10
686.5814888598491
 20
326.4684862178615
 30
0.0
  0
ENDBLK
  5
2FE55
330
2FE4A
100
AcDbEntity
  8
0
100
AcDbBlockEnd
  0
BLOCK
  5
2FE61
330
2FE56
100
AcDbEntity
  8
0
100
AcDbBlockBegin
  2
*D23
 70
     1
 10
0.0
 20
0.0
 30
0.0
  3
*D23
  1

  0
LINE
  5
311E1
330
2FE56
100
AcDbEntity
  8
sunpo
 62
     3
370
     9
100
AcDbLine
 10
682.5814888598491
 20
346.4684862178642
 30
0.0
 11
684.3869077374855
 21
346.4684862178642
 31
0.0
  0
LINE
  5
311E2
330
2FE56
100
AcDbEntity
  8
sunpo
 62
     3
370
     9
100
AcDbLine
 10
675.581488859849
 20
349.4684862178615
 30
0.0
 11
688.3869077374855
 21
349.4684862178615
 31
0.0
  0
LINE
  5
311E3
330
2FE56
100
AcDbEntity
  8
sunpo
 62
     3
370
     9
100
AcDbLine
 10
686.3869077374856
 20
346.4684862178642
 30
0.0
 11
686.3869077374856
 21
349.4684862178615
 31
0.0
  0
LINE
  5
311E4
330
2FE56
100
AcDbEntity
  8
sunpo
 62
     3
370
     9
100
AcDbLine
 10
686.3869077374856
 20
349.4684862178615
 30
0.0
 11
686.3869077374856
 21
362.0684862178619
 31
0.0
  0
INSERT
  5
311E5
330
2FE56
100
AcDbEntity
  8
sunpo
 62
     3
370
     9
100
AcDbBlockReference
  2
_DotSmall
 10
686.3869077374856
 20
346.4684862178642
 30
0.0
 41
7.0
 42
7.0
 43
7.0
 50
270.0
  0
INSERT
  5
311E6
330
2FE56
100
AcDbEntity
  8
sunpo
 62
     3
370
     9
100
AcDbBlockReference
  2
_DotSmall
 10
686.3869077374856
 20
349.4684862178615
 30
0.0
 41
7.0
 42
7.0
 43
7.0
 50
90.0
  0
MTEXT
  5
311E7
330
2FE56
100
AcDbEntity
  8
sunpo
 62
     2
100
AcDbMText
 10
682.1869077374854
 20
359.268486217862
 30
0.0
 40
6.0
 41
0.0
 71
     5
 72
     1
  1
3
  7
Std
 11
0.0000000000000001
 21
1.0
 31
0.0
 73
     1
 44
1.0
  0
POINT
  5
311E8
330
2FE56
100
AcDbEntity
  8
Defpoints
 62
     0
100
AcDbPoint
 10
686.5814888598491
 20
346.4684862178642
 30
0.0
  0
POINT
  5
311E9
330
2FE56
100
AcDbEntity
  8
Defpoints
 62
     0
100
AcDbPoint
 10
671.581488859849
 20
349.4684862178615
 30
0.0
  0
POINT
  5
311EA
330
2FE56
100
AcDbEntity
  8
Defpoints
 62
     0
100
AcDbPoint
 10
686.3869077374856
 20
349.4684862178615
 30
0.0
  0
ENDBLK
  5
2FE62
330
2FE56
100
AcDbEntity
  8
0
100
AcDbBlockEnd
  0
BLOCK
  5
2FE6D
330
2FE63
100
AcDbEntity
  8
0
100
AcDbBlockBegin
  2
*D24
 70
     1
 10
0.0
 20
0.0
 30
0.0
  3
*D24
  1

  0
LINE
  5
311D8
330
2FE63
100
AcDbEntity
  8
sunpo
 62
     3
370
     9
100
AcDbLine
 10
613.581488859849
 20
305.4684862178615
 30
0.0
 11
600.581488859849
 21
305.4684862178615
 31
0.0
  0
LINE
  5
311D9
330
2FE63
100
AcDbEntity
  8
sunpo
 62
     3
370
     9
100
AcDbLine
 10
613.581488859849
 20
349.4684862178615
 30
0.0
 11
600.581488859849
 21
349.4684862178615
 31
0.0
  0
LINE
  5
311DA
330
2FE63
100
AcDbEntity
  8
sunpo
 62
     3
370
     9
100
AcDbLine
 10
602.581488859849
 20
305.4684862178615
 30
0.0
 11
602.581488859849
 21
349.4684862178615
 31
0.0
  0
INSERT
  5
311DB
330
2FE63
100
AcDbEntity
  8
sunpo
 62
     3
370
     9
100
AcDbBlockReference
  2
_DotSmall
 10
602.581488859849
 20
305.4684862178615
 30
0.0
 41
7.0
 42
7.0
 43
7.0
 50
270.0
  0
INSERT
  5
311DC
330
2FE63
100
AcDbEntity
  8
sunpo
 62
     3
370
     9
100
AcDbBlockReference
  2
_DotSmall
 10
602.581488859849
 20
349.4684862178615
 30
0.0
 41
7.0
 42
7.0
 43
7.0
 50
90.0
  0
MTEXT
  5
311DD
330
2FE63
100
AcDbEntity
  8
sunpo
 62
     2
100
AcDbMText
 10
598.3814888598488
 20
327.4684862178615
 30
0.0
 40
6.0
 41
0.0
 71
     5
 72
     1
  1
44
  7
Std
 11
0.0000000000000001
 21
1.0
 31
0.0
 73
     1
 44
1.0
  0
POINT
  5
311DE
330
2FE63
100
AcDbEntity
  8
Defpoints
 62
     0
100
AcDbPoint
 10
617.581488859849
 20
305.4684862178615
 30
0.0
  0
POINT
  5
311DF
330
2FE63
100
AcDbEntity
  8
Defpoints
 62
     0
100
AcDbPoint
 10
617.581488859849
 20
349.4684862178615
 30
0.0
  0
POINT
  5
311E0
330
2FE63
100
AcDbEntity
  8
Defpoints
 62
     0
100
AcDbPoint
 10
602.581488859849
 20
349.4684862178615
 30
0.0
  0
ENDBLK
  5
2FE6E
330
2FE63
100
AcDbEntity
  8
0
100
AcDbBlockEnd
  0
BLOCK
  5
2FE79
330
2FE6F
100
AcDbEntity
  8
0
100
AcDbBlockBegin
  2
*D25
 70
     1
 10
0.0
 20
0.0
 30
0.0
  3
*D25
  1

  0
LINE
  5
311CF
330
2FE6F
100
AcDbEntity
  8
sunpo
 62
     3
370
     9
100
AcDbLine
 10
625.581488859849
 20
289.4684862178615
 30
0.0
 11
625.581488859849
 21
287.4684862178615
 31
0.0
  0
LINE
  5
311D0
330
2FE6F
100
AcDbEntity
  8
sunpo
 62
     3
370
     9
100
AcDbLine
 10
645.581488859849
 20
289.4684862178615
 30
0.0
 11
645.581488859849
 21
287.4684862178615
 31
0.0
  0
LINE
  5
311D1
330
2FE6F
100
AcDbEntity
  8
sunpo
 62
     3
370
     9
100
AcDbLine
 10
625.581488859849
 20
285.4684862178615
 30
0.0
 11
645.581488859849
 21
285.4684862178615
 31
0.0
  0
INSERT
  5
311D2
330
2FE6F
100
AcDbEntity
  8
sunpo
 62
     3
370
     9
100
AcDbBlockReference
  2
_DotSmall
 10
625.581488859849
 20
285.4684862178615
 30
0.0
 41
7.0
 42
7.0
 43
7.0
 50
180.0
  0
INSERT
  5
311D3
330
2FE6F
100
AcDbEntity
  8
sunpo
 62
     3
370
     9
100
AcDbBlockReference
  2
_DotSmall
 10
645.581488859849
 20
285.4684862178615
 30
0.0
 41
7.0
 42
7.0
 43
7.0
  0
MTEXT
  5
311D4
330
2FE6F
100
AcDbEntity
  8
sunpo
 62
     2
100
AcDbMText
 10
635.581488859849
 20
289.6684862178615
 30
0.0
 40
6.0
 41
0.0
 71
     5
 72
     1
  1
20
  7
Std
 73
     1
 44
1.0
  0
POINT
  5
311D5
330
2FE6F
100
AcDbEntity
  8
Defpoints
 62
     0
100
AcDbPoint
 10
625.581488859849
 20
285.4684862178615
 30
0.0
  0
POINT
  5
311D6
330
2FE6F
100
AcDbEntity
  8
Defpoints
 62
     0
100
AcDbPoint
 10
645.581488859849
 20
285.4684862178615
 30
0.0
  0
POINT
  5
311D7
330
2FE6F
100
AcDbEntity
  8
Defpoints
 62
     0
100
AcDbPoint
 10
645.581488859849
 20
285.4684862178615
 30
0.0
  0
ENDBLK
  5
2FE7A
330
2FE6F
100
AcDbEntity
  8
0
100
AcDbBlockEnd
  0
BLOCK
  5
2FE86
330
2FE7B
100
AcDbEntity
  8
0
100
AcDbBlockBegin
  2
*D26
 70
     1
 10
0.0
 20
0.0
 30
0.0
  3
*D26
  1

  0
LINE
  5
311C5
330
2FE7B
100
AcDbEntity
  8
sunpo
 62
     3
370
     9
100
AcDbLine
 10
625.5814888598463
 20
289.4684862178615
 30
0.0
 11
625.5814888598463
 21
287.4684862178615
 31
0.0
  0
LINE
  5
311C6
330
2FE7B
100
AcDbEntity
  8
sunpo
 62
     3
370
     9
100
AcDbLine
 10
622.581488859849
 20
296.4684862178615
 30
0.0
 11
622.581488859849
 21
283.4684862178615
 31
0.0
  0
LINE
  5
311C7
330
2FE7B
100
AcDbEntity
  8
sunpo
 62
     3
370
     9
100
AcDbLine
 10
625.5814888598463
 20
285.4684862178615
 30
0.0
 11
622.581488859849
 21
285.4684862178615
 31
0.0
  0
LINE
  5
311C8
330
2FE7B
100
AcDbEntity
  8
sunpo
 62
     3
370
     9
100
AcDbLine
 10
622.581488859849
 20
285.4684862178615
 30
0.0
 11
609.9814888598488
 21
285.4684862178615
 31
0.0
  0
INSERT
  5
311C9
330
2FE7B
100
AcDbEntity
  8
sunpo
 62
     3
370
     9
100
AcDbBlockReference
  2
_DotSmall
 10
625.5814888598463
 20
285.4684862178615
 30
0.0
 41
7.0
 42
7.0
 43
7.0
  0
INSERT
  5
311CA
330
2FE7B
100
AcDbEntity
  8
sunpo
 62
     3
370
     9
100
AcDbBlockReference
  2
_DotSmall
 10
622.581488859849
 20
285.4684862178615
 30
0.0
 41
7.0
 42
7.0
 43
7.0
 50
180.0
  0
MTEXT
  5
311CB
330
2FE7B
100
AcDbEntity
  8
sunpo
 62
     2
100
AcDbMText
 10
612.7814888598488
 20
289.6684862178615
 30
0.0
 40
6.0
 41
0.0
 71
     5
 72
     1
  1
3
  7
Std
 73
     1
 44
1.0
  0
POINT
  5
311CC
330
2FE7B
100
AcDbEntity
  8
Defpoints
 62
     0
100
AcDbPoint
 10
625.5814888598463
 20
285.4684862178615
 30
0.0
  0
POINT
  5
311CD
330
2FE7B
100
AcDbEntity
  8
Defpoints
 62
     0
100
AcDbPoint
 10
622.581488859849
 20
300.4684862178615
 30
0.0
  0
POINT
  5
311CE
330
2FE7B
100
AcDbEntity
  8
Defpoints
 62
     0
100
AcDbPoint
 10
622.581488859849
 20
285.4684862178615
 30
0.0
  0
ENDBLK
  5
2FE87
330
2FE7B
100
AcDbEntity
  8
0
100
AcDbBlockEnd
  0
BLOCK
  5
2FE92
330
2FE88
100
AcDbEntity
  8
0
100
AcDbBlockBegin
  2
*D27
 70
     1
 10
0.0
 20
0.0
 30
0.0
  3
*D27
  1

  0
LINE
  5
311BC
330
2FE88
100
AcDbEntity
  8
sunpo
 62
     3
370
     9
100
AcDbLine
 10
666.581488859849
 20
358.4684862178615
 30
0.0
 11
666.581488859849
 21
371.4684862178615
 31
0.0
  0
LINE
  5
311BD
330
2FE88
100
AcDbEntity
  8
sunpo
 62
     3
370
     9
100
AcDbLine
 10
622.581488859849
 20
358.4684862178615
 30
0.0
 11
622.581488859849
 21
371.4684862178615
 31
0.0
  0
LINE
  5
311BE
330
2FE88
100
AcDbEntity
  8
sunpo
 62
     3
370
     9
100
AcDbLine
 10
666.581488859849
 20
369.4684862178615
 30
0.0
 11
622.581488859849
 21
369.4684862178615
 31
0.0
  0
INSERT
  5
311BF
330
2FE88
100
AcDbEntity
  8
sunpo
 62
     3
370
     9
100
AcDbBlockReference
  2
_DotSmall
 10
666.581488859849
 20
369.4684862178615
 30
0.0
 41
7.0
 42
7.0
 43
7.0
  0
INSERT
  5
311C0
330
2FE88
100
AcDbEntity
  8
sunpo
 62
     3
370
     9
100
AcDbBlockReference
  2
_DotSmall
 10
622.581488859849
 20
369.4684862178615
 30
0.0
 41
7.0
 42
7.0
 43
7.0
 50
180.0
  0
MTEXT
  5
311C1
330
2FE88
100
AcDbEntity
  8
sunpo
 62
     2
100
AcDbMText
 10
644.5814888598491
 20
373.6684862178615
 30
0.0
 40
6.0
 41
0.0
 71
     5
 72
     1
  1
44
  7
Std
 73
     1
 44
1.0
  0
POINT
  5
311C2
330
2FE88
100
AcDbEntity
  8
Defpoints
 62
     0
100
AcDbPoint
 10
666.581488859849
 20
354.4684862178615
 30
0.0
  0
POINT
  5
311C3
330
2FE88
100
AcDbEntity
  8
Defpoints
 62
     0
100
AcDbPoint
 10
622.581488859849
 20
354.4684862178615
 30
0.0
  0
POINT
  5
311C4
330
2FE88
100
AcDbEntity
  8
Defpoints
 62
     0
100
AcDbPoint
 10
622.581488859849
 20
369.4684862178615
 30
0.0
  0
ENDBLK
  5
2FE93
330
2FE88
100
AcDbEntity
  8
0
100
AcDbBlockEnd
  0
BLOCK
  5
2FE9E
330
2FE94
100
AcDbEntity
  8
0
100
AcDbBlockBegin
  2
*D28
 70
     1
 10
0.0
 20
0.0
 30
0.0
  3
*D28
  1

  0
LINE
  5
311B3
330
2FE94
100
AcDbEntity
  8
sunpo
 62
     3
370
     9
100
AcDbLine
 10
243.5092633339004
 20
228.1880261748526
 30
0.0
 11
225.5092633339004
 21
228.1880261748526
 31
0.0
  0
LINE
  5
311B4
330
2FE94
100
AcDbEntity
  8
sunpo
 62
     3
370
     9
100
AcDbLine
 10
243.5092633339004
 20
318.1880261748527
 30
0.0
 11
225.5092633339004
 21
318.1880261748527
 31
0.0
  0
LINE
  5
311B5
330
2FE94
100
AcDbEntity
  8
sunpo
 62
     3
370
     9
100
AcDbLine
 10
227.5092633339004
 20
228.1880261748526
 30
0.0
 11
227.5092633339004
 21
318.1880261748527
 31
0.0
  0
INSERT
  5
311B6
330
2FE94
100
AcDbEntity
  8
sunpo
 62
     3
370
     9
100
AcDbBlockReference
  2
_DotSmall
 10
227.5092633339004
 20
228.1880261748526
 30
0.0
 41
7.0
 42
7.0
 43
7.0
 50
270.0
  0
INSERT
  5
311B7
330
2FE94
100
AcDbEntity
  8
sunpo
 62
     3
370
     9
100
AcDbBlockReference
  2
_DotSmall
 10
227.5092633339004
 20
318.1880261748527
 30
0.0
 41
7.0
 42
7.0
 43
7.0
 50
90.0
  0
MTEXT
  5
311B8
330
2FE94
100
AcDbEntity
  8
sunpo
 62
     2
100
AcDbMText
 10
223.5092633339004
 20
273.1880261748527
 30
0.0
 40
6.0
 41
0.0
 71
     5
 72
     1
  1
FLマデ
  7
Std
 11
0.0000000000000001
 21
1.0
 31
0.0
 73
     1
 44
1.0
  0
POINT
  5
311B9
330
2FE94
100
AcDbEntity
  8
Defpoints
 62
     0
100
AcDbPoint
 10
247.5092633339004
 20
228.1880261748526
 30
0.0
  0
POINT
  5
311BA
330
2FE94
100
AcDbEntity
  8
Defpoints
 62
     0
100
AcDbPoint
 10
247.5092633339004
 20
318.1880261748527
 30
0.0
  0
POINT
  5
311BB
330
2FE94
100
AcDbEntity
  8
Defpoints
 62
     0
100
AcDbPoint
 10
227.5092633339004
 20
318.1880261748527
 30
0.0
  0
ENDBLK
  5
2FE9F
330
2FE94
100
AcDbEntity
  8
0
100
AcDbBlockEnd
  0
BLOCK
  5
2FEA9
330
2FEA0
100
AcDbEntity
  8
0
100
AcDbBlockBegin
  2
*D29
 70
     1
 10
0.0
 20
0.0
 30
0.0
  3
*D29
  1

  0
LINE
  5
311AB
330
2FEA0
100
AcDbEntity
  8
sunpo
 62
     3
370
     9
100
AcDbLine
 10
956.9999999999991
 20
283.0000000000009
 30
0.0
 11
868.9999999999995
 21
283.000000000001
 31
0.0
  0
LINE
  5
311AC
330
2FEA0
100
AcDbEntity
  8
sunpo
 62
     3
370
     9
100
AcDbLine
 10
870.9999999999997
 20
283.000000000001
 30
0.0
 11
870.9999999999995
 21
118.5000000000023
 31
0.0
  0
MTEXT
  5
311AD
330
2FEA0
100
AcDbEntity
  8
sunpo
 62
     2
100
AcDbMText
 10
863.5357672332792
 20
169.6378531008458
 30
0.0
 40
6.0
 41
0.0
 71
     5
 72
     1
  1
FLマデ
  7
Std
 11
0.0000000000000001
 21
1.0
 31
0.0
 73
     1
 44
1.0
  0
INSERT
  5
311AE
330
2FEA0
100
AcDbEntity
  8
sunpo
 62
     3
370
     9
100
AcDbBlockReference
  2
_DotSmall
 10
870.9999999999997
 20
283.000000000001
 30
0.0
 41
7.0
 42
7.0
 43
7.0
 50
90.0
  0
INSERT
  5
311AF
330
2FEA0
100
AcDbEntity
  8
sunpo
 62
     3
370
     9
100
AcDbBlockReference
  2
_ClosedBlank
 10
870.9999999999995
 20
111.5000000000023
 30
0.0
 41
7.0
 42
7.0
 43
7.0
 50
270.0
  0
POINT
  5
311B0
330
2FEA0
100
AcDbEntity
  8
Defpoints
 62
     0
100
AcDbPoint
 10
960.999999999999
 20
283.0000000000009
 30
0.0
  0
POINT
  5
311B1
330
2FEA0
100
AcDbEntity
  8
Defpoints
 62
     0
100
AcDbPoint
 10
960.999999999999
 20
111.5000000000023
 30
0.0
  0
POINT
  5
311B2
330
2FEA0
100
AcDbEntity
  8
Defpoints
 62
     0
100
AcDbPoint
 10
870.9999999999995
 20
111.5000000000023
 30
0.0
  0
ENDBLK
  5
2FEAA
330
2FEA0
100
AcDbEntity
  8
0
100
AcDbBlockEnd
  0
ENDSEC
  0
SECTION
  2
ENTITIES
  0
MTEXT
  5
178A8
330
1F
100
AcDbEntity
  8
wakumoji
100
AcDbMText
 10
998.4999999999999
 20
55.0
 30
0.0
 40
12.38095238095238
 41
195.9999999999999
 71
     5
 72
     5
  1
　　二葉工業株式会社
  7
gothic
 73
     1
 44
1.0
  0
LWPOLYLINE
  5
178B7
330
1F
100
AcDbEntity
  8
size
100
AcDbPolyline
 90
        4
 70
     1
 43
0.0
 10
1158.0
 20
28.0
 10
1158.0
 20
806.0
 10
38.0
 20
806.0
 10
38.0
 20
28.0
  0
LWPOLYLINE
  5
178B8
330
1F
100
AcDbEntity
  8
size
100
AcDbPolyline
 90
        4
 70
     1
 43
0.0
 10
38.5
 20
805.5000000000005
 10
38.5
 20
28.5
 10
1157.5
 20
28.5
 10
1157.5
 20
805.5000000000005
  0
LWPOLYLINE
  5
178B9
330
1F
100
AcDbEntity
  8
size
100
AcDbPolyline
 90
        4
 70
     1
 43
0.0
 10
1157.0
 20
29.0
 10
1157.0
 20
805.0000000000004
 10
39.0
 20
805.0000000000004
 10
39.0
 20
29.0
  0
LWPOLYLINE
  5
178BA
330
1F
100
AcDbEntity
  8
size
100
AcDbPolyline
 90
        4
 70
     1
 43
0.0
 10
39.5
 20
804.4999999999999
 10
39.5
 20
29.5
 10
1156.5
 20
29.5
 10
1156.5
 20
804.4999999999999
  0
LWPOLYLINE
  5
178BB
330
1F
100
AcDbEntity
  8
size
100
AcDbPolyline
 90
        4
 70
     1
 43
0.0
 10
1156.0
 20
30.0
 10
1156.0
 20
804.0
 10
40.0
 20
804.0
 10
40.0
 20
30.0
  0
LWPOLYLINE
  5
178BC
330
1F
100
AcDbEntity
  8
size
100
AcDbPolyline
 90
        4
 70
     1
 43
0.0
 10
40.49999999999999
 20
803.5
 10
40.49999999999999
 20
30.5
 10
1155.5
 20
30.5
 10
1155.5
 20
803.5
  0
LWPOLYLINE
  5
178BD
330
1F
100
AcDbEntity
  8
size
100
AcDbPolyline
 90
        4
 70
     1
 43
0.0
 10
1155.0
 20
31.0
 10
1155.0
 20
803.0000000000004
 10
41.0
 20
803.0000000000004
 10
41.0
 20
31.0
  0
MTEXT
  5
178BE
330
1F
100
AcDbEntity
  8
wakumoji
100
AcDbMText
 10
509.75
 20
42.875
 30
0.0
 40
6.0
 41
0.0
 71
     5
 72
     5
  1
 年   月   日
  7
gothic
 73
     1
 44
1.0
  0
MTEXT
  5
178BF
330
1F
100
AcDbEntity
  8
wakumoji
100
AcDbMText
 10
509.75
 20
67.12499999999981
 30
0.0
 40
6.0
 41
0.0
 71
     5
 72
     5
  1
年    月    日
  7
gothic
 73
     1
 44
1.0
  0
MTEXT
  5
178C0
330
1F
100
AcDbEntity
  8
wakumoji
100
AcDbMText
 10
464.7499999999999
 20
42.875
 30
0.0
 40
6.0
 41
13.5
 71
     5
 72
     5
  1
検図
  7
gothic
 73
     1
 44
1.0
  0
MTEXT
  5
178C1
330
1F
100
AcDbEntity
  8
wakumoji
100
AcDbMText
 10
418.75
 20
42.875
 30
0.0
 40
6.0
 41
13.5
 71
     5
 72
     5
  1
担当
  7
gothic
 73
     1
 44
1.0
  0
MTEXT
  5
178C2
330
1F
100
AcDbEntity
  8
wakumoji
100
AcDbMText
 10
464.7499999999999
 20
67.125
 30
0.0
 40
6.0
 41
13.5
 71
     5
 72
     5
  1
作図
  7
gothic
 73
     1
 44
1.0
  0
MTEXT
  5
178C3
330
1F
100
AcDbEntity
  8
wakumoji
100
AcDbMText
 10
418.75
 20
67.125
 30
0.0
 40
6.0
 41
13.5
 71
     5
 72
     5
  1
製図
  7
gothic
 73
     1
 44
1.0
  0
LINE
  5
178C4
330
1F
100
AcDbEntity
  8
size
100
AcDbLine
 10
412.0
 20
54.75
 30
0.0
 11
547.5
 21
54.75
 31
0.0
  0
MTEXT
  5
178C5
330
1F
100
AcDbEntity
  8
wakumoji
100
AcDbMText
 10
43.0
 20
78.0
 30
0.0
 40
6.0
 41
169.5
 71
     1
 72
     5
  1
記事
  7
gothic
 73
     1
 44
1.0
  0
LINE
  5
178C6
330
1F
100
AcDbEntity
  8
size
100
AcDbLine
 10
412.0
 20
55.25
 30
0.0
 11
547.5
 21
55.25
 31
0.0
  0
LINE
  5
178C7
330
1F
100
AcDbEntity
  8
size
100
AcDbLine
 10
411.5
 20
31.0
 30
0.0
 11
411.5
 21
79.0
 31
0.0
  0
LINE
  5
178C8
330
1F
100
AcDbEntity
  8
size
100
AcDbLine
 10
412.0
 20
31.0
 30
0.0
 11
412.0
 21
79.0
 31
0.0
  0
LINE
  5
178C9
330
1F
100
AcDbEntity
  8
size
100
AcDbLine
 10
426.0
 20
31.0
 30
0.0
 11
426.0
 21
79.0
 31
0.0
  0
LINE
  5
178CA
330
1F
100
AcDbEntity
  8
size
100
AcDbLine
 10
425.4999999999999
 20
31.0
 30
0.0
 11
425.4999999999999
 21
79.0
 31
0.0
  0
LINE
  5
178CB
330
1F
100
AcDbEntity
  8
size
100
AcDbLine
 10
457.5
 20
31.0
 30
0.0
 11
457.5
 21
79.0
 31
0.0
  0
LINE
  5
178CC
330
1F
100
AcDbEntity
  8
size
100
AcDbLine
 10
458.0
 20
31.0
 30
0.0
 11
458.0
 21
79.0
 31
0.0
  0
LINE
  5
178CD
330
1F
100
AcDbEntity
  8
size
100
AcDbLine
 10
471.4999999999999
 20
31.0
 30
0.0
 11
471.4999999999999
 21
79.0
 31
0.0
  0
LINE
  5
178CE
330
1F
100
AcDbEntity
  8
size
100
AcDbLine
 10
472.0
 20
31.0
 30
0.0
 11
472.0
 21
79.0
 31
0.0
  0
MTEXT
  5
178CF
330
1F
100
AcDbEntity
  8
wakumoji
100
AcDbMText
 10
581.7499999999999
 20
39.0
 30
0.0
 40
6.0
 41
39.5
 71
     5
 72
     5
  1
:
  7
gothic
 73
     1
 44
1.0
  0
MTEXT
  5
178D0
330
1F
100
AcDbEntity
  8
wakumoji
100
AcDbMText
 10
581.7499999999999
 20
55.0
 30
0.0
 40
6.0
 41
39.5
 71
     5
 72
     5
  1
1 : 20
  7
gothic
 73
     1
 44
1.0
  0
MTEXT
  5
178D4
330
1F
100
AcDbEntity
  8
wakumoji
100
AcDbMText
 10
554.75
 20
55.0
 30
0.0
 40
7.0
 41
13.5
 71
     5
 72
     5
  1
縮尺
  7
gothic
 73
     1
 44
1.0
  0
LINE
  5
178D5
330
1F
100
AcDbEntity
  8
size
100
AcDbLine
 10
53.0
 20
55.0
 30
0.0
 11
399.5
 21
55.0
 31
0.0
  0
LINE
  5
178D6
330
1F
100
AcDbEntity
  8
size
100
AcDbLine
 10
602.0
 20
55.25
 30
0.0
 11
798.5
 21
55.25
 31
0.0
  0
LINE
  5
178D7
330
1F
100
AcDbEntity
  8
size
100
AcDbLine
 10
548.0
 20
31.0
 30
0.0
 11
548.0
 21
79.0
 31
0.0
  0
LINE
  5
178D8
330
1F
100
AcDbEntity
  8
size
100
AcDbLine
 10
547.5
 20
31.0
 30
0.0
 11
547.5
 21
79.0
 31
0.0
  0
LINE
  5
178D9
330
1F
100
AcDbEntity
  8
size
100
AcDbLine
 10
561.5
 20
31.0
 30
0.0
 11
561.5
 21
79.0
 31
0.0
  0
LINE
  5
178DA
330
1F
100
AcDbEntity
  8
size
100
AcDbLine
 10
562.0
 20
31.0
 30
0.0
 11
562.0
 21
79.0
 31
0.0
  0
LINE
  5
178DB
330
1F
100
AcDbEntity
  8
size
100
AcDbLine
 10
602.0
 20
54.75
 30
0.0
 11
798.5
 21
54.75
 31
0.0
  0
MTEXT
  5
178DC
330
1F
100
AcDbEntity
  8
wakumoji
100
AcDbMText
 10
603.0
 20
78.0
 30
0.0
 40
7.0
 41
196.5
 71
     1
 72
     5
  1
工事名
  7
gothic
 73
     1
 44
1.0
  0
MTEXT
  5
178DD
330
1F
100
AcDbEntity
  8
wakumoji
100
AcDbMText
 10
603.0
 20
53.75
 30
0.0
 40
7.0
 41
196.5
 71
     1
 72
     5
  1
図面名
  7
gothic
 73
     1
 44
1.0
  0
LINE
  5
178DE
330
1F
100
AcDbEntity
  8
size
100
AcDbLine
 10
602.0
 20
31.0
 30
0.0
 11
602.0
 21
79.0
 31
0.0
  0
LINE
  5
178DF
330
1F
100
AcDbEntity
  8
size
100
AcDbLine
 10
601.5
 20
31.0
 30
0.0
 11
601.5
 21
79.0
 31
0.0
  0
LINE
  5
178E0
330
1F
100
AcDbEntity
  8
size
100
AcDbLine
 10
798.5
 20
31.0
 30
0.0
 11
798.5
 21
79.0
 31
0.0
  0
LINE
  5
178E1
330
1F
100
AcDbEntity
  8
size
100
AcDbLine
 10
799.0
 20
31.0
 30
0.0
 11
799.0
 21
79.0
 31
0.0
  0
MTEXT
  5
178E2
330
1F
100
AcDbEntity
  8
wakumoji
100
AcDbMText
 10
900.0
 20
33.0
 30
0.0
 40
6.0
 41
101.0
 71
     9
 72
     5
  1
年　　月　　日　
  7
gothic
 73
     1
 44
1.0
  0
LINE
  5
178E3
330
1F
100
AcDbEntity
  8
size
100
AcDbLine
 10
900.0
 20
31.0
 30
0.0
 11
900.0
 21
79.0
 31
0.0
  0
LINE
  5
178E4
330
1F
100
AcDbEntity
  8
size
100
AcDbLine
 10
900.5
 20
31.0
 30
0.0
 11
900.5
 21
79.0
 31
0.0
  0
MTEXT
  5
178E5
330
1F
100
AcDbEntity
  8
wakumoji
100
AcDbMText
 10
1097.0
 20
46.74999999999999
 30
0.0
 40
8.0
 41
58.0
 71
     4
 72
     5
  1
 Ｎｏ．
  7
gothic
 73
     1
 44
1.0
  0
LINE
  5
178E6
330
1F
100
AcDbEntity
  8
size
100
AcDbLine
 10
1096.5
 20
31.0
 30
0.0
 11
1096.5
 21
79.0
 31
0.0
  0
LINE
  5
178E7
330
1F
100
AcDbEntity
  8
size
100
AcDbLine
 10
1097.0
 20
62.5
 30
0.0
 11
1155.0
 21
62.5
 31
0.0
  0
MTEXT
  5
178E8
330
1F
100
AcDbEntity
  8
wakumoji
100
AcDbMText
 10
1126.0
 20
71.0
 30
0.0
 40
8.0
 41
58.0
 71
     5
 72
     5
  1
図面番号
  7
gothic
 73
     1
 44
1.0
  0
LINE
  5
178E9
330
1F
100
AcDbEntity
  8
size
100
AcDbLine
 10
1097.0
 20
63.0
 30
0.0
 11
1155.0
 21
63.0
 31
0.0
  0
LINE
  5
178EA
330
1F
100
AcDbEntity
  8
size
100
AcDbLine
 10
1097.0
 20
31.0
 30
0.0
 11
1097.0
 21
79.0
 31
0.0
  0
LINE
  5
178EB
330
1F
100
AcDbEntity
  8
size
100
AcDbLine
 10
41.0
 20
79.5
 30
0.0
 11
1155.0
 21
79.5
 31
0.0
  0
LINE
  5
178EC
330
1F
100
AcDbEntity
  8
size
100
AcDbLine
 10
41.0
 20
80.0
 30
0.0
 11
1155.0
 21
80.0
 31
0.0
  0
LINE
  5
178ED
330
1F
100
AcDbEntity
  8
size
100
AcDbLine
 10
41.0
 20
80.5
 30
0.0
 11
1155.0
 21
80.5
 31
0.0
  0
LINE
  5
178EE
330
1F
100
AcDbEntity
  8
size
100
AcDbLine
 10
41.0
 20
81.0
 30
0.0
 11
1155.0
 21
81.0
 31
0.0
  0
LINE
  5
178EF
330
1F
100
AcDbEntity
  8
size
100
AcDbLine
 10
41.0
 20
79.0
 30
0.0
 11
1155.0
 21
79.0
 31
0.0
  0
LWPOLYLINE
  5
178F0
330
1F
100
AcDbEntity
  8
hojo
100
AcDbPolyline
 90
        4
 70
     1
 43
0.0
 10
0.0
 20
0.0
 10
1188.0
 20
0.0
 10
1188.0
 20
840.0
 10
0.0
 20
840.0
  0
LWPOLYLINE
  5
178F1
330
1F
100
AcDbEntity
  8
Defpoints
 62
     4
100
AcDbPolyline
 90
        4
 70
     1
 43
0.0
 10
20.0
 20
20.0
 10
1168.0
 20
20.0
 10
1168.0
 20
820.0
 10
20.0
 20
820.0
  0
MTEXT
  5
178F2
330
1F
100
AcDbEntity
  8
wakumoji
100
AcDbMText
 10
581.7499999999999
 20
71.0
 30
0.0
 40
6.0
 41
39.5
 71
     5
 72
     5
  1
1 : 2
  7
gothic
 73
     1
 44
1.0
  0
MTEXT
  5
178F4
330
1F
100
AcDbEntity
  8
moji
100
AcDbMText
 10
717.0714285714275
 20
38.57954545454577
 30
0.0
 40
8.0
 41
0.0
 71
     5
 72
     5
  1
アルミ枠掲示板 詳細図
  7
StdW
 73
     1
 44
0.7
  0
TEXT
  5
178F5
330
1F
100
AcDbEntity
  8
hojo
100
AcDbText
 10
4.874124167625268
 20
3.038995724530105
 30
0.0
 40
14.28571428571429
  1
A2-1:2
 41
0.8
  7
Std
100
AcDbText
  0
INSERT
  5
178F8
330
1F
100
AcDbEntity
  8
size
100
AcDbBlockReference
  2
二葉ﾛｺﾞ
 10
923.3571428571432
 20
55.0
 30
0.0
 41
0.1
 42
0.1
 43
0.1
  0
TEXT
  5
2FC95
330
1F
100
AcDbEntity
  8
moji
100
AcDbText
 10
302.9636636882965
 20
197.1815564309122
 30
0.0
 40
7.0
  1
正面図 S=1:20
  7
StdW
 72
     4
 11
336.4969970216298
 21
200.6815564309122
 31
0.0
100
AcDbText
  0
LWPOLYLINE
  5
2FC96
330
1F
100
AcDbEntity
  8
saisen
370
    15
100
AcDbPolyline
 90
        4
 70
     1
 43
0.0
 10
373.907904747055
 20
207.7579242002335
 10
373.907904747055
 20
194.1110664218909
 10
299.1106219207468
 20
194.1110664218909
 10
299.1106219207468
 20
207.7579242002335
  0
LWPOLYLINE
  5
2FC97
330
1F
100
AcDbEntity
  8
saisen
370
    15
100
AcDbPolyline
 90
        4
 70
     1
 43
0.0
 10
373.407904747055
 20
207.2579242002334
 10
373.407904747055
 20
194.6110664218909
 10
299.6106219207468
 20
194.6110664218909
 10
299.6106219207468
 20
207.2579242002334
  0
LINE
  5
2FC99
330
1F
100
AcDbEntity
  8
塗板・掲示板
100
AcDbLine
 10
693.9987260606362
 20
703.8743029112079
 30
0.0
 11
723.9987260606357
 21
703.8743029112079
 31
0.0
  0
LINE
  5
2FC9A
330
1F
100
AcDbEntity
  8
hasen
100
AcDbLine
 10
723.498726060634
 20
690.3743029112142
 30
0.0
 11
724.998726060634
 21
693.3743029112142
 31
0.0
  0
LINE
  5
2FC9B
330
1F
100
AcDbEntity
  8
hasen
100
AcDbLine
 10
723.498726060634
 20
690.3743029112142
 30
0.0
 11
723.498726060634
 21
687.3743029112143
 31
0.0
  0
LINE
  5
2FC9C
330
1F
100
AcDbEntity
  8
hasen
100
AcDbLine
 10
723.498726060634
 20
687.3743029112143
 30
0.0
 11
724.998726060634
 21
684.3743029112142
 31
0.0
  0
LINE
  5
2FC9D
330
1F
100
AcDbEntity
  8
hasen
100
AcDbLine
 10
709.998726060634
 20
690.3743029112142
 30
0.0
 11
723.498726060634
 21
690.3743029112142
 31
0.0
  0
LINE
  5
2FC9E
330
1F
100
AcDbEntity
  8
hasen
100
AcDbLine
 10
723.498726060634
 20
687.3743029112143
 30
0.0
 11
709.998726060634
 21
687.3743029112143
 31
0.0
  0
LINE
  5
2FC9F
330
1F
100
AcDbEntity
  8
kijun
 48
0.5
100
AcDbLine
 10
704.4722234553756
 20
688.8743029112142
 30
0.0
 11
724.998726060634
 21
688.8743029112142
 31
0.0
  0
LINE
  5
2FCA0
330
1F
100
AcDbEntity
  8
塗板・掲示板
100
AcDbLine
 10
723.9987260606357
 20
673.8743029112079
 30
0.0
 11
723.9987260606357
 21
703.8743029112079
 31
0.0
  0
LINE
  5
2FCA1
330
1F
100
AcDbEntity
  8
saisen
100
AcDbLine
 10
723.9987260606357
 20
703.8743029112079
 30
0.0
 11
693.9987260606358
 21
680.3743029112078
 31
0.0
  0
LINE
  5
2FCA2
330
1F
100
AcDbEntity
  8
塗板・掲示板
100
AcDbLine
 10
693.9987260606362
 20
703.8743029112079
 30
0.0
 11
693.9987260606362
 21
680.3743029112088
 31
0.0
  0
LWPOLYLINE
  5
2FCA3
330
1F
100
AcDbEntity
  8
塗板・掲示板
100
AcDbPolyline
 90
       18
 70
     1
 43
0.0
 10
723.9987260606357
 20
673.8743029112079
 10
718.9987260606358
 20
673.8743029112079
 10
718.9987260606358
 20
672.8743029112079
 10
723.9987260606357
 20
672.8743029112079
 10
723.9987260606357
 20
670.3743029112079
 10
723.4987260606358
 20
669.8743029112079
 10
706.4987260606358
 20
669.8743029112079
 10
705.9987260606358
 20
670.3743029112079
 10
705.9987260606358
 20
672.8743029112079
 10
708.9987260606358
 20
672.8743029112079
 10
708.9987260606358
 20
673.8743029112079
 10
704.9987260606358
 20
673.8743029112079
 10
704.9987260606358
 20
669.8743029112079
 10
705.9987260606358
 20
668.8743029112079
 10
723.9987260606357
 20
668.8743029112079
 10
724.9987260606358
 20
669.8743029112079
 10
724.9987260606358
 20
703.8743029112079
 10
723.9987260606357
 20
703.8743029112079
  0
LINE
  5
2FCA4
330
1F
100
AcDbEntity
  8
hatch
100
AcDbLine
 10
349.9987260606213
 20
658.8743029112078
 30
0.0
 11
349.9987260606213
 21
719.3743029112079
 31
0.0
  0
LINE
  5
2FCA5
330
1F
100
AcDbEntity
  8
hatch
100
AcDbLine
 10
329.9987260606213
 20
658.8743029112078
 30
0.0
 11
329.9987260606213
 21
719.3743029112079
 31
0.0
  0
LINE
  5
2FCA6
330
1F
100
AcDbEntity
  8
塗板・掲示板
100
AcDbLine
 10
195.9987260606185
 20
703.8743029112088
 30
0.0
 11
165.998726060619
 21
703.8743029112088
 31
0.0
  0
LINE
  5
2FCA7
330
1F
100
AcDbEntity
  8
hasen
100
AcDbLine
 10
166.4987260606181
 20
687.3743029112088
 30
0.0
 11
164.9987260606181
 21
684.3743029112088
 31
0.0
  0
LINE
  5
2FCA8
330
1F
100
AcDbEntity
  8
hasen
100
AcDbLine
 10
166.4987260606181
 20
690.3743029112088
 30
0.0
 11
166.4987260606181
 21
687.3743029112088
 31
0.0
  0
LINE
  5
2FCA9
330
1F
100
AcDbEntity
  8
hasen
100
AcDbLine
 10
166.4987260606181
 20
690.3743029112088
 30
0.0
 11
164.9987260606181
 21
693.3743029112088
 31
0.0
  0
LINE
  5
2FCAA
330
1F
100
AcDbEntity
  8
kijun
 48
0.5
100
AcDbLine
 10
185.5252286658765
 20
688.8743029112088
 30
0.0
 11
164.9987260606181
 21
688.8743029112088
 31
0.0
  0
LINE
  5
2FCAB
330
1F
100
AcDbEntity
  8
hasen
100
AcDbLine
 10
166.4987260606181
 20
687.3743029112088
 30
0.0
 11
179.9987260606181
 21
687.3743029112088
 31
0.0
  0
LINE
  5
2FCAC
330
1F
100
AcDbEntity
  8
hasen
100
AcDbLine
 10
179.9987260606181
 20
690.3743029112088
 30
0.0
 11
166.4987260606181
 21
690.3743029112088
 31
0.0
  0
LINE
  5
2FCAD
330
1F
100
AcDbEntity
  8
塗板・掲示板
100
AcDbLine
 10
195.9987260606185
 20
680.3743029112088
 30
0.0
 11
195.9987260606185
 21
703.8743029112088
 31
0.0
  0
LINE
  5
2FCAE
330
1F
100
AcDbEntity
  8
saisen
100
AcDbLine
 10
195.9987260606185
 20
703.8743029112088
 30
0.0
 11
165.9987260606185
 21
680.3743029112088
 31
0.0
  0
LINE
  5
2FCAF
330
1F
100
AcDbEntity
  8
塗板・掲示板
100
AcDbLine
 10
165.998726060619
 20
673.8743029112088
 30
0.0
 11
165.998726060619
 21
703.8743029112088
 31
0.0
  0
LWPOLYLINE
  5
2FCB0
330
1F
100
AcDbEntity
  8
塗板・掲示板
100
AcDbPolyline
 90
       18
 70
     1
 43
0.0
 10
165.9987260606212
 20
673.8743029112079
 10
170.9987260606212
 20
673.8743029112079
 10
170.9987260606212
 20
672.8743029112079
 10
165.9987260606212
 20
672.8743029112079
 10
165.9987260606212
 20
670.3743029112079
 10
166.4987260606212
 20
669.8743029112079
 10
183.4987260606212
 20
669.8743029112079
 10
183.9987260606212
 20
670.3743029112079
 10
183.9987260606212
 20
672.8743029112079
 10
180.9987260606212
 20
672.8743029112079
 10
180.9987260606212
 20
673.8743029112079
 10
184.9987260606212
 20
673.8743029112079
 10
184.9987260606212
 20
669.8743029112079
 10
183.9987260606212
 20
668.8743029112079
 10
165.9987260606212
 20
668.8743029112079
 10
164.9987260606212
 20
669.8743029112079
 10
164.9987260606212
 20
703.8743029112079
 10
165.9987260606212
 20
703.8743029112079
  0
LINE
  5
2FCB1
330
1F
100
AcDbEntity
  8
塗板・掲示板
100
AcDbLine
 10
165.998726060619
 20
674.8743029112088
 30
0.0
 11
329.9987260606213
 21
674.8743029112079
 31
0.0
  0
LINE
  5
2FCB2
330
1F
100
AcDbEntity
  8
saisen
100
AcDbLine
 10
183.9987260606181
 20
668.8743029112088
 30
0.0
 11
329.9987260606213
 21
668.8743029112079
 31
0.0
  0
LINE
  5
2FCB3
330
1F
100
AcDbEntity
  8
塗板・掲示板
100
AcDbLine
 10
165.998726060619
 20
673.8743029112088
 30
0.0
 11
329.9987260606213
 21
673.8743029112079
 31
0.0
  0
LINE
  5
2FCB4
330
1F
100
AcDbEntity
  8
saisen
100
AcDbLine
 10
329.9987260606208
 20
703.8743029112079
 30
0.0
 11
195.9987260606185
 21
703.8743029112088
 31
0.0
  0
LINE
  5
2FCB5
330
1F
100
AcDbEntity
  8
塗板・掲示板
100
AcDbLine
 10
329.9987260606213
 20
680.3743029112078
 30
0.0
 11
165.998726060619
 21
680.3743029112088
 31
0.0
  0
LINE
  5
2FCB7
330
1F
100
AcDbEntity
  8
塗板・掲示板
100
AcDbLine
 10
723.9987260606357
 20
673.8743029112088
 30
0.0
 11
559.9987260606208
 21
673.8743029112088
 31
0.0
  0
LINE
  5
2FCB8
330
1F
100
AcDbEntity
  8
塗板・掲示板
100
AcDbLine
 10
723.9987260606357
 20
674.8743029112088
 30
0.0
 11
559.9987260606208
 21
674.8743029112097
 31
0.0
  0
LINE
  5
2FCB9
330
1F
100
AcDbEntity
  8
saisen
100
AcDbLine
 10
705.9987260606362
 20
668.8743029112088
 30
0.0
 11
559.9987260606212
 21
668.8743029112088
 31
0.0
  0
LINE
  5
2FCBA
330
1F
100
AcDbEntity
  8
saisen
100
AcDbLine
 10
693.9987260606362
 20
703.8743029112079
 30
0.0
 11
559.9987260606217
 21
703.8743029112088
 31
0.0
  0
LINE
  5
2FCBB
330
1F
100
AcDbEntity
  8
塗板・掲示板
100
AcDbLine
 10
723.9987260606357
 20
680.3743029112088
 30
0.0
 11
559.9987260606208
 21
680.3743029112088
 31
0.0
  0
LINE
  5
2FCBC
330
1F
100
AcDbEntity
  8
SIAGE
100
AcDbLine
 10
96.99872606062854
 20
706.8743029112079
 30
0.0
 11
329.9987260606213
 21
706.8743029112079
 31
0.0
  0
LINE
  5
2FCBD
330
1F
100
AcDbEntity
  8
kijun
100
AcDbLine
 10
444.9987260606213
 20
746.8743029112151
 30
0.0
 11
444.9987260606213
 21
625.2541281351546
 31
0.0
  0
LINE
  5
2FCBE
330
1F
100
AcDbEntity
  8
hatch
100
AcDbLine
 10
539.9987260606212
 20
658.8743029112078
 30
0.0
 11
539.9987260606212
 21
719.3743029112079
 31
0.0
  0
LINE
  5
2FCBF
330
1F
100
AcDbEntity
  8
hatch
100
AcDbLine
 10
559.9987260606212
 20
658.8743029112078
 30
0.0
 11
559.9987260606212
 21
719.3743029112079
 31
0.0
  0
LINE
  5
2FCC0
330
1F
100
AcDbEntity
  8
SIAGE
100
AcDbLine
 10
792.9987260606285
 20
706.8743029112079
 30
0.0
 11
559.9987260606212
 21
706.8743029112079
 31
0.0
  0
LINE
  5
2FCC1
330
1F
100
AcDbEntity
  8
SIAGE
100
AcDbLine
 10
349.9987260606213
 20
706.8743029112079
 30
0.0
 11
539.9987260606212
 21
706.8743029112079
 31
0.0
  0
TEXT
  5
2FCC2
330
1F
100
AcDbEntity
  8
moji
100
AcDbText
 10
441.2653927272879
 20
614.320794801821
 30
0.0
 40
8.0
  1
Ｃ
  7
StdW
 72
     4
 11
444.9987260606213
 21
618.5874614684876
 31
0.0
100
AcDbText
  0
TEXT
  5
2FCC3
330
1F
100
AcDbEntity
  8
moji
100
AcDbText
 10
443.7473246204429
 20
610.3507266417257
 30
0.0
 40
8.0
  1
Ｌ
  7
StdW
 72
     4
 11
447.4806579537762
 21
614.6173933083924
 31
0.0
100
AcDbText
  0
LINE
  5
2FCC4
330
1F
100
AcDbEntity
  8
saisen
100
AcDbLine
 10
539.9987260606216
 20
703.8743029112088
 30
0.0
 11
349.9987260606172
 21
703.8743029112088
 31
0.0
  0
LINE
  5
2FCC5
330
1F
100
AcDbEntity
  8
塗板・掲示板
100
AcDbLine
 10
539.9987260606208
 20
680.3743029112097
 30
0.0
 11
349.9987260606176
 21
680.3743029112097
 31
0.0
  0
LINE
  5
2FCC6
330
1F
100
AcDbEntity
  8
塗板・掲示板
100
AcDbLine
 10
539.9987260606208
 20
674.8743029112097
 30
0.0
 11
349.9987260606176
 21
674.8743029112097
 31
0.0
  0
LINE
  5
2FCC7
330
1F
100
AcDbEntity
  8
塗板・掲示板
100
AcDbLine
 10
539.9987260606208
 20
673.8743029112088
 30
0.0
 11
349.9987260606176
 21
673.8743029112097
 31
0.0
  0
LINE
  5
2FCC8
330
1F
100
AcDbEntity
  8
saisen
100
AcDbLine
 10
539.9987260606212
 20
668.8743029112088
 30
0.0
 11
349.9987260606213
 21
668.8743029112079
 31
0.0
  0
DIMENSION
  5
2FCC9
330
1F
100
AcDbEntity
  8
sunpo
100
AcDbDimension
  2
*D6
 10
261.7487260606217
 20
703.8743029112041
 30
0.0
 11
258.1693824201684
 21
712.8404186431234
 31
0.0
 70
   160
 71
     5
 42
3.0
  3
dim2
100
AcDbAlignedDimension
 13
255.7487260606213
 23
706.8743029112042
 33
0.0
 14
255.7487260606213
 24
703.8743029112042
 34
0.0
 50
90.0
100
AcDbRotatedDimension
1001
ACAD
1000
DSTYLE
1002
{
1070
   279
1070
     2
1002
}
  0
DIMENSION
  5
2FCCA
330
1F
100
AcDbEntity
  8
sunpo
100
AcDbDimension
  2
*D7
 10
261.7487260606213
 20
668.8743029112087
 30
0.0
 11
257.5487260606212
 21
686.3743029112065
 31
0.0
 70
    32
 71
     5
 42
34.99999999999545
  3
dim2
100
AcDbAlignedDimension
 13
255.7487260606213
 23
703.8743029112042
 33
0.0
 14
255.7487260606213
 24
668.8743029112088
 34
0.0
 50
90.0
100
AcDbRotatedDimension
  0
DIMENSION
  5
2FCCB
330
1F
100
AcDbEntity
  8
sunpo
100
AcDbDimension
  2
*D8
 10
241.7487260606212
 20
673.8743029112079
 30
0.0
 11
237.5487260606212
 21
688.8743029112078
 31
0.0
 70
    32
 71
     5
 42
30.0
  3
dim2
100
AcDbAlignedDimension
 13
235.7487260606212
 23
703.8743029112079
 33
0.0
 14
235.7487260606212
 24
673.8743029112079
 34
0.0
 50
90.0
100
AcDbRotatedDimension
  0
DIMENSION
  5
2FCCC
330
1F
100
AcDbEntity
  8
sunpo
100
AcDbDimension
  2
*D9
 10
241.7487260606212
 20
668.8743029112079
 30
0.0
 11
238.2259989761733
 21
663.7824403667582
 31
0.0
 70
   160
 71
     5
 42
5.0
  3
dim2
100
AcDbAlignedDimension
 13
235.7487260606212
 23
673.8743029112079
 33
0.0
 14
235.7487260606212
 24
668.8743029112079
 34
0.0
 50
90.0
100
AcDbRotatedDimension
1001
ACAD
1000
DSTYLE
1002
{
1070
   279
1070
     2
1002
}
  0
DIMENSION
  5
2FCCD
330
1F
100
AcDbEntity
  8
sunpo
100
AcDbDimension
  2
*D10
 10
724.9987260606367
 20
568.8743029112079
 30
0.0
 11
444.9987260606294
 21
573.0743029112079
 31
0.0
 70
    32
  1
W
 71
     5
 42
560.0000000000145
  3
dim2
100
AcDbAlignedDimension
 13
164.9987260606222
 23
628.8743029112079
 33
0.0
 14
724.9987260606367
 24
628.8743029112079
 34
0.0
100
AcDbRotatedDimension
  0
DIMENSION
  5
2FCCE
330
1F
100
AcDbEntity
  8
sunpo
100
AcDbDimension
  2
*D11
 10
184.9987260602147
 20
588.8743029112078
 30
0.0
 11
174.9987260604184
 21
593.0743029112079
 31
0.0
 70
    32
 71
     5
 42
19.99999999959254
  3
dim2
100
AcDbAlignedDimension
 13
164.9987260606222
 23
628.8743029112079
 33
0.0
 14
184.9987260602147
 24
628.8743029112079
 34
0.0
100
AcDbRotatedDimension
  0
DIMENSION
  5
2FCCF
330
1F
100
AcDbEntity
  8
sunpo
100
AcDbDimension
  2
*D12
 10
724.9987260606367
 20
588.8743029112078
 30
0.0
 11
714.9987260606367
 21
593.0743029112079
 31
0.0
 70
    32
 71
     5
 42
20.0
  3
dim2
100
AcDbAlignedDimension
 13
704.9987260606367
 23
628.8743029112079
 33
0.0
 14
724.9987260606367
 24
628.8743029112079
 34
0.0
100
AcDbRotatedDimension
  0
LWPOLYLINE
  5
2FCD2
330
1F
100
AcDbEntity
  8
saisen
370
    15
100
AcDbPolyline
 90
        4
 70
     1
 43
0.0
 10
472.8931622116278
 20
550.015715843041
 10
472.8931622116278
 20
536.3688580646985
 10
416.0958793853196
 20
536.3688580646985
 10
416.0958793853196
 20
550.015715843041
  0
LWPOLYLINE
  5
2FCD3
330
1F
100
AcDbEntity
  8
saisen
370
    15
100
AcDbPolyline
 90
        4
 70
     1
 43
0.0
 10
472.3931622116278
 20
549.515715843041
 10
472.3931622116278
 20
536.8688580646985
 10
416.5958793853197
 20
536.8688580646985
 10
416.5958793853197
 20
549.515715843041
  0
TEXT
  5
2FCD4
330
1F
100
AcDbEntity
  8
moji
100
AcDbText
 10
421.5489211528693
 20
539.4393480737199
 30
0.0
 40
7.0
  1
横 断 面 図
  7
StdW
 72
     4
 11
443.4822544862027
 21
542.9393480737198
 31
0.0
100
AcDbText
  0
LWPOLYLINE
  5
2FCD5
330
1F
100
AcDbEntity
  8
hasen
100
AcDbPolyline
 90
        7
 70
     1
 43
0.0
 10
1047.999999999999
 20
340.4999999999905
 10
1047.999999999999
 20
282.99999999999
 10
1020.999999999999
 20
282.99999999999
 10
1020.999999999999
 20
279.99999999999
 10
1050.999999999999
 20
279.99999999999
 10
1050.999999999999
 20
340.99999999999
 10
1048.499999999999
 20
340.99999999999
  0
LWPOLYLINE
  5
2FCD6
330
1F
100
AcDbEntity
  8
saisen
100
AcDbPolyline
 90
        4
 70
     1
 43
0.0
 10
884.2326693526143
 20
600.5045311841163
 10
884.2326693526143
 20
608.9045311841159
 10
910.2431760611857
 20
608.9045311841159
 10
910.2431760611857
 20
600.5045311841163
  0
LINE
  5
2FCD7
330
1F
100
AcDbEntity
  8
hasen
100
AcDbLine
 10
1034.5
 20
734.5000000000013
 30
0.0
 11
1037.5
 21
736.0000000000013
 31
0.0
  0
LINE
  5
2FCD8
330
1F
100
AcDbEntity
  8
hasen
100
AcDbLine
 10
1034.5
 20
734.5000000000013
 30
0.0
 11
1031.5
 21
734.5000000000013
 31
0.0
  0
LINE
  5
2FCD9
330
1F
100
AcDbEntity
  8
hasen
100
AcDbLine
 10
1031.5
 20
734.5000000000013
 30
0.0
 11
1028.5
 21
736.0000000000013
 31
0.0
  0
LINE
  5
2FCDA
330
1F
100
AcDbEntity
  8
hasen
100
AcDbLine
 10
1034.5
 20
721.0000000000014
 30
0.0
 11
1034.5
 21
734.5000000000013
 31
0.0
  0
LINE
  5
2FCDB
330
1F
100
AcDbEntity
  8
hasen
100
AcDbLine
 10
1031.5
 20
734.5000000000013
 30
0.0
 11
1031.5
 21
721.0000000000014
 31
0.0
  0
LINE
  5
2FCDC
330
1F
100
AcDbEntity
  8
kijun
 48
0.5
100
AcDbLine
 10
1033.0
 20
715.4734973947429
 30
0.0
 11
1033.0
 21
736.0000000000013
 31
0.0
  0
LINE
  5
2FCDD
330
1F
100
AcDbEntity
  8
kijun
 48
0.5
100
AcDbLine
 10
1062.999999999995
 20
714.9999999999918
 30
0.0
 11
1047.999999999995
 21
714.9999999999918
 31
0.0
  0
LINE
  5
2FCDE
330
1F
100
AcDbEntity
  8
kijun
 48
0.5
100
AcDbLine
 10
1047.999999999995
 20
689.9999999999918
 30
0.0
 11
1062.999999999995
 21
689.9999999999918
 31
0.0
  0
LINE
  5
2FCDF
330
1F
100
AcDbEntity
  8
塗板・掲示板
100
AcDbLine
 10
1048.0
 20
702.0000000000013
 30
0.0
 11
1048.0
 21
730.0000000000095
 31
0.0
  0
LINE
  5
2FCE0
330
1F
100
AcDbEntity
  8
塗板・掲示板
100
AcDbLine
 10
1047.999999999999
 20
732.0000000000009
 30
0.0
 11
1048.0
 21
702.0000000000013
 31
0.0
  0
LINE
  5
2FCE2
330
1F
100
AcDbEntity
  8
saisen
100
AcDbLine
 10
1024.499999999908
 20
732.0000000000009
 30
0.0
 11
1048.0
 21
702.0000000000013
 31
0.0
  0
LINE
  5
2FCE3
330
1F
100
AcDbEntity
  8
塗板・掲示板
100
AcDbLine
 10
1024.499999999908
 20
702.0000000000013
 30
0.0
 11
1048.0
 21
702.0000000000013
 31
0.0
  0
LINE
  5
2FCE4
330
1F
100
AcDbEntity
  8
塗板・掲示板
100
AcDbLine
 10
1047.999999999999
 20
732.0000000000009
 30
0.0
 11
1018.0
 21
732.0000000000009
 31
0.0
  0
LWPOLYLINE
  5
2FCE5
330
1F
100
AcDbEntity
  8
塗板・掲示板
100
AcDbPolyline
 90
       18
 70
     1
 43
0.0
 10
1018.0
 20
731.9999999999914
 10
1018.0
 20
726.9999999999913
 10
1017.0
 20
726.9999999999913
 10
1017.0
 20
731.9999999999914
 10
1014.5
 20
731.9999999999914
 10
1014.0
 20
731.4999999999913
 10
1014.0
 20
714.4999999999913
 10
1014.5
 20
713.9999999999913
 10
1017.0
 20
713.9999999999913
 10
1017.0
 20
716.9999999999913
 10
1018.0
 20
716.9999999999913
 10
1018.0
 20
712.9999999999913
 10
1014.0
 20
712.9999999999913
 10
1013.0
 20
713.9999999999913
 10
1013.0
 20
731.9999999999914
 10
1014.0
 20
732.9999999999913
 10
1047.999999999999
 20
732.9999999999913
 10
1047.999999999999
 20
731.9999999999914
  0
DIMENSION
  5
2FCE6
330
1F
100
AcDbEntity
  8
sunpo
100
AcDbDimension
  2
*D13
 10
1047.995094724193
 20
629.0045311841163
 30
0.0
 11
1056.095094724193
 21
633.1292415309063
 31
0.0
 70
   160
 71
     5
 42
3.0
  3
dim2
100
AcDbAlignedDimension
 13
1050.995094724193
 23
635.0045311841163
 33
0.0
 14
1047.995094724193
 24
635.0045311841163
 34
0.0
100
AcDbRotatedDimension
  0
DIMENSION
  5
2FCE7
330
1F
100
AcDbEntity
  8
sunpo
100
AcDbDimension
  2
*D14
 10
1012.995094724199
 20
649.0045311841218
 30
0.0
 11
1007.74715390372
 21
653.3034275880536
 31
0.0
 70
   160
 71
     5
 42
5.0
  3
dim2
100
AcDbAlignedDimension
 13
1017.995094724199
 23
655.0045311841217
 33
0.0
 14
1012.995094724199
 24
655.0045311841217
 34
0.0
100
AcDbRotatedDimension
  0
DIMENSION
  5
2FCEA
330
1F
100
AcDbEntity
  8
sunpo
100
AcDbDimension
  2
*D15
 10
1012.995094724183
 20
629.0045311841163
 30
0.0
 11
1030.495094724188
 21
633.2045311841163
 31
0.0
 70
    32
 71
     5
 42
35.00000000001
  3
dim2
100
AcDbAlignedDimension
 13
1047.995094724193
 23
635.0045311841163
 33
0.0
 14
1012.995094724183
 24
635.0045311841163
 34
0.0
100
AcDbRotatedDimension
  0
DIMENSION
  5
2FCEB
330
1F
100
AcDbEntity
  8
sunpo
100
AcDbDimension
  2
*D16
 10
1017.995094724199
 20
649.0045311841218
 30
0.0
 11
1032.995094724198
 21
653.2045311841218
 31
0.0
 70
    32
 71
     5
 42
30.0
  3
dim2
100
AcDbAlignedDimension
 13
1047.995094724198
 23
655.0045311841217
 33
0.0
 14
1017.995094724199
 24
655.0045311841217
 34
0.0
100
AcDbRotatedDimension
  0
LINE
  5
2FCED
330
1F
100
AcDbEntity
  8
hatch
100
AcDbLine
 10
1065.999999999999
 20
517.9972997197065
 30
0.0
 11
998.0
 21
517.9999999999954
 31
0.0
  0
LINE
  5
2FCEE
330
1F
100
AcDbEntity
  8
hatch
100
AcDbLine
 10
1065.999999999999
 20
497.9972997197065
 30
0.0
 11
998.0
 21
497.9999999999959
 31
0.0
  0
LINE
  5
2FCEF
102
{ACAD_REACTORS
330
2FD15
102
}
330
1F
100
AcDbEntity
  8
塗板・掲示板
100
AcDbLine
 10
1018.0
 20
518.0000000000059
 30
0.0
 11
1018.0
 21
732.0000000000013
 31
0.0
  0
LINE
  5
2FCF0
330
1F
100
AcDbEntity
  8
saisen
100
AcDbLine
 10
1048.0
 20
702.0000000000013
 30
0.0
 11
1048.0
 21
518.0000000000059
 31
0.0
  0
LINE
  5
2FCF1
102
{ACAD_REACTORS
330
2FD15
102
}
330
1F
100
AcDbEntity
  8
塗板・掲示板
100
AcDbLine
 10
1018.999999999908
 20
518.0000000000059
 30
0.0
 11
1018.999999999908
 21
732.0000000000013
 31
0.0
  0
LINE
  5
2FCF2
330
1F
100
AcDbEntity
  8
塗板・掲示板
100
AcDbLine
 10
1024.499999999908
 20
732.0000000000009
 30
0.0
 11
1024.499999999908
 21
518.0000000000059
 31
0.0
  0
LINE
  5
2FCF3
330
1F
100
AcDbEntity
  8
SIAGE
100
AcDbLine
 10
1050.999999999999
 20
788.0000000000014
 30
0.0
 11
1051.0
 21
517.9938449493361
 31
0.0
  0
LINE
  5
2FCF4
330
1F
100
AcDbEntity
  8
saisen
100
AcDbLine
 10
1013.0
 20
714.0000000000013
 30
0.0
 11
1013.0
 21
517.9999999999954
 31
0.0
  0
TEXT
  5
2FCF5
330
1F
100
AcDbEntity
  8
sunpo2
100
AcDbText
 10
887.2326693526142
 20
601.7045311841161
 30
0.0
 40
6.0
  1
掲示板
  7
Std
100
AcDbText
  0
TEXT
  5
2FCF7
330
1F
100
AcDbEntity
  8
sunpo2
100
AcDbText
 10
887.2326693526142
 20
590.5045311841162
 30
0.0
 40
6.0
  1
耐水ラワン合板　厚み5.5下地
 41
0.8
  7
Std
100
AcDbText
  0
LINE
  5
2FCF8
330
1F
100
AcDbEntity
  8
sunpo2
370
     9
100
AcDbLine
 10
981.7102609352991
 20
589.0045311841163
 30
0.0
 11
884.7326693526142
 21
589.0045311841163
 31
0.0
  0
LINE
  5
2FCF9
330
1F
100
AcDbEntity
  8
sunpo2
370
     9
100
AcDbLine
 10
981.7102609352991
 20
579.0045311841163
 30
0.0
 11
884.7326693526142
 21
579.0045311841163
 31
0.0
  0
DIMENSION
  5
2FCFB
330
1F
100
AcDbEntity
  8
sunpo
100
AcDbDimension
  2
*D17
 10
890.9999999999991
 20
713.0000000000014
 30
0.0
 11
886.7999999999989
 21
722.9999999999968
 31
0.0
 70
    32
 71
     5
 42
19.99999999999045
  3
dim2
100
AcDbAlignedDimension
 13
960.999999999999
 23
732.9999999999918
 33
0.0
 14
960.999999999999
 24
713.0000000000014
 34
0.0
 50
90.0
100
AcDbRotatedDimension
  0
LEADER
  5
2FCFC
330
1F
100
AcDbEntity
  8
sunpo2
100
AcDbLeader
  3
Std2de
 76
     3
 10
1017.995094724184
 20
599.0045311841163
 30
0.0
 10
981.7102609352982
 20
599.0045311841163
 30
0.0
 10
884.7326693526142
 20
599.0045311841163
 30
0.0
1001
ACAD
1000
DSTYLE
1002
{
1070
    77
1070
     0
1002
}
  0
LINE
  5
2FCFD
330
1F
100
AcDbEntity
  8
kijun
 48
0.5
100
AcDbLine
 10
1047.999999999995
 20
326.0000000000005
 30
0.0
 11
1062.999999999995
 21
326.0000000000005
 31
0.0
  0
LINE
  5
2FCFE
330
1F
100
AcDbEntity
  8
kijun
 48
0.5
100
AcDbLine
 10
1062.999999999995
 20
301.0000000000005
 30
0.0
 11
1047.999999999995
 21
301.0000000000005
 31
0.0
  0
LINE
  5
2FCFF
330
1F
100
AcDbEntity
  8
塗板・掲示板
100
AcDbLine
 10
1024.499999999908
 20
314.0000000000009
 30
0.0
 11
1048.0
 21
314.0000000000009
 31
0.0
  0
LINE
  5
2FD00
330
1F
100
AcDbEntity
  8
hasen
100
AcDbLine
 10
1031.5
 20
281.5000000000009
 30
0.0
 11
1028.5
 21
280.0000000000009
 31
0.0
  0
LINE
  5
2FD01
330
1F
100
AcDbEntity
  8
hasen
100
AcDbLine
 10
1034.5
 20
281.5000000000009
 30
0.0
 11
1031.5
 21
281.5000000000009
 31
0.0
  0
LINE
  5
2FD02
330
1F
100
AcDbEntity
  8
hasen
100
AcDbLine
 10
1034.5
 20
281.5000000000009
 30
0.0
 11
1037.5
 21
280.0000000000009
 31
0.0
  0
LINE
  5
2FD03
330
1F
100
AcDbEntity
  8
塗板・掲示板
100
AcDbLine
 10
1048.0
 20
284.0000000000018
 30
0.0
 11
1018.0
 21
284.0000000000009
 31
0.0
  0
LINE
  5
2FD04
330
1F
100
AcDbEntity
  8
塗板・掲示板
100
AcDbLine
 10
1048.0
 20
284.0000000000009
 30
0.0
 11
1048.0
 21
314.0000000000009
 31
0.0
  0
LINE
  5
2FD05
330
1F
100
AcDbEntity
  8
saisen
100
AcDbLine
 10
1048.0
 20
284.0000000000009
 30
0.0
 11
1024.499999999908
 21
314.0000000000009
 31
0.0
  0
LINE
  5
2FD06
330
1F
100
AcDbEntity
  8
kijun
 48
0.5
100
AcDbLine
 10
1033.0
 20
300.5265026052593
 30
0.0
 11
1033.0
 21
280.0000000000009
 31
0.0
  0
LINE
  5
2FD07
330
1F
100
AcDbEntity
  8
hasen
100
AcDbLine
 10
1031.5
 20
281.5000000000009
 30
0.0
 11
1031.5
 21
295.0000000000009
 31
0.0
  0
LINE
  5
2FD08
330
1F
100
AcDbEntity
  8
hasen
100
AcDbLine
 10
1034.5
 20
295.0000000000009
 30
0.0
 11
1034.5
 21
281.5000000000009
 31
0.0
  0
LWPOLYLINE
  5
2FD09
330
1F
100
AcDbEntity
  8
塗板・掲示板
100
AcDbPolyline
 90
       18
 70
     1
 43
0.0
 10
1018.0
 20
284.0000000000009
 10
1018.0
 20
289.0000000000009
 10
1017.0
 20
289.0000000000009
 10
1017.0
 20
284.0000000000009
 10
1014.5
 20
284.0000000000009
 10
1014.0
 20
284.5000000000009
 10
1014.0
 20
301.5000000000009
 10
1014.5
 20
302.0000000000009
 10
1017.0
 20
302.0000000000009
 10
1017.0
 20
299.0000000000009
 10
1018.0
 20
299.0000000000009
 10
1018.0
 20
303.0000000000009
 10
1014.0
 20
303.0000000000009
 10
1013.0
 20
302.0000000000009
 10
1013.0
 20
284.0000000000009
 10
1014.0
 20
283.0000000000009
 10
1047.999999999999
 20
283.0000000000009
 10
1047.999999999999
 20
284.0000000000009
  0
DIMENSION
  5
2FD0B
330
1F
100
AcDbEntity
  8
sunpo
100
AcDbDimension
  2
*D18
 10
890.9999999999994
 20
283.000000000001
 30
0.0
 11
886.7999999999993
 21
293.0000000000038
 31
0.0
 70
    32
 71
     5
 42
20.00000000000546
  3
dim2
100
AcDbAlignedDimension
 13
960.999999999999
 23
303.0000000000064
 33
0.0
 14
960.999999999999
 24
283.0000000000009
 34
0.0
 50
90.0
100
AcDbRotatedDimension
  0
LINE
  5
2FD0D
102
{ACAD_REACTORS
330
2FD15
102
}
330
1F
100
AcDbEntity
  8
塗板・掲示板
100
AcDbLine
 10
1018.0
 20
497.9938449493361
 30
0.0
 11
1018.0
 21
284.0000000000009
 31
0.0
  0
LINE
  5
2FD0E
330
1F
100
AcDbEntity
  8
saisen
100
AcDbLine
 10
1047.999999999999
 20
314.0000000000009
 30
0.0
 11
1047.999999999999
 21
497.9938449493361
 31
0.0
  0
LINE
  5
2FD0F
330
1F
100
AcDbEntity
  8
塗板・掲示板
100
AcDbLine
 10
1024.499999999908
 20
284.0000000000009
 30
0.0
 11
1024.499999999908
 21
497.9938449493361
 31
0.0
  0
LINE
  5
2FD10
102
{ACAD_REACTORS
330
2FD15
102
}
330
1F
100
AcDbEntity
  8
塗板・掲示板
100
AcDbLine
 10
1018.999999999908
 20
497.9938449493361
 30
0.0
 11
1018.999999999909
 21
284.0000000000009
 31
0.0
  0
LINE
  5
2FD11
330
1F
100
AcDbEntity
  8
SIAGE
100
AcDbLine
 10
1051.0
 20
497.9938449493361
 30
0.0
 11
1050.999999999999
 21
111.0000000000034
 31
0.0
  0
LINE
  5
2FD12
330
1F
100
AcDbEntity
  8
saisen
100
AcDbLine
 10
1013.0
 20
302.0000000000004
 30
0.0
 11
1013.0
 21
497.9999999999959
 31
0.0
  0
DIMENSION
  5
2FD14
330
1F
100
AcDbEntity
  8
sunpo
100
AcDbDimension
  2
*D19
 10
870.9999999999995
 20
283.0000000000005
 30
0.0
 11
866.7999999999993
 21
507.9999999999962
 31
0.0
 70
    32
  1
H
 71
     5
 42
449.9999999999913
  3
dim2
100
AcDbAlignedDimension
 13
960.999999999999
 23
732.9999999999918
 33
0.0
 14
960.999999999999
 24
283.0000000000005
 34
0.0
 50
90.0
100
AcDbRotatedDimension
  0
HATCH
  5
2FD15
330
1F
100
AcDbEntity
  8
hatch
100
AcDbHatch
 10
0.0
 20
0.0
 30
0.0
210
0.0
220
0.0
230
1.0
  2
LINE
 70
     0
 71
     1
 91
        1
 92
       33
 93
        4
 72
     1
 10
1018.999999999908
 20
518.0000000000059
 11
1018.999999999908
 21
732.0000000000013
 72
     1
 10
1018.0
 20
518.0000000000059
 11
1018.0
 21
732.0000000000013
 72
     1
 10
1018.999999999908
 20
497.9938449493361
 11
1018.999999999909
 21
284.0000000000009
 72
     1
 10
1018.0
 20
497.9938449493361
 11
1018.0
 21
284.0000000000009
 97
        4
330
2FCF1
330
2FCEF
330
2FD10
330
2FD0D
 75
     0
 76
     1
 52
0.0
 41
1.0
 77
     0
 78
     1
 53
0.0
 43
-30.0
 44
0.0000000000009095
 45
0.0
 46
3.174999999999999
 79
     0
 98
        1
 10
-30.0
 20
0.0000000000009095
  0
TEXT
  5
2FD16
330
1F
100
AcDbEntity
  8
moji
100
AcDbText
 10
96.74717384141732
 20
691.4318116904455
 30
0.0
 40
6.0
  1
壁仕上面
  7
StdW
 72
     1
 11
110.3471738414173
 21
691.4318116904455
 31
0.0
100
AcDbText
  0
LWPOLYLINE
  5
2FD18
330
1F
100
AcDbEntity
  8
hasen
100
AcDbPolyline
 90
        7
 70
     1
 43
0.0
 10
1047.999999999999
 20
675.5000000000004
 10
1047.999999999999
 20
733.0000000000013
 10
1020.999999999999
 20
733.0000000000013
 10
1020.999999999999
 20
736.0000000000013
 10
1050.999999999999
 20
736.0000000000013
 10
1050.999999999999
 20
675.0000000000014
 10
1048.499999999999
 20
675.0000000000014
  0
LWPOLYLINE
  5
2FD19
330
1F
100
AcDbEntity
  8
saisen
370
    15
100
AcDbPolyline
 90
        4
 70
     1
 43
0.0
 10
932.601358586845
 20
124.6468577783448
 10
989.3986414131532
 20
124.6468577783448
 10
989.3986414131532
 20
111.0000000000022
 10
932.601358586845
 20
111.0000000000022
  0
LWPOLYLINE
  5
2FD1A
330
1F
100
AcDbEntity
  8
saisen
370
    15
100
AcDbPolyline
 90
        4
 70
     1
 43
0.0
 10
988.8986414131531
 20
124.1468577783448
 10
988.8986414131531
 20
111.5000000000023
 10
933.1013585868449
 20
111.5000000000023
 10
933.1013585868449
 20
124.1468577783448
  0
TEXT
  5
2FD1B
330
1F
100
AcDbEntity
  8
moji
100
AcDbText
 10
938.0544003543947
 20
114.0704900090236
 30
0.0
 40
7.0
  1
縦 断 面 図
  7
StdW
 72
     4
 11
959.987733687728
 21
117.5704900090236
 31
0.0
100
AcDbText
  0
LWPOLYLINE
  5
2FD1D
330
1F
100
AcDbEntity
  8
塗板・掲示板
100
AcDbPolyline
 90
        7
 70
     1
 43
0.0
 10
251.6092633339008
 20
405.8880261748527
 10
251.6092633339008
 20
408.4880261748526
 10
248.0092633339004
 20
408.4880261748526
 42
0.4142135623730951
 10
247.2092633339002
 20
407.6880261748524
 10
247.2092633339002
 20
404.0880261748525
 10
249.8092633339006
 20
404.0880261748525
 10
249.8092633339006
 20
405.8880261748527
  0
LWPOLYLINE
  5
2FD1E
330
1F
100
AcDbEntity
  8
塗板・掲示板
100
AcDbPolyline
 90
        7
 70
     1
 43
0.0
 10
251.6092633339008
 20
320.4880261748526
 10
251.6092633339008
 20
317.8880261748527
 10
248.0092633339004
 20
317.8880261748527
 42
-0.4142135623730951
 10
247.2092633339002
 20
318.6880261748529
 10
247.2092633339002
 20
322.2880261748528
 10
249.8092633339006
 20
322.2880261748528
 10
249.8092633339006
 20
320.4880261748526
  0
LWPOLYLINE
  5
2FD1F
330
1F
100
AcDbEntity
  8
塗板・掲示板
100
AcDbPolyline
 90
        7
 70
     1
 43
0.0
 10
423.4092633339001
 20
405.8880261748527
 10
423.4092633339001
 20
408.4880261748526
 10
427.0092633339004
 20
408.4880261748526
 42
-0.4142135623730951
 10
427.8092633339006
 20
407.6880261748524
 10
427.8092633339006
 20
404.0880261748525
 10
425.2092633339002
 20
404.0880261748525
 10
425.2092633339002
 20
405.8880261748527
  0
LWPOLYLINE
  5
2FD20
330
1F
100
AcDbEntity
  8
塗板・掲示板
100
AcDbPolyline
 90
        7
 70
     1
 43
0.0
 10
423.4092633339001
 20
320.4880261748526
 10
423.4092633339001
 20
317.8880261748527
 10
427.0092633339004
 20
317.8880261748527
 42
0.4142135623730951
 10
427.8092633339006
 20
318.6880261748529
 10
427.8092633339006
 20
322.2880261748528
 10
425.2092633339002
 20
322.2880261748528
 10
425.2092633339002
 20
320.4880261748526
  0
DIMENSION
  5
2FD21
330
1F
100
AcDbEntity
  8
sunpo
100
AcDbDimension
  2
*D20
 10
427.5092633339004
 20
428.1880261748524
 30
0.0
 11
337.5092633339004
 21
432.1880261748524
 31
0.0
 70
    32
  1
W
 71
     5
 42
1800.0
  3
dim2_20
100
AcDbAlignedDimension
 13
247.5092633339004
 23
408.1880261748524
 33
0.0
 14
427.5092633339004
 24
408.1880261748524
 34
0.0
100
AcDbRotatedDimension
  0
DIMENSION
  5
2FD22
330
1F
100
AcDbEntity
  8
sunpo
100
AcDbDimension
  2
*D21
 10
227.5092633339004
 20
318.1880261748525
 30
0.0
 11
223.5092633339004
 21
363.1880261748525
 31
0.0
 70
    32
  1
H
 71
     5
 42
900.0
  3
dim2_20
100
AcDbAlignedDimension
 13
247.5092633339004
 23
408.1880261748524
 33
0.0
 14
247.5092633339004
 24
318.1880261748525
 34
0.0
 50
90.0
100
AcDbRotatedDimension
  0
MTEXT
  5
2FD23
330
1F
100
AcDbEntity
  8
moji
100
AcDbMText
 10
337.5092633339004
 20
363.1880261748524
 30
0.0
 40
6.0
 41
0.0
 71
     5
 72
     5
  1
アルミ枠\P掲示板
  7
StdW
 73
     1
 44
1.0
  0
CIRCLE
  5
2FD25
330
1F
100
AcDbEntity
  8
saisen
100
AcDbCircle
 10
337.5092633339004
 20
363.1880261748524
 30
0.0
 40
20.0
  0
LEADER
  5
2FD26
330
1F
100
AcDbEntity
  8
sunpo
100
AcDbLeader
  3
Std2de
 73
     0
 74
     0
 75
     1
 40
6.0
 41
16.0
 76
     3
 10
292.1456273757576
 20
673.8743029112074
 30
0.0
 10
292.1191838252445
 20
635.8762837905624
 30
0.0
 10
296.7191838252446
 20
635.8762837905624
 30
0.0
340
2FD27
213
0.0
223
-3.0
233
0.0
1001
ACAD
1000
DSTYLE
1002
{
1070
   147
1040
0.6
1070
    77
1070
     0
1002
}
  0
MTEXT
  5
2FD27
102
{ACAD_REACTORS
330
2FD26
102
}
330
1F
100
AcDbEntity
  8
sunpo
100
AcDbMText
 10
297.9191838252445
 20
638.8762837905623
 30
0.0
 40
6.0
 41
0.0
 71
     1
 72
     1
  1
掲示板
  7
Std
 73
     1
 44
1.0
  0
LWPOLYLINE
  5
2FD28
330
1F
100
AcDbEntity
  8
moji
100
AcDbPolyline
 90
        3
 70
     1
 43
0.0
 10
113.8112754565554
 20
700.8743029112074
 10
110.3471738414173
 20
706.8743029112074
 10
106.8830722262796
 20
700.8743029112074
  0
LEADER
  5
2FD29
330
1F
100
AcDbEntity
  8
sunpo
100
AcDbLeader
  3
Std2de
 73
     0
 74
     0
 75
     1
 40
6.000000000000002
 41
22.12571428571429
 76
     3
 10
714.9987260606358
 20
668.8743029112079
 30
0.0
 10
730.7268290754137
 20
647.7581562414752
 30
0.0
 10
735.3268290754138
 20
647.7581562414752
 30
0.0
340
2FD2A
213
0.0
223
-3.0
233
0.0
1001
ACAD
1000
DSTYLE
1002
{
1070
   147
1040
0.6
1070
    77
1070
     0
1002
}
  0
MTEXT
  5
2FD2A
102
{ACAD_REACTORS
330
2FD29
102
}
330
1F
100
AcDbEntity
  8
sunpo
100
AcDbMText
 10
736.5268290754138
 20
650.7581562414753
 30
0.0
 40
6.000000000000002
 41
0.0
 71
     1
 72
     1
  1
アルミ枠
  7
Std
 73
     1
 44
1.0
  0
LEADER
  5
2FD2C
330
1F
100
AcDbEntity
  8
sunpo2
100
AcDbLeader
  3
Std2de
 73
     0
 74
     0
 75
     1
 40
6.000000000000001
 41
67.79428571428571
 76
     3
 10
427.5749487588496
 20
408.253711599802
 30
0.0
 10
440.0064737029937
 20
424.7192378420232
 30
0.0
 10
444.6064737029937
 20
424.7192378420232
 30
0.0
340
2FD2D
210
0.0
220
0.0
230
-1.0
213
0.0
223
-2.625
233
0.0
1001
ACAD
1000
DSTYLE
1002
{
1070
   147
1040
1.0
1070
    77
1070
     0
1002
}
  0
MTEXT
  5
2FD2D
102
{ACAD_REACTORS
330
2FD2C
102
}
330
1F
100
AcDbEntity
  8
sunpo2
100
AcDbMText
 10
446.6064737029937
 20
427.3442378420232
 30
0.0
 40
6.0
 41
0.0
 71
     1
 72
     1
  1
コーナーキャップ（樹脂）
  7
Std
 73
     1
 44
0.8
  0
LEADER
  5
2FD2E
330
1F
100
AcDbEntity
  8
sunpo2
100
AcDbLeader
  3
Std2de
 73
     0
 75
     1
 40
16.0
 41
67.10857142857145
 76
     3
 10
1021.000000000004
 20
735.9999999999914
 30
0.0
 10
994.6170413429815
 20
767.4732270244744
 30
0.0
 10
990.0170413429814
 20
767.4732270244744
 30
0.0
340
2FD2F
210
0.0
220
0.0
230
-1.0
213
0.0
223
-2.625
233
0.0
1001
ACAD
1000
DSTYLE
1002
{
1070
    77
1070
     0
1002
}
  0
MTEXT
  5
2FD2F
102
{ACAD_REACTORS
330
2FD2E
102
}
330
1F
100
AcDbEntity
  8
sunpo2
100
AcDbMText
 10
988.0170413429814
 20
770.0982270244744
 30
0.0
 40
6.0
 41
0.0
 71
     3
 72
     1
  1
ブラケット @900以内\PFB-t3x30 L-30x61
  7
Std
 73
     1
 44
1.0
  0
LEADER
  5
2FD30
330
1F
100
AcDbEntity
  8
sunpo
100
AcDbLeader
  3
Std2de
 73
     0
 75
     1
 40
6.000000000000002
 41
22.12571428571429
 76
     3
 10
1013.500000000004
 20
713.4999999999913
 30
0.0
 10
1001.041076816277
 20
689.7433059620384
 30
0.0
 10
996.4410768162768
 20
689.7433059620384
 30
0.0
340
2FD31
210
0.0
220
0.0
230
-1.0
213
0.0
223
-3.0
233
0.0
1001
ACAD
1000
DSTYLE
1002
{
1070
   147
1040
0.6
1070
    77
1070
     0
1002
}
  0
MTEXT
  5
2FD31
102
{ACAD_REACTORS
330
2FD30
102
}
330
1F
100
AcDbEntity
  8
sunpo
100
AcDbMText
 10
995.2410768162767
 20
692.7433059620384
 30
0.0
 40
6.000000000000002
 41
0.0
 71
     3
 72
     1
  1
アルミ枠
  7
Std
 73
     1
 44
1.0
  0
LEADER
  5
2FD32
330
1F
100
AcDbEntity
  8
sunpo
100
AcDbLeader
  3
Std2de
 73
     0
 75
     1
 40
6.000000000000002
 41
22.12571428571429
 76
     3
 10
1013.500000000004
 20
302.4999999999945
 30
0.0
 10
1001.041076816277
 20
325.5595269362407
 30
0.0
 10
996.4410768162768
 20
325.5595269362407
 30
0.0
340
2FD33
210
0.0
220
0.0
230
-1.0
213
0.0
223
-3.0
233
0.0
1001
ACAD
1000
DSTYLE
1002
{
1070
   147
1040
0.6
1070
    77
1070
     0
1002
}
  0
MTEXT
  5
2FD33
102
{ACAD_REACTORS
330
2FD32
102
}
330
1F
100
AcDbEntity
  8
sunpo
100
AcDbMText
 10
995.2410768162767
 20
328.5595269362407
 30
0.0
 40
6.000000000000002
 41
0.0
 71
     3
 72
     1
  1
アルミ枠
  7
Std
 73
     1
 44
1.0
  0
LEADER
  5
2FD34
330
1F
100
AcDbEntity
  8
sunpo2
100
AcDbLeader
  3
Std2de
 73
     0
 75
     1
 40
16.0
 41
67.10857142857145
 76
     3
 10
1020.999999999999
 20
279.99999999999
 30
0.0
 10
994.6170413429815
 20
249.3312310784172
 30
0.0
 10
990.0170413429814
 20
249.3312310784172
 30
0.0
340
2FD35
210
0.0
220
0.0
230
-1.0
213
0.0
223
-2.625
233
0.0
1001
ACAD
1000
DSTYLE
1002
{
1070
    77
1070
     0
1002
}
  0
MTEXT
  5
2FD35
102
{ACAD_REACTORS
330
2FD34
102
}
330
1F
100
AcDbEntity
  8
sunpo2
100
AcDbMText
 10
988.0170413429814
 20
251.9562310784172
 30
0.0
 40
6.0
 41
0.0
 71
     3
 72
     1
  1
ブラケット @900以内\PFB-t3x30 L-30x61
  7
Std
 73
     1
 44
1.0
  0
LEADER
  5
2FD36
330
1F
100
AcDbEntity
  8
sunpo2
100
AcDbLeader
  3
Std2de
 73
     0
 40
6.000000000000002
 41
24.96000000000001
 76
     3
 10
1050.999999999999
 20
140.0127186230593
 30
0.0
 10
1024.301223505246
 20
140.0127186230593
 30
0.0
 10
1019.869523682658
 20
140.0127186230593
 30
0.0
213
0.0
223
-2.5
233
0.0
1001
ACAD
1000
DSTYLE
1002
{
1070
    77
1070
     0
1070
   147
1040
1.0
1002
}
  0
MTEXT
  5
2FD37
102
{ACAD_REACTORS
330
2FD36
102
}
330
1F
100
AcDbEntity
  8
sunpo2
100
AcDbMText
 10
1017.869523682658
 20
142.5127186230593
 30
0.0
 40
6.0
 41
0.0
 71
     3
 72
     1
  1
壁 仕上面
  7
Std
 73
     1
 44
1.0
  0
LINE
  5
2FD3B
330
1F
100
AcDbEntity
  8
hojo
100
AcDbLine
 10
164.9987260606212
 20
703.8743029112079
 30
0.0
 11
164.9987260606212
 21
706.8743029112079
 31
0.0
  0
HATCH
  5
2FD3C
330
1F
100
AcDbEntity
  8
hatch
100
AcDbHatch
 10
0.0
 20
0.0
 30
0.0
210
0.0
220
0.0
230
1.0
  2
LINE
 70
     0
 71
     0
 91
        1
 92
        7
 72
     0
 73
     1
 93
        4
 10
329.9987260606213
 20
674.8743029112079
 10
165.9987260606212
 20
674.8743029112088
 10
165.9987260606212
 20
673.8743029112088
 10
329.9987260606213
 20
673.8743029112079
 97
        0
 75
     0
 76
     1
 52
90.0
 41
1.0
 77
     0
 78
     1
 53
90.0
 43
0.0
 44
840.0
 45
-3.174999999999999
 46
0.0000000000000002
 79
     0
 47
0.5150922771488058
 98
        1
 10
323.4727419460833
 20
674.2229618703459
  0
HATCH
  5
2FD3D
330
1F
100
AcDbEntity
  8
hatch
100
AcDbHatch
 10
0.0
 20
0.0
 30
0.0
210
0.0
220
0.0
230
1.0
  2
LINE
 70
     0
 71
     0
 91
        1
 92
        7
 72
     0
 73
     1
 93
        4
 10
539.9987260606212
 20
674.8743029112097
 10
349.9987260606213
 20
674.8743029112097
 10
349.9987260606213
 20
673.8743029112097
 10
539.9987260606212
 20
673.8743029112088
 97
        0
 75
     0
 76
     1
 52
90.0
 41
1.0
 77
     0
 78
     1
 53
90.0
 43
0.0
 44
840.0
 45
-3.174999999999999
 46
0.0000000000000002
 79
     0
 47
0.5150922771488058
 98
        1
 10
411.5937818583006
 20
674.2229618703459
  0
HATCH
  5
2FD3E
330
1F
100
AcDbEntity
  8
hatch
100
AcDbHatch
 10
0.0
 20
0.0
 30
0.0
210
0.0
220
0.0
230
1.0
  2
LINE
 70
     0
 71
     0
 91
        1
 92
        7
 72
     0
 73
     1
 93
        4
 10
723.9987260606357
 20
674.8743029112088
 10
559.9987260606212
 20
674.8743029112097
 10
559.9987260606212
 20
673.8743029112088
 10
723.9987260606357
 20
673.8743029112088
 97
        0
 75
     0
 76
     1
 52
90.0
 41
1.0
 77
     0
 78
     1
 53
90.0
 43
0.0
 44
840.0
 45
-3.174999999999999
 46
0.0000000000000002
 79
     0
 47
0.5150922771488058
 98
        1
 10
577.5292871198853
 20
674.2229618703459
  0
LINE
  5
2FD3F
330
1F
100
AcDbEntity
  8
塗板・掲示板
100
AcDbLine
 10
423.4092633339001
 20
408.1880261748528
 30
0.0
 11
251.6092633339008
 21
408.1880261748524
 31
0.0
  0
LINE
  5
2FD40
330
1F
100
AcDbEntity
  8
塗板・掲示板
100
AcDbLine
 10
247.5092633339004
 20
404.0880261748525
 30
0.0
 11
247.5092633339004
 21
322.2880261748528
 31
0.0
  0
LINE
  5
2FD41
330
1F
100
AcDbEntity
  8
塗板・掲示板
100
AcDbLine
 10
251.6092633339008
 20
318.1880261748525
 30
0.0
 11
423.4092633339001
 21
318.1880261748525
 31
0.0
  0
LINE
  5
2FD42
330
1F
100
AcDbEntity
  8
塗板・掲示板
100
AcDbLine
 10
427.5092633339004
 20
322.2880261748528
 30
0.0
 11
427.5092633339004
 21
404.0880261748525
 31
0.0
  0
LINE
  5
2FD43
330
1F
100
AcDbEntity
  8
塗板・掲示板
100
AcDbLine
 10
423.4092633339001
 20
406.1880261748524
 30
0.0
 11
251.6092633339008
 21
406.1880261748524
 31
0.0
  0
LINE
  5
2FD44
330
1F
100
AcDbEntity
  8
塗板・掲示板
100
AcDbLine
 10
249.5092633339004
 20
404.0880261748525
 30
0.0
 11
249.5092633339004
 21
322.2880261748528
 31
0.0
  0
LINE
  5
2FD45
330
1F
100
AcDbEntity
  8
塗板・掲示板
100
AcDbLine
 10
251.6092633339008
 20
320.1880261748524
 30
0.0
 11
423.4092633339001
 21
320.1880261748524
 31
0.0
  0
LINE
  5
2FD46
330
1F
100
AcDbEntity
  8
塗板・掲示板
100
AcDbLine
 10
425.5092633339004
 20
322.2880261748528
 30
0.0
 11
425.5092633339004
 21
404.0880261748525
 31
0.0
  0
LEADER
  5
2FD48
330
1F
100
AcDbEntity
  8
sunpo2
100
AcDbLeader
  3
Std2de
 74
     0
 40
5.0
 76
     3
 10
624.9246346103579
 20
347.1253404673548
 30
0.0
 10
633.9354649413114
 20
338.1145101364009
 30
0.0
 10
639.6936040788053
 20
332.3563709989067
 30
0.0
213
0.0
223
-2.5
233
0.0
  0
LWPOLYLINE
  5
2FD49
330
1F
100
AcDbEntity
  8
塗板・掲示板
100
AcDbPolyline
 90
        7
 70
     1
 43
0.0
 10
666.581488859849
 20
323.4684862178615
 10
666.581488859849
 20
349.4684862178615
 10
630.581488859849
 20
349.4684862178615
 42
0.4142135623730951
 10
622.581488859849
 20
341.4684862178615
 10
622.581488859849
 20
305.4684862178615
 10
648.581488859849
 20
305.4684862178615
 10
648.581488859849
 20
323.4684862178615
  0
DIMENSION
  5
2FD4A
330
1F
100
AcDbEntity
  8
sunpo
100
AcDbDimension
  2
*D22
 10
686.5814888598491
 20
326.4684862178615
 30
0.0
 11
682.3814888598489
 21
336.4684862178616
 31
0.0
 70
    32
  1
<>
 71
     5
 42
20.0
  3
dim2
100
AcDbAlignedDimension
 13
686.5814888598491
 23
346.4684862178615
 33
0.0
 14
686.5814888598491
 24
326.4684862178615
 34
0.0
 50
90.0
100
AcDbRotatedDimension
  0
TEXT
  5
2FD4B
330
1F
100
AcDbEntity
  8
sunpo2
100
AcDbText
 10
634.4196983768476
 20
339.7515970444247
 30
0.0
 40
6.0
  1
R8
 50
315.0000000000095
 41
0.8
  7
Std
100
AcDbText
  0
DIMENSION
  5
2FD4C
330
1F
100
AcDbEntity
  8
sunpo
100
AcDbDimension
  2
*D23
 10
686.3869077374856
 20
349.4684862178615
 30
0.0
 11
686.3869077374854
 21
359.268486217862
 31
0.0
 70
   160
  1
<>
 71
     5
 42
2.999999999997271
  3
dim2
100
AcDbAlignedDimension
 13
686.5814888598491
 23
346.4684862178642
 33
0.0
 14
671.581488859849
 24
349.4684862178615
 34
0.0
 50
90.0
100
AcDbRotatedDimension
1001
ACAD
1000
DSTYLE
1002
{
1070
   279
1070
     0
1002
}
  0
LINE
  5
2FD4D
330
1F
100
AcDbEntity
  8
塗板・掲示板
100
AcDbLine
 10
706.581488859849
 20
326.4684862178615
 30
0.0
 11
666.581488859849
 21
326.4684862178615
 31
0.0
  0
LINE
  5
2FD4E
330
1F
100
AcDbEntity
  8
塗板・掲示板
100
AcDbLine
 10
706.581488859849
 20
346.4684862178615
 30
0.0
 11
666.581488859849
 21
346.4684862178615
 31
0.0
  0
DIMENSION
  5
2FD4F
330
1F
100
AcDbEntity
  8
sunpo
100
AcDbDimension
  2
*D24
 10
602.581488859849
 20
349.4684862178615
 30
0.0
 11
598.3814888598488
 21
327.4684862178615
 31
0.0
 70
    32
  1
<>
 71
     5
 42
44.0
  3
dim2
100
AcDbAlignedDimension
 13
617.581488859849
 23
305.4684862178615
 33
0.0
 14
617.581488859849
 24
349.4684862178615
 34
0.0
 50
270.0
100
AcDbRotatedDimension
  0
DIMENSION
  5
2FD50
330
1F
100
AcDbEntity
  8
sunpo
100
AcDbDimension
  2
*D25
 10
645.581488859849
 20
285.4684862178615
 30
0.0
 11
635.581488859849
 21
289.6684862178615
 31
0.0
 70
    32
  1
<>
 71
     5
 42
20.0
  3
dim2
100
AcDbAlignedDimension
 13
625.581488859849
 23
285.4684862178615
 33
0.0
 14
645.581488859849
 24
285.4684862178615
 34
0.0
100
AcDbRotatedDimension
  0
DIMENSION
  5
2FD51
330
1F
100
AcDbEntity
  8
sunpo
100
AcDbDimension
  2
*D26
 10
622.581488859849
 20
285.4684862178615
 30
0.0
 11
612.7814888598488
 21
285.4684862178615
 31
0.0
 70
   160
  1
<>
 71
     5
 42
2.999999999997271
  3
dim2
100
AcDbAlignedDimension
 13
625.5814888598463
 23
285.4684862178615
 33
0.0
 14
622.581488859849
 24
300.4684862178615
 34
0.0
100
AcDbRotatedDimension
1001
ACAD
1000
DSTYLE
1002
{
1070
   279
1070
     0
1002
}
  0
TEXT
  5
2FD52
330
1F
100
AcDbEntity
  8
moji
100
AcDbText
 10
615.2087094068908
 20
246.3394406430834
 30
0.0
 40
6.0
  1
コーナーキャップ　詳細図
  7
Std
 72
     4
 11
657.8087094068908
 21
249.3394406430834
 31
0.0
100
AcDbText
  0
LINE
  5
2FD53
330
1F
100
AcDbEntity
  8
塗板・掲示板
100
AcDbLine
 10
625.581488859849
 20
265.4684862178615
 30
0.0
 11
625.581488859849
 21
305.4684862178615
 31
0.0
  0
LINE
  5
2FD54
330
1F
100
AcDbEntity
  8
塗板・掲示板
100
AcDbLine
 10
645.581488859849
 20
265.4684862178615
 30
0.0
 11
645.581488859849
 21
305.4684862178615
 31
0.0
  0
DIMENSION
  5
2FD55
330
1F
100
AcDbEntity
  8
sunpo
100
AcDbDimension
  2
*D27
 10
622.581488859849
 20
369.4684862178615
 30
0.0
 11
644.5814888598491
 21
373.6684862178615
 31
0.0
 70
    32
  1
<>
 71
     5
 42
44.0
  3
dim2
100
AcDbAlignedDimension
 13
666.581488859849
 23
354.4684862178615
 33
0.0
 14
622.581488859849
 24
354.4684862178615
 34
0.0
 50
180.0
100
AcDbRotatedDimension
  0
LWPOLYLINE
  5
2FD56
330
1F
100
AcDbEntity
  8
saisen
370
    15
100
AcDbPolyline
 90
        4
 70
     1
 43
0.0
 10
611.6842357185707
 20
242.8216284395189
 10
611.6842357185707
 20
255.4684862178615
 10
702.4787420011273
 20
255.4684862178615
 10
702.4787420011273
 20
242.8216284395189
  0
LEADER
  5
2FD57
330
1F
100
AcDbEntity
  8
sunpo
100
AcDbLeader
  3
Std2de
 73
     0
 74
     0
 75
     1
 40
16.0
 41
44.98285714285716
 76
     3
 10
648.462503430547
 20
332.2979796241939
 30
0.0
 10
665.1535539159007
 20
302.1277772838375
 30
0.0
 10
669.7535539159007
 20
302.1277772838375
 30
0.0
340
2FD58
213
0.0
223
-3.0
233
0.0
1001
ACAD
1000
DSTYLE
1002
{
1070
   147
1040
0.6
1070
    77
1070
     0
1002
}
  0
MTEXT
  5
2FD58
102
{ACAD_REACTORS
330
2FD57
102
}
330
1F
100
AcDbEntity
  8
sunpo
100
AcDbMText
 10
670.9535539159007
 20
305.1277772838375
 30
0.0
 40
6.000000000000002
 41
0.0
 71
     1
 72
     1
  1
コーナーキャップ\P（樹脂）
  7
Std
 73
     1
 44
1.0
  0
DIMENSION
  5
2FD59
330
1F
100
AcDbEntity
  8
sunpo
100
AcDbDimension
  2
*D28
 10
227.5092633339004
 20
318.1880261748527
 30
0.0
 11
223.5092633339004
 21
273.1880261748527
 31
0.0
 70
    32
  1
FLマデ
 71
     5
 42
900.0
  3
dim2_20
100
AcDbAlignedDimension
 13
247.5092633339004
 23
228.1880261748526
 33
0.0
 14
247.5092633339004
 24
318.1880261748527
 34
0.0
 50
270.0
100
AcDbRotatedDimension
  0
LINE
  5
2FD5A
330
1F
100
AcDbEntity
  8
KUTAI
100
AcDbLine
 10
207.1066911687071
 20
228.1880261748526
 30
0.0
 11
440.1066911686998
 21
228.1880261748526
 31
0.0
  0
LWPOLYLINE
  5
2FD5B
330
1F
100
AcDbEntity
  8
moji
100
AcDbPolyline
 90
        3
 70
     1
 43
0.0
 10
434.7279413928849
 20
234.1880261748531
 10
431.2638397777468
 20
228.1880261748531
 10
427.7997381626091
 20
234.1880261748531
  0
TEXT
  5
2FD5C
330
1F
100
AcDbEntity
  8
moji
100
AcDbText
 10
424.8638397777468
 20
237.630517395615
 30
0.0
 40
6.0
  1
ＦＬ
  7
StdW
 72
     1
 11
431.2638397777468
 21
237.630517395615
 31
0.0
100
AcDbText
  0
DIMENSION
  5
2FD5D
330
1F
100
AcDbEntity
  8
sunpo
100
AcDbDimension
  2
*D29
 10
870.9999999999995
 20
111.5000000000023
 30
0.0
 11
863.5357672332792
 21
169.6378531008458
 31
0.0
 70
   160
  1
FLマデ
 71
     5
 42
171.4999999999986
  3
dim2
100
AcDbAlignedDimension
 13
960.999999999999
 23
283.0000000000009
 33
0.0
 14
960.999999999999
 24
111.5000000000023
 34
0.0
 50
270.0
100
AcDbRotatedDimension
1001
ACAD
1000
DSTYLE
1002
{
1070
    76
1070
     1
1070
   344
1005
2C7EC
1070
   342
1005
0
1070
   173
1070
     1
1070
   343
1005
46
1002
}
  0
TEXT
  5
2FD6D
330
1F
100
AcDbEntity
  8
sunpo2
100
AcDbText
 10
887.2326693526142
 20
580.5045311841163
 30
0.0
 40
6.0
  1
指定材「          貼」仕上
 41
0.8
  7
Std
100
AcDbText
  0
VIEWPORT
  5
251
330
1B
100
AcDbEntity
 67
     1
  8
0
100
AcDbViewport
 10
295.8911494694115
 20
191.7702991973536
 30
0.0
 40
695.5056591064728
 41
431.3749859134674
 68
     1
 69
     1
 12
295.8911494694115
 22
191.7702991973536
 13
0.0
 23
0.0
 14
10.0
 24
10.0
 15
10.0
 25
10.0
 16
0.0
 26
0.0
 36
1.0
 17
0.0
 27
0.0
 37
0.0
 42
50.0
 43
0.0
 44
0.0
 45
431.3749859134674
 50
0.0
 51
0.0
 72
   100
 90
    32800
  1

281
     0
 71
     1
 74
     0
110
0.0
120
0.0
130
0.0
111
1.0
121
0.0
131
0.0
112
0.0
122
1.0
132
0.0
 79
     0
146
0.0
170
     0
  0
VIEWPORT
  5
173F
330
1B
100
AcDbEntity
 67
     1
  8
size
100
AcDbViewport
 10
294.041392142386
 20
191.7702934678536
 30
0.0
 40
614.9753320319469
 41
427.9387911499888
 68
     2
 69
     2
 12
297.0
 22
210.0
 13
0.0
 23
0.0
 14
10.0
 24
10.0
 15
10.0
 25
10.0
 16
0.0
 26
0.0
 36
1.0
 17
0.0
 27
0.0
 37
0.0
 42
50.0
 43
0.0
 44
0.0
 45
427.9387911499888
 50
0.0
 51
0.0
 72
   100
 90
    32864
  1

281
     0
 71
     1
 74
     0
110
0.0
120
0.0
130
0.0
111
1.0
121
0.0
131
0.0
112
0.0
122
1.0
132
0.0
 79
     0
146
0.0
170
     0
  0
ENDSEC
  0
SECTION
  2
OBJECTS
  0
DICTIONARY
  5
C
330
0
100
AcDbDictionary
281
     1
  3
ACAD_COLOR
350
362D
  3
ACAD_GROUP
350
D
  3
ACAD_LAYOUT
350
1A
  3
ACAD_MATERIAL
350
362C
  3
ACAD_MLINESTYLE
350
17
  3
ACAD_PLOTSETTINGS
350
19
  3
ACAD_PLOTSTYLENAME
350
E
  0
DICTIONARY
  5
1B46
330
2
100
AcDbDictionary
280
     1
281
     1
  3
ACAD_LAYERFILTERS
360
1B47
  3
ACAD_LAYERSTATES
360
3336
  0
DICTIONARY
  5
2FADB
330
2FADA
100
AcDbDictionary
280
     1
281
     1
  3
ACAD_XREC_ROUNDTRIP
360
2FADC
  3
ADSK_XREC_LAYER_RECONCILED
360
2FADD
  0
DICTIONARY
  5
362D
102
{ACAD_REACTORS
330
C
102
}
330
C
100
AcDbDictionary
281
     1
  0
DICTIONARY
  5
D
102
{ACAD_REACTORS
330
C
102
}
330
C
100
AcDbDictionary
281
     1
  0
DICTIONARY
  5
1A
102
{ACAD_REACTORS
330
C
102
}
330
C
100
AcDbDictionary
281
     1
  3
Model
350
22
  3
ﾚｲｱｳﾄ1
350
1E
  3
ﾚｲｱｳﾄ2
350
26
  0
DICTIONARY
  5
362C
102
{ACAD_REACTORS
330
C
102
}
330
C
100
AcDbDictionary
281
     1
  3
Global
350
5B5F
  0
DICTIONARY
  5
17
102
{ACAD_REACTORS
330
C
102
}
330
C
100
AcDbDictionary
281
     1
  3
Standard
350
18
  0
DICTIONARY
  5
19
102
{ACAD_REACTORS
330
C
102
}
330
C
100
AcDbDictionary
281
     1
  0
ACDBDICTIONARYWDFLT
  5
E
102
{ACAD_REACTORS
330
C
102
}
330
C
100
AcDbDictionary
281
     1
  3
Normal
350
F
100
AcDbDictionaryWithDefault
340
F
  0
DICTIONARY
  5
1B47
102
{ACAD_REACTORS
330
1B46
102
}
330
1B46
100
AcDbDictionary
280
     1
281
     1
  0
DICTIONARY
  5
3336
102
{ACAD_REACTORS
330
1B46
102
}
330
1B46
100
AcDbDictionary
281
     1
  0
XRECORD
  5
2FADC
102
{ACAD_REACTORS
330
2FADB
102
}
330
2FADB
100
AcDbXrecord
280
     1
102
MATERIAL
340
5B5F
  0
XRECORD
  5
2FADD
102
{ACAD_REACTORS
330
2FADB
102
}
330
2FADB
100
AcDbXrecord
280
     1
290
     1
  0
LAYOUT
  5
22
102
{ACAD_REACTORS
330
1A
102
}
330
1A
100
AcDbPlotSettings
  1

  2
Canon Inkjet iX5000
  4
A3
  6

 40
4.180416584014892
 41
5.831417560577392
 42
4.180419921875
 43
3.757080078125
 44
296.9683227539062
 45
419.9889831542968
 46
2.459999999999999
 47
1.649999999999999
 48
20.0
 49
20.0
140
1168.0
141
820.0
142
1.0
143
2.819999999999999
 70
 11940
 72
     1
 73
     1
 74
     4
  7
monochrome.ctb
 75
     0
147
0.3546099290780142
 76
     0
 77
     2
 78
   300
148
-20.0
149
-20.0
100
AcDbLayout
  1
Model
 70
     1
 71
     0
 10
0.0
 20
0.0
 11
12.0
 21
9.0
 12
0.0
 22
0.0
 32
0.0
 14
0.0
 24
0.0
 34
0.0
 15
0.0
 25
0.0
 35
0.0
146
0.0
 13
0.0
 23
0.0
 33
0.0
 16
1.0
 26
0.0
 36
0.0
 17
0.0
 27
1.0
 37
0.0
 76
     0
330
1F
  0
LAYOUT
  5
1E
102
{ACAD_REACTORS
330
1A
102
}
330
1A
100
AcDbPlotSettings
  1

  2
HP DesignJet 800 24 by HP
  4
User1294
  6

 40
4.995333194732666
 41
16.97565841674804
 42
4.99530029296875
 43
16.97567749023437
 44
593.97900390625
 45
419.9466552734374
 46
0.0
 47
0.0
 48
0.0
 49
0.0
140
0.0
141
0.0
142
1.0
143
1.0
 70
   688
 72
     1
 73
     2
 74
     5
  7
monochrome.ctb
 75
    16
147
1.0
 76
     1
 77
     2
 78
   300
148
0.0
149
0.0
100
AcDbLayout
  1
ﾚｲｱｳﾄ1
 70
     1
 71
     1
 10
-4.99530029296875
 20
-16.97567749023437
 11
588.9837036132812
 21
402.9709777832031
 12
0.0
 22
0.0
 32
0.0
 14
-13.47440845624715
 24
-22.21867993191836
 34
-0.000000000000013
 15
601.5572178000511
 25
405.7592843052872
 35
0.0000000000000023
146
0.0
 13
0.0
 23
0.0
 33
0.0
 16
1.0
 26
0.0
 36
0.0
 17
0.0
 27
1.0
 37
0.0
 76
     0
330
1B
331
251
  0
LAYOUT
  5
26
102
{ACAD_REACTORS
330
1A
102
}
330
1A
100
AcDbPlotSettings
  1

  2
C:\PROGRAM FILES\AUTOCAD LT 2000I\plotters\DWF Classic.pc3
  4

  6

 40
0.0
 41
0.0
 42
0.0
 43
0.0
 44
0.0
 45
0.0
 46
0.0
 47
0.0
 48
0.0
 49
0.0
140
0.0
141
0.0
142
1.0
143
1.0
 70
   688
 72
     0
 73
     0
 74
     5
  7
monochrome.ctb
 75
    16
147
1.0
 76
     0
 77
     2
 78
   300
148
0.0
149
0.0
100
AcDbLayout
  1
ﾚｲｱｳﾄ2
 70
     1
 71
     2
 10
0.0
 20
0.0
 11
12.0
 21
9.0
 12
0.0
 22
0.0
 32
0.0
 14
0.0
 24
0.0
 34
0.0
 15
0.0
 25
0.0
 35
0.0
146
0.0
 13
0.0
 23
0.0
 33
0.0
 16
1.0
 26
0.0
 36
0.0
 17
0.0
 27
1.0
 37
0.0
 76
     0
330
23
  0
MATERIAL
  5
5B5F
102
{ACAD_REACTORS
330
362C
102
}
330
362C
100
AcDbMaterial
  1
GLOBAL
  0
MLINESTYLE
  5
18
102
{ACAD_REACTORS
330
17
102
}
330
17
100
AcDbMlineStyle
  2
STANDARD
 70
     0
  3

 62
   256
 51
90.0
 52
90.0
 71
     2
 49
0.5
 62
   256
  6
BYLAYER
 49
-0.5
 62
   256
  6
BYLAYER
  0
ACDBPLACEHOLDER
  5
F
102
{ACAD_REACTORS
330
E
102
}
330
E
  0
ENDSEC
  0
EOF
