  0
SECTION
  2
HEADER
  9
$ACADVER
  1
AC1018
  9
$ACADMAINTVER
 70
     0
  9
$DWGCODEPAGE
  3
ANSI_932
  9
$INSBASE
 10
0.0
 20
0.0
 30
0.0
  9
$EXTMIN
 10
-0.0362521168267449
 20
-0.0256328098773793
 30
-0.0000000000000153
  9
$EXTMAX
 10
1188.036257648882
 20
840.0256367214323
 30
0.0
  9
$LIMMIN
 10
0.0
 20
0.0
  9
$LIMMAX
 10
1188.0
 20
840.0
  9
$ORTHOMODE
 70
     0
  9
$REGENMODE
 70
     1
  9
$FILLMODE
 70
     1
  9
$QTEXTMODE
 70
     0
  9
$MIRRTEXT
 70
     0
  9
$LTSCALE
 40
1.0
  9
$ATTMODE
 70
     1
  9
$TEXTSIZE
 40
2.5
  9
$TRACEWID
 40
1.0
  9
$TEXTSTYLE
  7
Std
  9
$CLAYER
  8
sunpo
  9
$CELTYPE
  6
ByLayer
  9
$CECOLOR
 62
   256
  9
$CELTSCALE
 40
1.0
  9
$DISPSILH
 70
     0
  9
$DIMSCALE
 40
2.0
  9
$DIMASZ
 40
3.0
  9
$DIMEXO
 40
2.0
  9
$DIMDLI
 40
8.0
  9
$DIMRND
 40
0.0
  9
$DIMDLE
 40
0.0
  9
$DIMEXE
 40
1.0
  9
$DIMTP
 40
0.0
  9
$DIMTM
 40
0.0
  9
$DIMTXT
 40
2.5
  9
$DIMCEN
 40
0.0
  9
$DIMTSZ
 40
0.0
  9
$DIMTOL
 70
     0
  9
$DIMLIM
 70
     0
  9
$DIMTIH
 70
     0
  9
$DIMTOH
 70
     0
  9
$DIMSE1
 70
     0
  9
$DIMSE2
 70
     0
  9
$DIMTAD
 70
     1
  9
$DIMZIN
 70
     8
  9
$DIMBLK
  1
DotSmall
  9
$DIMASO
 70
     1
  9
$DIMSHO
 70
     1
  9
$DIMPOST
  1

  9
$DIMAPOST
  1

  9
$DIMALT
 70
     0
  9
$DIMALTD
 70
     3
  9
$DIMALTF
 40
0.03937007874016
  9
$DIMLFAC
 40
10.0
  9
$DIMTOFL
 70
     1
  9
$DIMTVP
 40
0.0
  9
$DIMTIX
 70
     0
  9
$DIMSOXD
 70
     0
  9
$DIMSAH
 70
     0
  9
$DIMBLK1
  1

  9
$DIMBLK2
  1

  9
$DIMSTYLE
  2
dim2_20
  9
$DIMCLRD
 70
     3
  9
$DIMCLRE
 70
     3
  9
$DIMCLRT
 70
     2
  9
$DIMTFAC
 40
1.0
  9
$DIMGAP
 40
0.5
  9
$DIMJUST
 70
     0
  9
$DIMSD1
 70
     0
  9
$DIMSD2
 70
     0
  9
$DIMTOLJ
 70
     0
  9
$DIMTZIN
 70
     8
  9
$DIMALTZ
 70
     0
  9
$DIMALTTZ
 70
     0
  9
$DIMUPT
 70
     0
  9
$DIMDEC
 70
     1
  9
$DIMTDEC
 70
     1
  9
$DIMALTU
 70
     2
  9
$DIMALTTD
 70
     3
  9
$DIMTXSTY
  7
Std
  9
$DIMAUNIT
 70
     0
  9
$DIMADEC
 70
     0
  9
$DIMALTRND
 40
0.0
  9
$DIMAZIN
 70
     0
  9
$DIMDSEP
 70
    46
  9
$DIMATFIT
 70
     3
  9
$DIMFRAC
 70
     0
  9
$DIMLDRBLK
  1
DotSmall
  9
$DIMLUNIT
 70
     6
  9
$DIMLWD
 70
     9
  9
$DIMLWE
 70
     9
  9
$DIMTMOVE
 70
     2
  9
$LUNITS
 70
     2
  9
$LUPREC
 70
     2
  9
$SKETCHINC
 40
1.0
  9
$FILLETRAD
 40
0.0
  9
$AUNITS
 70
     0
  9
$AUPREC
 70
     2
  9
$MENU
  1
.
  9
$ELEVATION
 40
0.0
  9
$PELEVATION
 40
0.0
  9
$THICKNESS
 40
0.0
  9
$LIMCHECK
 70
     0
  9
$CHAMFERA
 40
10.0
  9
$CHAMFERB
 40
10.0
  9
$CHAMFERC
 40
20.0
  9
$CHAMFERD
 40
0.0
  9
$SKPOLY
 70
     0
  9
$TDCREATE
 40
2451935.570731713
  9
$TDUCREATE
 40
2451935.195731713
  9
$TDUPDATE
 40
2455741.458474202
  9
$TDUUPDATE
 40
2455741.083474202
  9
$TDINDWG
 40
0.8734835185
  9
$TDUSRTIMER
 40
0.8734835185
  9
$USRTIMER
 70
     1
  9
$ANGBASE
 50
0.0
  9
$ANGDIR
 70
     0
  9
$PDMODE
 70
     0
  9
$PDSIZE
 40
0.0
  9
$PLINEWID
 40
0.0
  9
$SPLFRAME
 70
     0
  9
$SPLINETYPE
 70
     6
  9
$SPLINESEGS
 70
     8
  9
$HANDSEED
  5
5555
  9
$SURFTAB1
 70
     6
  9
$SURFTAB2
 70
     6
  9
$SURFTYPE
 70
     6
  9
$SURFU
 70
     6
  9
$SURFV
 70
     6
  9
$UCSBASE
  2

  9
$UCSNAME
  2

  9
$UCSORG
 10
0.0
 20
0.0
 30
0.0
  9
$UCSXDIR
 10
1.0
 20
0.0
 30
0.0
  9
$UCSYDIR
 10
0.0
 20
1.0
 30
0.0
  9
$UCSORTHOREF
  2

  9
$UCSORTHOVIEW
 70
     0
  9
$UCSORGTOP
 10
0.0
 20
0.0
 30
0.0
  9
$UCSORGBOTTOM
 10
0.0
 20
0.0
 30
0.0
  9
$UCSORGLEFT
 10
0.0
 20
0.0
 30
0.0
  9
$UCSORGRIGHT
 10
0.0
 20
0.0
 30
0.0
  9
$UCSORGFRONT
 10
0.0
 20
0.0
 30
0.0
  9
$UCSORGBACK
 10
0.0
 20
0.0
 30
0.0
  9
$PUCSBASE
  2

  9
$PUCSNAME
  2

  9
$PUCSORG
 10
0.0
 20
0.0
 30
0.0
  9
$PUCSXDIR
 10
1.0
 20
0.0
 30
0.0
  9
$PUCSYDIR
 10
0.0
 20
1.0
 30
0.0
  9
$PUCSORTHOREF
  2

  9
$PUCSORTHOVIEW
 70
     0
  9
$PUCSORGTOP
 10
0.0
 20
0.0
 30
0.0
  9
$PUCSORGBOTTOM
 10
0.0
 20
0.0
 30
0.0
  9
$PUCSORGLEFT
 10
0.0
 20
0.0
 30
0.0
  9
$PUCSORGRIGHT
 10
0.0
 20
0.0
 30
0.0
  9
$PUCSORGFRONT
 10
0.0
 20
0.0
 30
0.0
  9
$PUCSORGBACK
 10
0.0
 20
0.0
 30
0.0
  9
$USERI1
 70
     0
  9
$USERI2
 70
     0
  9
$USERI3
 70
     0
  9
$USERI4
 70
     0
  9
$USERI5
 70
     0
  9
$USERR1
 40
0.0
  9
$USERR2
 40
0.0
  9
$USERR3
 40
0.0
  9
$USERR4
 40
0.0
  9
$USERR5
 40
0.0
  9
$WORLDVIEW
 70
     1
  9
$SHADEDGE
 70
     3
  9
$SHADEDIF
 70
    70
  9
$TILEMODE
 70
     1
  9
$MAXACTVP
 70
    64
  9
$PINSBASE
 10
0.0
 20
0.0
 30
0.0
  9
$PLIMCHECK
 70
     0
  9
$PEXTMIN
 10
-25.93123167385193
 20
-53.05770098799053
 30
-0.000000000000013
  9
$PEXTMAX
 10
1184.147841776788
 20
820.157747913802
 30
0.0000000000000023
  9
$PLIMMIN
 10
-9.9906005859375
 20
-33.95135498046875
  9
$PLIMMAX
 10
1177.967407226562
 20
805.9419555664062
  9
$UNITMODE
 70
     0
  9
$VISRETAIN
 70
     1
  9
$PLINEGEN
 70
     0
  9
$PSLTSCALE
 70
     1
  9
$TREEDEPTH
 70
  3020
  9
$CMLSTYLE
  2
Standard
  9
$CMLJUST
 70
     0
  9
$CMLSCALE
 40
20.0
  9
$PROXYGRAPHICS
 70
     1
  9
$MEASUREMENT
 70
     1
  9
$CELWEIGHT
370
    -1
  9
$ENDCAPS
280
     0
  9
$JOINSTYLE
280
     0
  9
$LWDISPLAY
290
     0
  9
$INSUNITS
 70
     4
  9
$HYPERLINKBASE
  1

  9
$STYLESHEET
  1
monochrome.ctb
  9
$XEDIT
290
     1
  9
$CEPSNTYPE
380
     0
  9
$PSTYLEMODE
290
     1
  9
$FINGERPRINTGUID
  2
{1128C918-EA32-49CA-A447-4FB40908B966}
  9
$VERSIONGUID
  2
{2A6C4E22-2E82-4511-92F1-E3B8C1D78F11}
  9
$EXTNAMES
290
     1
  9
$PSVPSCALE
 40
0.0
  9
$OLESTARTUP
290
     0
  9
$SORTENTS
280
   127
  9
$INDEXCTL
280
     0
  9
$HIDETEXT
280
     0
  9
$XCLIPFRAME
290
     0
  9
$HALOGAP
280
     0
  9
$OBSCOLOR
 70
   257
  9
$OBSLTYPE
280
     0
  9
$INTERSECTIONDISPLAY
280
     0
  9
$INTERSECTIONCOLOR
 70
   257
  9
$DIMASSOC
280
     1
  9
$PROJECTNAME
  1

  0
ENDSEC
  0
SECTION
  2
CLASSES
  0
CLASS
  1
ACDBDICTIONARYWDFLT
  2
AcDbDictionaryWithDefault
  3
ObjectDBX Classes
 90
        0
 91
        1
280
     0
281
     0
  0
CLASS
  1
SORTENTSTABLE
  2
AcDbSortentsTable
  3
ObjectDBX Classes
 90
        0
 91
        0
280
     0
281
     0
  0
ENDSEC
  0
SECTION
  2
TABLES
  0
TABLE
  2
VPORT
  5
8
330
0
100
AcDbSymbolTable
 70
     3
  0
VPORT
  5
5554
330
8
100
AcDbSymbolTableRecord
100
AcDbViewportTableRecord
  2
*Active
 70
     0
 10
0.0
 20
0.0
 11
1.0
 21
1.0
 12
594.0000027660279
 22
420.0000019557776
 13
0.0
 23
0.0
 14
10.0
 24
10.0
 15
10.0
 25
10.0
 16
0.0
 26
0.0
 36
1.0
 17
0.0
 27
0.0
 37
0.0
 40
846.4152943004865
 41
1.458912768647282
 42
50.0
 43
0.0
 44
0.0
 50
0.0
 51
0.0
 71
     0
 72
   100
 73
     1
 74
     3
 75
     0
 76
     0
 77
     0
 78
     0
281
     0
 65
     1
110
0.0
120
0.0
130
0.0
111
1.0
121
0.0
131
0.0
112
0.0
122
1.0
132
0.0
 79
     0
146
0.0
  0
ENDTAB
  0
TABLE
  2
LTYPE
  5
5
330
0
100
AcDbSymbolTable
 70
     5
  0
LTYPE
  5
14
330
5
100
AcDbSymbolTableRecord
100
AcDbLinetypeTableRecord
  2
ByBlock
 70
     0
  3

 72
    65
 73
     0
 40
0.0
  0
LTYPE
  5
15
330
5
100
AcDbSymbolTableRecord
100
AcDbLinetypeTableRecord
  2
ByLayer
 70
     0
  3

 72
    65
 73
     0
 40
0.0
  0
LTYPE
  5
16
330
5
100
AcDbSymbolTableRecord
100
AcDbLinetypeTableRecord
  2
Continuous
 70
     0
  3
Solid line
 72
    65
 73
     0
 40
0.0
  0
LTYPE
  5
2F
330
5
100
AcDbSymbolTableRecord
100
AcDbLinetypeTableRecord
  2
ACAD_ISO04W100
 70
     0
  3
ISO long-dash dot ____ . ____ . ____ . ____ . _
 72
    65
 73
     4
 40
30.0
 49
24.0
 74
     0
 49
-3.0
 74
     0
 49
0.0
 74
     0
 49
-3.0
 74
     0
  0
LTYPE
  5
31
330
5
100
AcDbSymbolTableRecord
100
AcDbLinetypeTableRecord
  2
HIDDEN2
 70
     0
  3
Hidden (.5x) _ _ _ _ _ _ _ _ _ _ _ _ _ _ _ _ _
 72
    65
 73
     2
 40
4.762499999999999
 49
3.174999999999999
 74
     0
 49
-1.587499999999999
 74
     0
  0
LTYPE
  5
2D8
330
5
100
AcDbSymbolTableRecord
100
AcDbLinetypeTableRecord
  2
ACAD_ISO05W100
 70
     0
  3
ISO long-dash double-dot ____ .. ____ .. ____ .
 72
    65
 73
     6
 40
33.0
 49
24.0
 74
     0
 49
-3.0
 74
     0
 49
0.0
 74
     0
 49
-3.0
 74
     0
 49
0.0
 74
     0
 49
-3.0
 74
     0
  0
LTYPE
  5
6B3
330
5
100
AcDbSymbolTableRecord
100
AcDbLinetypeTableRecord
  2
HIDS
 70
     0
  3
(破線１)- - - - - - - - - - - - - - - - - - - -
 72
    65
 73
     2
 40
2.5
 49
1.5
 74
     0
 49
-1.0
 74
     0
  0
ENDTAB
  0
TABLE
  2
LAYER
  5
2
102
{ACAD_XDICTIONARY
360
307
102
}
330
0
100
AcDbSymbolTable
 70
    15
  0
LAYER
  5
10
330
2
100
AcDbSymbolTableRecord
100
AcDbLayerTableRecord
  2
0
 70
     0
 62
     7
  6
Continuous
370
    20
390
F
  0
LAYER
  5
2C
330
2
100
AcDbSymbolTableRecord
100
AcDbLayerTableRecord
  2
kijun
 70
     0
 62
     1
  6
ACAD_ISO04W100
370
     9
390
F
  0
LAYER
  5
32
330
2
100
AcDbSymbolTableRecord
100
AcDbLayerTableRecord
  2
Defpoints
 70
     0
 62
     5
  6
Continuous
290
     0
370
    20
390
F
  0
LAYER
  5
33
330
2
100
AcDbSymbolTableRecord
100
AcDbLayerTableRecord
  2
hojo
 70
     0
 62
     6
  6
Continuous
290
     0
370
     9
390
F
  0
LAYER
  5
34
330
2
100
AcDbSymbolTableRecord
100
AcDbLayerTableRecord
  2
hatch
 70
     0
 62
     8
  6
Continuous
370
     9
390
F
  0
LAYER
  5
35
330
2
100
AcDbSymbolTableRecord
100
AcDbLayerTableRecord
  2
moji
 70
     0
 62
     7
  6
Continuous
370
    18
390
F
  0
LAYER
  5
36
330
2
100
AcDbSymbolTableRecord
100
AcDbLayerTableRecord
  2
size
 70
     0
 62
     7
  6
Continuous
370
    20
390
F
  0
LAYER
  5
37
330
2
100
AcDbSymbolTableRecord
100
AcDbLayerTableRecord
  2
sunpo
 70
     0
 62
     3
  6
Continuous
370
    15
390
F
  0
LAYER
  5
2D9
330
2
100
AcDbSymbolTableRecord
100
AcDbLayerTableRecord
  2
2tensasen
 70
     0
 62
   131
  6
ACAD_ISO05W100
370
     9
390
F
  0
LAYER
  5
2DA
330
2
100
AcDbSymbolTableRecord
100
AcDbLayerTableRecord
  2
hasen
 70
     0
 62
    41
  6
HIDDEN2
370
     9
390
F
  0
LAYER
  5
2ED
330
2
100
AcDbSymbolTableRecord
100
AcDbLayerTableRecord
  2
saisen
 70
     0
 62
   134
  6
Continuous
370
     9
390
F
  0
LAYER
  5
40F
330
2
100
AcDbSymbolTableRecord
100
AcDbLayerTableRecord
  2
wakumoji
 70
     0
 62
     7
  6
Continuous
370
    20
390
F
  0
LAYER
  5
1A62
330
2
100
AcDbSymbolTableRecord
100
AcDbLayerTableRecord
  2
sunpo2
 70
     0
 62
   111
  6
Continuous
370
    15
390
F
  0
LAYER
  5
30E1
330
2
100
AcDbSymbolTableRecord
100
AcDbLayerTableRecord
  2
塗板･掲示板
 70
     0
 62
     7
  6
Continuous
370
    -3
390
F
  0
LAYER
  5
30E2
330
2
100
AcDbSymbolTableRecord
100
AcDbLayerTableRecord
  2
塗板・掲示板
 70
     0
 62
     7
  6
Continuous
370
    -3
390
F
  0
ENDTAB
  0
TABLE
  2
STYLE
  5
3
330
0
100
AcDbSymbolTable
 70
     4
  0
STYLE
  5
11
330
3
100
AcDbSymbolTableRecord
100
AcDbTextStyleTableRecord
  2
Standard
 70
     0
 40
0.0
 41
1.0
 50
0.0
 71
     0
 42
2.5
  3
txt.shx
  4
bigfont.shx
  0
STYLE
  5
3D
330
3
100
AcDbSymbolTableRecord
100
AcDbTextStyleTableRecord
  2
kanji
 70
     0
 40
0.0
 41
1.0
 50
0.0
 71
     0
 42
2.5
  3
romans.shx
  4
extfont.shx
  0
STYLE
  5
41
330
3
100
AcDbSymbolTableRecord
100
AcDbTextStyleTableRecord
  2
gothic
 70
     0
 40
0.0
 41
1.0
 50
0.0
 71
     0
 42
2.5
  3
MS PGothic.ttf
  4

1001
ACAD
1000
MS PGothic
1071
    32818
  0
STYLE
  5
305
330
3
100
AcDbSymbolTableRecord
100
AcDbTextStyleTableRecord
  2
Std
 70
     0
 40
0.0
 41
0.8
 50
0.0
 71
     0
 42
2.5
  3
romans.shx
  4
bigfont.shx
  0
ENDTAB
  0
TABLE
  2
VIEW
  5
6
330
0
100
AcDbSymbolTable
 70
     0
  0
ENDTAB
  0
TABLE
  2
UCS
  5
7
330
0
100
AcDbSymbolTable
 70
     0
  0
ENDTAB
  0
TABLE
  2
APPID
  5
9
330
0
100
AcDbSymbolTable
 70
     1
  0
APPID
  5
12
330
9
100
AcDbSymbolTableRecord
100
AcDbRegAppTableRecord
  2
ACAD
 70
     0
  0
ENDTAB
  0
TABLE
  2
DIMSTYLE
  5
A
330
0
100
AcDbSymbolTable
 70
     4
100
AcDbDimStyleTable
 71
     3
340
30E5
340
306
340
410
  0
DIMSTYLE
105
306
102
{ACAD_REACTORS
330
3870
330
3858
330
3857
330
384D
330
3848
330
3835
330
382E
330
382D
330
3829
330
381E
330
381C
330
37DD
330
37DB
330
37DA
330
37D8
330
37A7
330
37A6
330
37A5
330
374E
330
3735
330
36D8
330
36BF
330
36BE
330
36BB
330
36AA
330
36A2
330
36A1
330
369F
330
369E
330
369D
330
369B
330
369A
102
}
330
A
100
AcDbSymbolTableRecord
100
AcDbDimStyleTableRecord
  2
dim2
 70
     0
 40
2.0
 41
3.5
 42
2.0
 43
8.0
 44
1.0
 73
     0
 74
     0
 77
     1
 78
     8
140
3.0
141
0.0
143
0.03937007874016
147
0.6
171
     3
172
     1
176
     3
177
     3
178
     2
271
     1
272
     1
274
     3
277
     6
279
     2
283
     0
284
     8
340
305
341
46
342
46
371
     9
372
     9
  0
DIMSTYLE
105
410
330
A
100
AcDbSymbolTableRecord
100
AcDbDimStyleTableRecord
  2
Std2
 70
     0
 40
2.0
 41
2.299999999999999
 42
2.0
 43
8.0
 44
1.0
 73
     0
 74
     0
 77
     1
 78
     8
140
3.0
141
0.0
143
0.03937007874016
147
1.0
171
     3
172
     1
176
     3
177
     3
178
     2
271
     1
272
     1
274
     3
277
     6
279
     2
283
     0
284
     8
340
305
341
409
342
409
371
     9
372
     9
  0
DIMSTYLE
105
30E5
102
{ACAD_REACTORS
330
3653
330
3667
330
3649
330
366B
330
3660
330
366C
330
52B7
102
}
330
A
100
AcDbSymbolTableRecord
100
AcDbDimStyleTableRecord
  2
dim2_20
 70
     0
 40
2.0
 41
3.0
 42
2.0
 43
8.0
 44
1.0
 73
     0
 74
     0
 77
     1
 78
     8
140
2.5
141
0.0
143
0.03937007874016
144
10.0
147
0.5
171
     3
172
     1
176
     3
177
     3
178
     2
271
     1
272
     1
274
     3
277
     6
279
     2
283
     0
284
     8
340
305
341
46
342
46
371
     9
372
     9
  0
DIMSTYLE
105
30E8
102
{ACAD_REACTORS
330
4BB9
102
}
330
A
100
AcDbSymbolTableRecord
100
AcDbDimStyleTableRecord
  2
STD2$7
 70
     0
 40
2.0
 41
2.299999999999999
 42
1.0
 43
5.0
 44
1.0
 73
     0
 74
     0
 77
     1
 78
     8
140
2.5
141
0.0
145
0.9
147
0.5
172
     1
176
     3
177
     3
178
     2
271
     2
272
     2
277
     6
279
     2
284
     8
285
     8
286
     8
340
305
341
409
342
46
371
    15
372
    15
  0
ENDTAB
  0
TABLE
  2
BLOCK_RECORD
  5
1
330
0
100
AcDbSymbolTable
 70
    44
  0
BLOCK_RECORD
  5
1F
330
1
100
AcDbSymbolTableRecord
100
AcDbBlockTableRecord
  2
*Model_Space
340
22
  0
BLOCK_RECORD
  5
1B
330
1
100
AcDbSymbolTableRecord
100
AcDbBlockTableRecord
  2
*Paper_Space
340
1E
  0
BLOCK_RECORD
  5
23
330
1
100
AcDbSymbolTableRecord
100
AcDbBlockTableRecord
  2
*Paper_Space0
340
26
  0
BLOCK_RECORD
  5
46
330
1
100
AcDbSymbolTableRecord
100
AcDbBlockTableRecord
  2
_DotSmall
340
0
102
{BLKREFS
331
3855
331
518D
331
518E
331
51C3
331
51C4
331
52A9
331
52AA
331
52B2
331
52B3
331
52C7
331
52C8
331
52D1
331
52D2
331
52DA
331
52DB
331
5420
331
5421
331
542C
331
542D
331
5434
331
5435
331
543C
331
543D
331
5443
331
544C
331
544D
331
5454
331
5455
331
545D
331
545E
331
5466
331
5467
331
546F
331
5470
331
5478
331
5479
331
5481
331
5482
331
548B
331
548C
331
5493
331
5494
331
549C
331
549D
331
54A6
331
54A7
331
54AE
331
54AF
331
54B7
331
54B8
331
54C0
331
54C1
331
54D2
331
54D3
331
54DB
331
54DC
331
54E4
331
54E5
331
54ED
331
54EE
331
54F7
331
54F8
331
5500
331
5501
331
5508
331
5509
331
5514
331
5515
331
551C
331
551D
331
5525
331
5526
331
552E
331
552F
331
5537
331
5538
331
554D
331
554E
102
}
  0
BLOCK_RECORD
  5
409
330
1
100
AcDbSymbolTableRecord
100
AcDbBlockTableRecord
  2
ARRI
340
0
  0
BLOCK_RECORD
  5
16A8
330
1
100
AcDbSymbolTableRecord
100
AcDbBlockTableRecord
  2
二葉ﾛｺﾞ
340
0
310
2800000020000000200000000100080000000000000400000000000000000000000000000000000000000000000080000080000000808000800000008000800080800000C0C0C000C0DCC000F0CAA6000020400000206000002080000020A0000020C0000020E00000400000004020000040400000406000004080000040A0
310
000040C0000040E00000600000006020000060400000606000006080000060A0000060C0000060E00000800000008020000080400000806000008080000080A0000080C0000080E00000A0000000A0200000A0400000A0600000A0800000A0A00000A0C00000A0E00000C0000000C0200000C0400000C0600000C0800000C0
310
A00000C0C00000C0E00000E0000000E0200000E0400000E0600000E0800000E0A00000E0C00000E0E00040000000400020004000400040006000400080004000A0004000C0004000E00040200000402020004020400040206000402080004020A0004020C0004020E000404000004040200040404000404060004040800040
310
40A0004040C0004040E00040600000406020004060400040606000406080004060A0004060C0004060E00040800000408020004080400040806000408080004080A0004080C0004080E00040A0000040A0200040A0400040A0600040A0800040A0A00040A0C00040A0E00040C0000040C0200040C0400040C0600040C08000
310
40C0A00040C0C00040C0E00040E0000040E0200040E0400040E0600040E0800040E0A00040E0C00040E0E00080000000800020008000400080006000800080008000A0008000C0008000E00080200000802020008020400080206000802080008020A0008020C0008020E00080400000804020008040400080406000804080
310
008040A0008040C0008040E00080600000806020008060400080606000806080008060A0008060C0008060E00080800000808020008080400080806000808080008080A0008080C0008080E00080A0000080A0200080A0400080A0600080A0800080A0A00080A0C00080A0E00080C0000080C0200080C0400080C0600080C0
310
800080C0A00080C0C00080C0E00080E0000080E0200080E0400080E0600080E0800080E0A00080E0C00080E0E000C0000000C0002000C0004000C0006000C0008000C000A000C000C000C000E000C0200000C0202000C0204000C0206000C0208000C020A000C020C000C020E000C0400000C0402000C0404000C0406000C0
310
408000C040A000C040C000C040E000C0600000C0602000C0604000C0606000C0608000C060A000C060C000C060E000C0800000C0802000C0804000C0806000C0808000C080A000C080C000C080E000C0A00000C0A02000C0A04000C0A06000C0A08000C0A0A000C0A0C000C0A0E000C0C00000C0C02000C0C04000C0C06000
310
C0C08000C0C0A000F0FBFF00A4A0A000808080000000FF0000FF000000FFFF00FF000000FF00FF00FFFF0000FFFFFF000000000000000000000000000000000000000000000000000000000000000000000000000000000000000000000000FFFFFF000000000000000000000000000000000000000000000000FFFFFFFFFF
310
000000FFFFFF0000000000000000000000000000000000000000FF0000FFFF000000FFFFFF00FFFF0000000000000000000000000000000000FF000000FFFF000000FFFFFFFF0000FFFF00000000000000000000000000FFFFFFFF000000FFFF0000FFFFFFFF00FFFF00FF0000000000000000000000FF00FFFFFFFF0000FF
310
FFFF00FFFFFF00FFFFFFFFFFFF000000000000000000FF0000FFFFFFFFFFFFFFFFFF00FFFF00FFFFFFFFFFFF00FF00000000000000FF000000FFFF00FFFF0000000000000000FFFFFFFFFFFF00FF00000000000000FF000000FFFFFF0000000000000000000000FFFFFF000000FFFF0000000000FF000000FFFFFFFF000000
310
000000000000000000000000FFFFFFFF0000000000FF00FFFFFFFFFF000000000000000000000000000000FFFFFFFFFFFF00000000FFFFFFFFFFFFFF000000000000000000000000000000FFFFFFFFFFFF000000FF00000000FFFF000000000000000000000000000000000000000000FF000000FF00000000000000000000
310
000000000000000000000000000000000000FF0000FF0000FFFFFFFFFFFFFFFFFFFFFFFFFFFFFFFFFFFFFFFFFFFFFFFFFF00FF0000FF00FFFFFFFFFFFFFFFFFFFFFFFFFFFFFFFFFFFFFFFFFFFFFFFFFFFF00FF0000FF00FFFFFFFFFFFFFFFFFFFFFFFFFFFFFFFFFFFFFFFFFFFFFFFFFFFF00FF0000FF00FFFFFFFFFFFFFFFF
310
FFFFFFFF0000FFFFFFFFFFFFFFFFFFFFFFFFFF00000000FF00FFFFFFFFFFFFFFFFFFFFFF000000FFFFFFFFFFFFFFFFFFFF00FF00000000FF00FFFFFFFFFFFFFFFFFFFF0000000000FFFFFFFFFFFFFFFFFF00FF00000000FF00FFFFFFFFFFFFFFFFFFFF0000000000FFFFFFFFFFFFFFFFFFFF000000000000FF00FFFFFFFFFF
310
FFFFFF000000000000FFFFFFFFFFFFFFFF00FF000000000000FF00FFFFFFFFFFFFFFFF00000000000000FFFFFFFFFFFFFFFF0000000000000000FF00FFFFFFFFFFFF000000000000000000FFFFFFFFFF00FF000000000000000000FF00FFFFFFFFFF000000000000000000FFFFFFFF00FF0000000000000000000000FFFFFF
310
FFFF0000000000000000000000FFFF00FF0000000000000000000000000000FF0000000000000000000000000000FFFF00000000000000000000000000000000FF0000000000000000000000FFFF00000000000000000000000000000000000000FFFFFFFFFF000000FFFFFF00000000000000000000000000000000000000
310
00000000000000FFFFFF00000000000000000000000000000000000000000000000000000000000000000000000000000000000000000000
102
{BLKREFS
331
1CF0
102
}
1001
ACAD
1000
DesignCenter Data
1002
{
1070
     1
1070
     4
1002
}
  0
BLOCK_RECORD
  5
2D20
330
1
100
AcDbSymbolTableRecord
100
AcDbBlockTableRecord
  2
_None
340
0
  0
BLOCK_RECORD
  5
3B58
330
1
100
AcDbSymbolTableRecord
100
AcDbBlockTableRecord
  2
*D5
340
0
  0
BLOCK_RECORD
  5
3B64
330
1
100
AcDbSymbolTableRecord
100
AcDbBlockTableRecord
  2
*D6
340
0
  0
BLOCK_RECORD
  5
3B7C
330
1
100
AcDbSymbolTableRecord
100
AcDbBlockTableRecord
  2
*D7
340
0
  0
BLOCK_RECORD
  5
3B88
330
1
100
AcDbSymbolTableRecord
100
AcDbBlockTableRecord
  2
*D8
340
0
  0
BLOCK_RECORD
  5
3B94
330
1
100
AcDbSymbolTableRecord
100
AcDbBlockTableRecord
  2
*D9
340
0
  0
BLOCK_RECORD
  5
3BA0
330
1
100
AcDbSymbolTableRecord
100
AcDbBlockTableRecord
  2
*D10
340
0
  0
BLOCK_RECORD
  5
3BAC
330
1
100
AcDbSymbolTableRecord
100
AcDbBlockTableRecord
  2
*D11
340
0
  0
BLOCK_RECORD
  5
3BB9
330
1
100
AcDbSymbolTableRecord
100
AcDbBlockTableRecord
  2
*D12
340
0
  0
BLOCK_RECORD
  5
3BC5
330
1
100
AcDbSymbolTableRecord
100
AcDbBlockTableRecord
  2
*D13
340
0
  0
BLOCK_RECORD
  5
3BD1
330
1
100
AcDbSymbolTableRecord
100
AcDbBlockTableRecord
  2
*D14
340
0
  0
BLOCK_RECORD
  5
3BDD
330
1
100
AcDbSymbolTableRecord
100
AcDbBlockTableRecord
  2
*D15
340
0
  0
BLOCK_RECORD
  5
3BE9
330
1
100
AcDbSymbolTableRecord
100
AcDbBlockTableRecord
  2
*D16
340
0
  0
BLOCK_RECORD
  5
3BF5
330
1
100
AcDbSymbolTableRecord
100
AcDbBlockTableRecord
  2
*D17
340
0
  0
BLOCK_RECORD
  5
3C01
330
1
100
AcDbSymbolTableRecord
100
AcDbBlockTableRecord
  2
*D18
340
0
  0
BLOCK_RECORD
  5
3C0D
330
1
100
AcDbSymbolTableRecord
100
AcDbBlockTableRecord
  2
*D19
340
0
  0
BLOCK_RECORD
  5
3C19
330
1
100
AcDbSymbolTableRecord
100
AcDbBlockTableRecord
  2
*D20
340
0
  0
BLOCK_RECORD
  5
3C25
330
1
100
AcDbSymbolTableRecord
100
AcDbBlockTableRecord
  2
*D21
340
0
  0
BLOCK_RECORD
  5
3C31
330
1
100
AcDbSymbolTableRecord
100
AcDbBlockTableRecord
  2
*D22
340
0
  0
BLOCK_RECORD
  5
3C3B
330
1
100
AcDbSymbolTableRecord
100
AcDbBlockTableRecord
  2
*D23
340
0
  0
BLOCK_RECORD
  5
3C47
330
1
100
AcDbSymbolTableRecord
100
AcDbBlockTableRecord
  2
*D24
340
0
  0
BLOCK_RECORD
  5
3C53
330
1
100
AcDbSymbolTableRecord
100
AcDbBlockTableRecord
  2
*D25
340
0
  0
BLOCK_RECORD
  5
3C5F
330
1
100
AcDbSymbolTableRecord
100
AcDbBlockTableRecord
  2
*D26
340
0
  0
BLOCK_RECORD
  5
3C6B
330
1
100
AcDbSymbolTableRecord
100
AcDbBlockTableRecord
  2
*D27
340
0
  0
BLOCK_RECORD
  5
3C77
330
1
100
AcDbSymbolTableRecord
100
AcDbBlockTableRecord
  2
*D28
340
0
  0
BLOCK_RECORD
  5
3C83
330
1
100
AcDbSymbolTableRecord
100
AcDbBlockTableRecord
  2
*D29
340
0
  0
BLOCK_RECORD
  5
3C8F
330
1
100
AcDbSymbolTableRecord
100
AcDbBlockTableRecord
  2
*D30
340
0
  0
BLOCK_RECORD
  5
3C9B
330
1
100
AcDbSymbolTableRecord
100
AcDbBlockTableRecord
  2
*D31
340
0
  0
BLOCK_RECORD
  5
3D52
330
1
100
AcDbSymbolTableRecord
100
AcDbBlockTableRecord
  2
*D32
340
0
  0
BLOCK_RECORD
  5
3D5E
330
1
100
AcDbSymbolTableRecord
100
AcDbBlockTableRecord
  2
*D33
340
0
  0
BLOCK_RECORD
  5
3D6A
330
1
100
AcDbSymbolTableRecord
100
AcDbBlockTableRecord
  2
*D34
340
0
  0
BLOCK_RECORD
  5
3D76
330
1
100
AcDbSymbolTableRecord
100
AcDbBlockTableRecord
  2
*D35
340
0
  0
BLOCK_RECORD
  5
3D82
330
1
100
AcDbSymbolTableRecord
100
AcDbBlockTableRecord
  2
*D36
340
0
  0
BLOCK_RECORD
  5
3D8E
330
1
100
AcDbSymbolTableRecord
100
AcDbBlockTableRecord
  2
*D37
340
0
  0
BLOCK_RECORD
  5
3D9A
330
1
100
AcDbSymbolTableRecord
100
AcDbBlockTableRecord
  2
*D38
340
0
  0
BLOCK_RECORD
  5
3DA6
330
1
100
AcDbSymbolTableRecord
100
AcDbBlockTableRecord
  2
*D39
340
0
  0
BLOCK_RECORD
  5
3DAF
330
1
100
AcDbSymbolTableRecord
100
AcDbBlockTableRecord
  2
*D40
340
0
  0
BLOCK_RECORD
  5
3DBB
330
1
100
AcDbSymbolTableRecord
100
AcDbBlockTableRecord
  2
*D41
340
0
  0
BLOCK_RECORD
  5
3DC7
330
1
100
AcDbSymbolTableRecord
100
AcDbBlockTableRecord
  2
*D42
340
0
  0
BLOCK_RECORD
  5
52B8
330
1
100
AcDbSymbolTableRecord
100
AcDbBlockTableRecord
  2
*D43
340
0
  0
ENDTAB
  0
ENDSEC
  0
SECTION
  2
BLOCKS
  0
BLOCK
  5
20
330
1F
100
AcDbEntity
  8
0
100
AcDbBlockBegin
  2
*Model_Space
 70
     0
 10
0.0
 20
0.0
 30
0.0
  3
*Model_Space
  1

  0
ENDBLK
  5
21
330
1F
100
AcDbEntity
  8
0
100
AcDbBlockEnd
  0
BLOCK
  5
1C
330
1B
100
AcDbEntity
 67
     1
  8
0
100
AcDbBlockBegin
  2
*Paper_Space
 70
     0
 10
0.0
 20
0.0
 30
0.0
  3
*Paper_Space
  1

  0
ENDBLK
  5
1D
330
1B
100
AcDbEntity
 67
     1
  8
0
100
AcDbBlockEnd
  0
BLOCK
  5
24
330
23
100
AcDbEntity
  8
0
100
AcDbBlockBegin
  2
*Paper_Space0
 70
     0
 10
0.0
 20
0.0
 30
0.0
  3
*Paper_Space0
  1

  0
ENDBLK
  5
25
330
23
100
AcDbEntity
  8
0
100
AcDbBlockEnd
  0
BLOCK
  5
48
330
46
100
AcDbEntity
  8
0
100
AcDbBlockBegin
  2
_DotSmall
 70
     0
 10
0.0
 20
0.0
 30
0.0
  3
_DotSmall
  1

  0
LWPOLYLINE
  5
47
330
46
100
AcDbEntity
  8
0
  6
ByBlock
 62
     0
100
AcDbPolyline
 90
        2
 70
     1
 43
0.5
 10
-0.0625
 20
0.0
 42
1.0
 10
0.0625
 20
0.0
 42
1.0
  0
ENDBLK
  5
49
330
46
100
AcDbEntity
  8
0
100
AcDbBlockEnd
  0
BLOCK
  5
40A
330
409
100
AcDbEntity
  8
0
100
AcDbBlockBegin
  2
ARRI
 70
     0
 10
0.0
 20
0.0
 30
0.0
  3
ARRI
  1

  0
LINE
  5
40B
330
409
100
AcDbEntity
  8
0
  6
ByBlock
 62
     0
100
AcDbLine
 10
-0.9999999999995168
 20
-0.2125565616699987
 30
0.0
 11
0.0000000000005826
 21
0.0000000000000142
 31
0.0
  0
LINE
  5
40C
330
409
100
AcDbEntity
  8
0
  6
ByBlock
 62
     0
100
AcDbLine
 10
0.0000000000005826
 20
0.0000000000000142
 30
0.0
 11
-0.9999999999995168
 21
0.2125565616699276
 31
0.0
  0
LINE
  5
40D
330
409
100
AcDbEntity
  8
0
  6
ByBlock
 62
     0
100
AcDbLine
 10
0.0000000000004832
 20
0.0
 30
0.0
 11
-0.9999999999995168
 21
0.0000000000000284
 31
0.0
  0
ENDBLK
  5
40E
330
409
100
AcDbEntity
  8
0
100
AcDbBlockEnd
  0
BLOCK
  5
16A9
330
16A8
100
AcDbEntity
  8
0
100
AcDbBlockBegin
  2
二葉ﾛｺﾞ
 70
     0
 10
0.0
 20
0.0
 30
0.0
  3
二葉ﾛｺﾞ
  1

  0
HATCH
  5
16AA
330
16A8
100
AcDbEntity
  8
0
  6
ByBlock
 62
     0
370
     0
100
AcDbHatch
 10
0.0
 20
0.0
 30
0.0
210
0.0
220
0.0
230
1.0
  2
SOLID
 70
     1
 71
     0
 91
        2
 92
       16
 93
        3
 72
     1
 10
76.73769930424715
 20
-36.71304457298436
 11
79.78414802696352
 21
-29.1412168510102
 72
     1
 10
79.78414802696534
 20
-29.14121685100997
 11
66.50084414551566
 21
-28.19627637481938
 72
     1
 10
66.50084414551748
 20
-28.19627637481915
 11
76.73769930424715
 21
-36.71304457298379
 97
        0
 92
        1
 93
        8
 72
     1
 10
84.6811051822242
 20
-43.32270634133806
 11
82.15388156491099
 21
-49.6075448210006
 72
     1
 10
82.15388156491099
 20
-49.60754482100004
 11
59.39410431416582
 21
-29.26425597551384
 72
     1
 10
59.39410431417127
 20
-29.2642559755144
 11
62.12557287816162
 21
-22.47249630289525
 72
     1
 10
62.12557287815798
 20
-22.47249630289502
 11
92.63189340767349
 21
-23.55277981603967
 72
     1
 10
92.63189340767349
 20
-23.55277981604013
 11
90.10466979036028
 21
-29.83761829570267
 72
     1
 10
90.10466979035482
 20
-29.83761829570301
 11
84.56544840518654
 21
-29.45619700974067
 72
     1
 10
84.56544840519018
 20
-29.45619700973987
 11
80.41902990940617
 21
-39.76441486068234
 72
     1
 10
80.41902990940434
 20
-39.76441486068291
 11
84.6811051822242
 21
-43.32270634133749
 97
        0
 75
     0
 76
     1
 98
        1
 10
-710.8849522954551
 20
-714.907159621347
450
        0
451
        0
460
0.0
461
0.0
452
        1
462
1.0
453
        2
463
0.0
 63
     5
421
      255
463
1.0
 63
    51
421
 16777113
470
LINEAR
  0
HATCH
  5
16AB
330
16A8
100
AcDbEntity
  8
0
  6
ByBlock
 62
     0
370
     0
100
AcDbHatch
 10
0.0
 20
0.0
 30
0.0
210
0.0
220
0.0
230
1.0
  2
SOLID
 70
     1
 71
     0
 91
        3
 92
        1
 93
        1
 72
     4
 94
        3
 73
     0
 74
     0
 95
       29
 96
       25
 40
0.0
 40
0.0
 40
0.0
 40
0.0
 40
1.0
 40
1.0
 40
1.0
 40
2.0
 40
2.0
 40
2.0
 40
3.0
 40
3.0
 40
3.0
 40
4.0
 40
4.0
 40
4.0
 40
5.0
 40
5.0
 40
5.0
 40
6.0
 40
6.0
 40
6.0
 40
7.0
 40
7.0
 40
7.0
 40
8.0
 40
8.0
 40
8.0
 40
8.0
 10
64.57897302076526
 20
-69.57925551048436
 10
64.57897302076526
 20
-69.57925551048436
 10
52.10280579606297
 20
-79.93422822873879
 10
52.10280579606297
 20
-79.93422822873879
 10
52.10280579606297
 20
-79.93422822873879
 10
33.77243702746091
 20
-57.84132303280569
 10
33.77243702746091
 20
-57.84132303280569
 10
33.77243702746091
 20
-57.84132303280569
 10
45.66047723703195
 20
-47.97850681256806
 10
45.66047723703195
 20
-47.97850681256806
 10
49.97668972463362
 20
-44.39806828950224
 10
54.5660490686314
 20
-44.565401498828
 10
57.30982154507183
 20
-47.87269316549429
 10
59.98469211178417
 20
-51.09631822749872
 10
58.48607557533068
 20
-53.85485539887724
 10
57.76752708822641
 20
-55.20828576842075
 10
59.02990850563583
 20
-54.68167831554456
 10
59.66971195305632
 20
-54.48235493384709
 10
60.7327699887719
 20
-54.45282554396658
 10
62.78752336798607
 20
-54.35931580934379
 10
64.88411004953741
 20
-55.17383481356012
 10
66.53529510037697
 20
-57.16460784803349
 10
69.67525355771977
 20
-60.94929131777576
 10
68.86811690097056
 20
-66.02342481231914
 10
64.57897302076526
 20
-69.57925551048436
 97
        0
 92
       16
 93
        1
 72
     4
 94
        3
 73
     0
 74
     0
 95
       20
 96
       16
 40
0.0
 40
0.0
 40
0.0
 40
0.0
 40
1.0
 40
1.0
 40
1.0
 40
2.0
 40
2.0
 40
2.0
 40
3.0
 40
3.0
 40
3.0
 40
4.0
 40
4.0
 40
4.0
 40
5.0
 40
5.0
 40
5.0
 40
5.0
 10
54.74568619040656
 20
-61.26919304148657
 10
54.74568619040656
 20
-61.26919304148657
 10
49.0538962908522
 20
-65.98897385745863
 10
49.0538962908522
 20
-65.98897385745863
 10
49.0538962908522
 20
-65.98897385745863
 10
53.96069657607404
 20
-71.90469496360936
 10
53.96069657607404
 20
-71.90469496360936
 10
53.96069657607404
 20
-71.90469496360936
 10
59.6549472581155
 20
-67.18245336514724
 10
59.6549472581155
 20
-67.18245336514724
 10
61.44639691089469
 20
-65.69367995864945
 10
62.56605294387918
 20
-63.39038754793512
 10
60.70570138137918
 20
-61.14861469947323
 10
58.65833034963362
 20
-58.68291064441291
 10
56.14833220975197
 20
-60.10524292367847
 10
54.74568619040656
 20
-61.26919304148657
 97
        0
 92
       16
 93
        1
 72
     4
 94
        3
 73
     0
 74
     0
 95
       20
 96
       16
 40
0.0
 40
0.0
 40
0.0
 40
0.0
 40
1.0
 40
1.0
 40
1.0
 40
2.0
 40
2.0
 40
2.0
 40
3.0
 40
3.0
 40
3.0
 40
4.0
 40
4.0
 40
4.0
 40
5.0
 40
5.0
 40
5.0
 40
5.0
 10
52.53344273182847
 20
-53.0674050020524
 10
51.74353155250719
 20
-52.11262139590167
 10
49.99637598455411
 20
-50.86500467343069
 10
47.72507374621091
 20
-52.74996406083142
 10
47.72507374621091
 20
-52.74996406083142
 10
42.00621523926383
 20
-57.49435270170522
 10
42.00621523926383
 20
-57.49435270170522
 10
42.00621523926383
 20
-57.49435270170522
 10
46.44792763385703
 20
-62.84901540011708
 10
46.44792763385703
 20
-62.84901540011708
 10
46.44792763385703
 20
-62.84901540011708
 10
52.16924692329303
 20
-58.1046267592443
 10
52.16924692329303
 20
-58.1046267592443
 10
54.24368656243132
 20
-56.38207901618864
 10
53.53498120528638
 20
-54.27318842219086
 10
52.53344273182847
 20
-53.0674050020524
 97
        0
 75
     0
 76
     1
 98
        1
 10
-710.8849522954551
 20
-714.907159621347
450
        0
451
        0
460
0.0
461
0.0
452
        0
462
0.0
453
        2
463
0.0
 63
     5
421
      255
463
1.0
 63
    51
421
 16777113
470

  0
HATCH
  5
16AC
330
16A8
100
AcDbEntity
  8
0
  6
ByBlock
 62
     0
370
     0
100
AcDbHatch
 10
0.0
 20
0.0
 30
0.0
210
0.0
220
0.0
230
1.0
  2
SOLID
 70
     1
 71
     0
 91
        2
 92
        1
 93
        8
 72
     1
 10
29.27658741808591
 20
-89.607564197241
 11
26.4663738144136
 21
-84.81642068905648
 72
     1
 10
26.46637381441542
 20
-84.8164206890557
 11
15.61678381565434
 21
-87.21322283439292
 72
     1
 10
15.61678381565434
 20
-87.21322283439281
 11
15.08279401530671
 21
-92.73767952462106
 72
     1
 10
15.08279401530854
 20
-92.73767952462151
 11
8.465749899487491
 21
-94.19938432372862
 72
     1
 10
8.465749899482034
 20
-94.19938432372873
 11
12.41776657855007
 21
-63.92929891326241
 72
     1
 10
12.41776657855371
 20
-63.92929891326218
 11
19.5688004947242
 21
-62.35193733712117
 72
     1
 10
19.5688004947242
 20
-62.35193733712151
 11
35.89363153391059
 21
-88.14585939813332
 72
     1
 10
35.89363153391242
 20
-88.14585939813275
 11
29.27658741809137
 21
-89.60756419723987
 97
        0
 92
       16
 93
        3
 72
     1
 10
16.05726388137918
 20
-82.45160871608936
 11
24.02773836674715
 21
-80.69214923568257
 72
     1
 10
24.02773836674533
 20
-80.6921492356829
 11
17.30980216882744
 21
-69.19291265954223
 72
     1
 10
17.3098021688329
 20
-69.19291265954234
 11
16.05726388138282
 21
-82.45160871608993
 97
        0
 75
     0
 76
     1
 98
        1
 10
-710.8849522954551
 20
-714.907159621347
450
        0
451
        0
460
0.0
461
0.0
452
        0
462
0.0
453
        2
463
0.0
 63
     5
421
      255
463
1.0
 63
    51
421
 16777113
470

  0
HATCH
  5
16AD
330
16A8
100
AcDbEntity
  8
0
  6
ByBlock
 62
     0
370
     0
100
AcDbHatch
 10
0.0
 20
0.0
 30
0.0
210
0.0
220
0.0
230
1.0
  2
SOLID
 70
     1
 71
     0
 91
        1
 92
        3
 72
     0
 73
     1
 93
        8
 10
-27.98459073481536
 20
-65.15722937581142
 10
-18.55610262407572
 20
-67.39408065929456
 10
-23.94767705984123
 20
-90.11202460770642
 10
-17.53118671696029
 20
-91.63524896906585
 10
-12.14084267243743
 20
-68.91730502065297
 10
-2.712354561701431
 20
-71.15169552164502
 10
-1.477041751681099
 20
-65.93975820765741
 10
-26.74927792479503
 20
-59.94529206182358
 97
        0
 75
     2
 76
     1
 98
        1
 10
0.5032729572103563
 20
0.4066288986183509
450
        0
451
        0
460
0.0
461
0.0
452
        0
462
0.0
453
        0
470

  0
HATCH
  5
16AE
330
16A8
100
AcDbEntity
  8
0
  6
ByBlock
 62
     0
370
     0
100
AcDbHatch
 10
0.0
 20
0.0
 30
0.0
210
0.0
220
0.0
230
1.0
  2
SOLID
 70
     1
 71
     0
 91
        1
 92
        1
 93
        1
 72
     4
 94
        3
 73
     0
 74
     0
 95
       35
 96
       31
 40
0.0
 40
0.0
 40
0.0
 40
0.0
 40
1.0
 40
1.0
 40
1.0
 40
2.0
 40
2.0
 40
2.0
 40
3.0
 40
3.0
 40
3.0
 40
4.0
 40
4.0
 40
4.0
 40
5.0
 40
5.0
 40
5.0
 40
6.0
 40
6.0
 40
6.0
 40
7.0
 40
7.0
 40
7.0
 40
8.0
 40
8.0
 40
8.0
 40
9.0
 40
9.0
 40
9.0
 40
10.0
 40
10.0
 40
10.0
 40
10.0
 10
-47.53304683600435
 20
-67.45560022154575
 10
-49.14485936701203
 20
-69.33809882645642
 10
-52.52351372588782
 20
-71.09509752437372
 10
-56.78189782497248
 20
-67.44575709158585
 10
-59.10610688684937
 20
-65.45252327462151
 10
-61.03412996782572
 20
-61.87946709902667
 10
-58.07011745852651
 20
-58.42206770046437
 10
-58.07011745852651
 20
-58.42206770046437
 10
-46.33464576333972
 20
-44.73273470815297
 10
-46.33464576333972
 20
-44.73273470815297
 10
-46.33464576333972
 20
-44.73273470815297
 10
-51.31280874076947
 20
-40.46573787035595
 10
-51.31280874076947
 20
-40.46573787035595
 10
-51.31280874076947
 20
-40.46573787035595
 10
-62.78743749200839
 20
-53.85239461638718
 10
-62.78743749200839
 20
-53.85239461638718
 10
-68.92832019600246
 20
-61.01573244500776
 10
-64.98491625565112
 20
-67.60816873593069
 10
-60.17285609629652
 20
-71.73490097179456
 10
-54.11687038821401
 20
-76.92715202586157
 10
-47.48998314242817
 20
-77.42669087134823
 10
-42.32110952201765
 20
-71.39777377065297
 10
-42.32110952201765
 20
-71.39777377065297
 10
-30.84771116202137
 20
-58.00865624213168
 10
-30.84771116202137
 20
-58.00865624213168
 10
-30.84771116202137
 20
-58.00865624213168
 10
-35.79757514081939
 20
-53.7638064467443
 10
-35.79757514081939
 20
-53.7638064467443
 10
-35.79757514081939
 20
-53.7638064467443
 10
-47.53304683600435
 20
-67.45560022154575
 10
-47.53304683600435
 20
-67.45560022154575
 97
        0
 75
     2
 76
     1
 98
        1
 10
0.5032729572103563
 20
0.4066288986183509
450
        0
451
        0
460
0.0
461
0.0
452
        0
462
0.0
453
        0
470

  0
HATCH
  5
16AF
330
16A8
100
AcDbEntity
  8
0
  6
ByBlock
 62
     0
370
     0
100
AcDbHatch
 10
0.0
 20
0.0
 30
0.0
210
0.0
220
0.0
230
1.0
  2
SOLID
 70
     1
 71
     0
 91
        1
 92
        3
 72
     0
 73
     1
 93
       10
 10
-65.75760195753173
 20
-23.80377963002798
 10
-59.46538113040151
 20
-37.10923055388719
 10
-54.62502197241701
 20
-34.82070283811367
 10
-63.71884366450467
 20
-15.58722689565297
 10
-89.67025580488188
 20
-27.85914917367847
 10
-86.86742454868181
 20
-33.78717419228019
 10
-76.69085856095444
 20
-28.97388364168512
 10
-71.27098512655539
 20
-40.43620848047431
 10
-66.59549839540523
 20
-38.22642580438389
 10
-72.01414143855981
 20
-26.7641009655938
 97
        0
 75
     2
 76
     1
 98
        1
 10
0.5032729572103563
 20
0.4066288986183509
450
        0
451
        0
460
0.0
461
0.0
452
        0
462
0.0
453
        0
470

  0
HATCH
  5
16B0
330
16A8
100
AcDbEntity
  8
0
  6
ByBlock
 62
     0
370
     0
100
AcDbHatch
 10
0.0
 20
0.0
 30
0.0
210
0.0
220
0.0
230
1.0
  2
SOLID
 70
     1
 71
     0
 91
        1
 92
        1
 93
        1
 72
     4
 94
        3
 73
     0
 74
     0
 95
       41
 96
       37
 40
0.0
 40
0.0
 40
0.0
 40
0.0
 40
1.0
 40
1.0
 40
1.0
 40
2.0
 40
2.0
 40
2.0
 40
3.0
 40
3.0
 40
3.0
 40
4.0
 40
4.0
 40
4.0
 40
5.0
 40
5.0
 40
5.0
 40
6.0
 40
6.0
 40
6.0
 40
7.0
 40
7.0
 40
7.0
 40
8.0
 40
8.0
 40
8.0
 40
9.0
 40
9.0
 40
9.0
 40
10.0
 40
10.0
 40
10.0
 40
11.0
 40
11.0
 40
11.0
 40
12.0
 40
12.0
 40
12.0
 40
12.0
 10
92.32675637890134
 20
2.068887470666368
 10
92.54330523802854
 20
7.006447537010217
 10
89.35905269586147
 20
26.5672075506518
 10
84.30214467875158
 20
36.93694496384592
 10
76.89026781863322
 20
52.12858566635055
 10
62.69155285087435
 20
70.84283650340399
 10
52.19385474819318
 20
75.56753888435719
 10
48.08926955474089
 20
77.41312575191637
 10
46.59803536575418
 20
75.9440386053393
 10
45.61618315221676
 20
74.22395164477348
 10
19.70168274918797
 20
28.8926470037768
 10
7.653691677754977
 20
10.01967569611281
 10
4.907458418832902
 20
6.840344718929713
 10
2.550028793333694
 20
4.111336937431929
 10
0.0105012635740423
 20
3.701616652833763
 10
-2.743114342827539
 20
6.584423339962086
 10
-6.052866791986161
 20
10.05043547723892
 10
-41.08456632075467
 20
76.38697945355364
 10
-41.08456632075467
 20
76.38697945355364
 10
-42.52904564242817
 20
78.57584547847887
 10
-44.38693642243925
 20
79.73118285757152
 10
-47.64993400429012
 20
78.32730644698108
 10
-57.16701028466559
 20
74.23256438348892
 10
-70.9449314466201
 20
59.53431057024443
 10
-78.35311713300507
 20
47.83328982991747
 10
-80.90248779272588
 20
43.80621928490177
 10
-91.01876460944367
 20
21.83266203973892
 10
-90.9178725273523
 20
8.621951241747751
 10
-90.89326470245032
 20
5.213767492987813
 10
-90.38757390073625
 20
1.616103492491106
 10
-82.51183954123916
 20
-0.4386498867243063
 10
-82.51183954123916
 20
-0.4386498867243063
 10
87.31168166411771
 20
-2.195648584640593
 10
87.31168166411771
 20
-2.195648584640593
 10
89.73309163435443
 20
-1.89297233836146
 10
92.17418786451526
 20
-1.453722663881649
 10
92.32675637890134
 20
2.068887470666368
 97
        0
 75
     2
 76
     1
 98
        1
 10
0.5032729572103563
 20
0.4066288986183509
450
        0
451
        0
460
0.0
461
0.0
452
        0
462
0.0
453
        0
470

  0
CIRCLE
  5
16B1
330
16A8
100
AcDbEntity
  8
0
  6
ByBlock
 62
     0
370
    -2
100
AcDbCircle
 10
0.0
 20
0.0
 30
0.0
 40
103.5714285714286
  0
ENDBLK
  5
16B2
330
16A8
100
AcDbEntity
  8
0
100
AcDbBlockEnd
  0
BLOCK
  5
2D21
330
2D20
100
AcDbEntity
  8
0
100
AcDbBlockBegin
  2
_None
 70
     0
 10
0.0
 20
0.0
 30
0.0
  3
_None
  1

  0
ENDBLK
  5
2D22
330
2D20
100
AcDbEntity
  8
0
100
AcDbBlockEnd
  0
BLOCK
  5
3B62
330
3B58
100
AcDbEntity
  8
0
100
AcDbBlockBegin
  2
*D5
 70
     1
 10
0.0
 20
0.0
 30
0.0
  3
*D5
  1

  0
LINE
  5
51BF
330
3B58
100
AcDbEntity
  8
sunpo
 62
     3
370
     9
100
AcDbLine
 10
202.9014666477319
 20
322.1835589276255
 30
0.0
 11
202.9014666477319
 21
304.1835589276256
 31
0.0
  0
LINE
  5
51C0
330
3B58
100
AcDbEntity
  8
sunpo
 62
     3
370
     9
100
AcDbLine
 10
199.4014666477187
 20
322.1835589276255
 30
0.0
 11
199.4014666477187
 21
304.1835589276256
 31
0.0
  0
LINE
  5
51C1
330
3B58
100
AcDbEntity
  8
sunpo
 62
     3
370
     9
100
AcDbLine
 10
202.9014666477319
 20
306.1835589276256
 30
0.0
 11
199.4014666477187
 21
306.1835589276256
 31
0.0
  0
MTEXT
  5
51C2
330
3B58
100
AcDbEntity
  8
sunpo
 62
     2
100
AcDbMText
 10
194.4529571303719
 20
310.7260472181173
 30
0.0
 40
5.0
 41
0.0
 71
     5
 72
     1
  1
35
  7
Std
 73
     1
 44
1.0
  0
INSERT
  5
51C3
330
3B58
100
AcDbEntity
  8
sunpo
 62
     3
370
     9
100
AcDbBlockReference
  2
_DotSmall
 10
202.9014666477319
 20
306.1835589276256
 30
0.0
 41
6.0
 42
6.0
 43
6.0
  0
INSERT
  5
51C4
330
3B58
100
AcDbEntity
  8
sunpo
 62
     3
370
     9
100
AcDbBlockReference
  2
_DotSmall
 10
199.4014666477187
 20
306.1835589276256
 30
0.0
 41
6.0
 42
6.0
 43
6.0
 50
180.0
  0
POINT
  5
51C5
330
3B58
100
AcDbEntity
  8
Defpoints
 62
     0
100
AcDbPoint
 10
202.9014666477319
 20
326.1835589276255
 30
0.0
  0
POINT
  5
51C6
330
3B58
100
AcDbEntity
  8
Defpoints
 62
     0
100
AcDbPoint
 10
199.4014666477187
 20
326.1835589276255
 30
0.0
  0
POINT
  5
51C7
330
3B58
100
AcDbEntity
  8
Defpoints
 62
     0
100
AcDbPoint
 10
199.4014666477187
 20
306.1835589276256
 30
0.0
  0
ENDBLK
  5
3B63
330
3B58
100
AcDbEntity
  8
0
100
AcDbBlockEnd
  0
BLOCK
  5
3B6E
330
3B64
100
AcDbEntity
  8
0
100
AcDbBlockBegin
  2
*D6
 70
     1
 10
0.0
 20
0.0
 30
0.0
  3
*D6
  1

  0
LINE
  5
52D7
330
3B64
100
AcDbEntity
  8
sunpo
 62
     3
370
     9
100
AcDbLine
 10
202.9014666477319
 20
322.1835589276255
 30
0.0
 11
202.9014666477319
 21
304.1835589276256
 31
0.0
  0
LINE
  5
52D8
330
3B64
100
AcDbEntity
  8
sunpo
 62
     3
370
     9
100
AcDbLine
 10
562.9014666477173
 20
322.1835589276255
 30
0.0
 11
562.9014666477173
 21
304.1835589276256
 31
0.0
  0
LINE
  5
52D9
330
3B64
100
AcDbEntity
  8
sunpo
 62
     3
370
     9
100
AcDbLine
 10
202.9014666477319
 20
306.1835589276256
 30
0.0
 11
562.9014666477173
 21
306.1835589276256
 31
0.0
  0
INSERT
  5
52DA
330
3B64
100
AcDbEntity
  8
sunpo
 62
     3
370
     9
100
AcDbBlockReference
  2
_DotSmall
 10
202.9014666477319
 20
306.1835589276256
 30
0.0
 41
6.0
 42
6.0
 43
6.0
 50
180.0
  0
INSERT
  5
52DB
330
3B64
100
AcDbEntity
  8
sunpo
 62
     3
370
     9
100
AcDbBlockReference
  2
_DotSmall
 10
562.9014666477173
 20
306.1835589276256
 30
0.0
 41
6.0
 42
6.0
 43
6.0
  0
MTEXT
  5
52DC
330
3B64
100
AcDbEntity
  8
sunpo
 62
     2
100
AcDbMText
 10
382.9014666477247
 20
309.6835589276255
 30
0.0
 40
5.0
 41
0.0
 71
     5
 72
     1
  1
W
  7
Std
 73
     1
 44
1.0
  0
POINT
  5
52DD
330
3B64
100
AcDbEntity
  8
Defpoints
 62
     0
100
AcDbPoint
 10
202.9014666477319
 20
326.1835589276255
 30
0.0
  0
POINT
  5
52DE
330
3B64
100
AcDbEntity
  8
Defpoints
 62
     0
100
AcDbPoint
 10
562.9014666477173
 20
326.1835589276255
 30
0.0
  0
POINT
  5
52DF
330
3B64
100
AcDbEntity
  8
Defpoints
 62
     0
100
AcDbPoint
 10
562.9014666477173
 20
306.1835589276256
 30
0.0
  0
ENDBLK
  5
3B6F
330
3B64
100
AcDbEntity
  8
0
100
AcDbBlockEnd
  0
BLOCK
  5
3B86
330
3B7C
100
AcDbEntity
  8
0
100
AcDbBlockBegin
  2
*D7
 70
     1
 10
0.0
 20
0.0
 30
0.0
  3
*D7
  1

  0
LINE
  5
52AE
330
3B7C
100
AcDbEntity
  8
sunpo
 62
     3
370
     9
100
AcDbLine
 10
195.4014666477217
 20
149.1835589276451
 30
0.0
 11
183.4014666477217
 21
149.1835589276451
 31
0.0
  0
LINE
  5
52AF
330
3B7C
100
AcDbEntity
  8
sunpo
 62
     3
370
     9
100
AcDbLine
 10
195.4014666477217
 20
152.6835589276196
 30
0.0
 11
183.4014666477217
 21
152.6835589276197
 31
0.0
  0
LINE
  5
52B0
330
3B7C
100
AcDbEntity
  8
sunpo
 62
     3
370
     9
100
AcDbLine
 10
185.4014666477217
 20
149.1835589276451
 30
0.0
 11
185.4014666477217
 21
152.6835589276197
 31
0.0
  0
MTEXT
  5
52B1
330
3B7C
100
AcDbEntity
  8
sunpo
 62
     2
100
AcDbMText
 10
179.9573631779294
 20
144.9849011629448
 30
0.0
 40
5.0
 41
0.0
 71
     5
 72
     1
  1
35
  7
Std
 11
0.0000000000000001
 21
1.0
 31
0.0
 73
     1
 44
1.0
  0
INSERT
  5
52B2
330
3B7C
100
AcDbEntity
  8
sunpo
 62
     3
370
     9
100
AcDbBlockReference
  2
_DotSmall
 10
185.4014666477217
 20
149.1835589276451
 30
0.0
 41
6.0
 42
6.0
 43
6.0
 50
270.0
  0
INSERT
  5
52B3
330
3B7C
100
AcDbEntity
  8
sunpo
 62
     3
370
     9
100
AcDbBlockReference
  2
_DotSmall
 10
185.4014666477217
 20
152.6835589276197
 30
0.0
 41
6.0
 42
6.0
 43
6.0
 50
90.0
  0
POINT
  5
52B4
330
3B7C
100
AcDbEntity
  8
Defpoints
 62
     0
100
AcDbPoint
 10
199.4014666477217
 20
149.1835589276451
 30
0.0
  0
POINT
  5
52B5
330
3B7C
100
AcDbEntity
  8
Defpoints
 62
     0
100
AcDbPoint
 10
199.4014666477217
 20
152.6835589276196
 30
0.0
  0
POINT
  5
52B6
330
3B7C
100
AcDbEntity
  8
Defpoints
 62
     0
100
AcDbPoint
 10
185.4014666477217
 20
152.6835589276197
 30
0.0
  0
ENDBLK
  5
3B87
330
3B7C
100
AcDbEntity
  8
0
100
AcDbBlockEnd
  0
BLOCK
  5
3B92
330
3B88
100
AcDbEntity
  8
0
100
AcDbBlockBegin
  2
*D8
 70
     1
 10
0.0
 20
0.0
 30
0.0
  3
*D8
  1

  0
LINE
  5
52A5
330
3B88
100
AcDbEntity
  8
sunpo
 62
     3
370
     9
100
AcDbLine
 10
199.4014666477217
 20
332.6835589276305
 30
0.0
 11
183.4014666477217
 21
332.6835589276305
 31
0.0
  0
LINE
  5
52A6
330
3B88
100
AcDbEntity
  8
sunpo
 62
     3
370
     9
100
AcDbLine
 10
199.4014666477217
 20
336.1835589276196
 30
0.0
 11
183.4014666477217
 21
336.1835589276196
 31
0.0
  0
LINE
  5
52A7
330
3B88
100
AcDbEntity
  8
sunpo
 62
     3
370
     9
100
AcDbLine
 10
185.4014666477217
 20
332.6835589276305
 30
0.0
 11
185.4014666477217
 21
336.1835589276196
 31
0.0
  0
MTEXT
  5
52A8
330
3B88
100
AcDbEntity
  8
sunpo
 62
     2
100
AcDbMText
 10
181.2581977915561
 20
326.7718374772065
 30
0.0
 40
5.0
 41
0.0
 71
     5
 72
     1
  1
35
  7
Std
 11
0.0000000000000001
 21
1.0
 31
0.0
 73
     1
 44
1.0
  0
INSERT
  5
52A9
330
3B88
100
AcDbEntity
  8
sunpo
 62
     3
370
     9
100
AcDbBlockReference
  2
_DotSmall
 10
185.4014666477217
 20
332.6835589276305
 30
0.0
 41
6.0
 42
6.0
 43
6.0
 50
270.0
  0
INSERT
  5
52AA
330
3B88
100
AcDbEntity
  8
sunpo
 62
     3
370
     9
100
AcDbBlockReference
  2
_DotSmall
 10
185.4014666477217
 20
336.1835589276196
 30
0.0
 41
6.0
 42
6.0
 43
6.0
 50
90.0
  0
POINT
  5
52AB
330
3B88
100
AcDbEntity
  8
Defpoints
 62
     0
100
AcDbPoint
 10
203.4014666477217
 20
332.6835589276305
 30
0.0
  0
POINT
  5
52AC
330
3B88
100
AcDbEntity
  8
Defpoints
 62
     0
100
AcDbPoint
 10
203.4014666477217
 20
336.1835589276196
 30
0.0
  0
POINT
  5
52AD
330
3B88
100
AcDbEntity
  8
Defpoints
 62
     0
100
AcDbPoint
 10
185.4014666477217
 20
336.1835589276196
 30
0.0
  0
ENDBLK
  5
3B93
330
3B88
100
AcDbEntity
  8
0
100
AcDbBlockEnd
  0
BLOCK
  5
3B9E
330
3B94
100
AcDbEntity
  8
0
100
AcDbBlockBegin
  2
*D9
 70
     1
 10
0.0
 20
0.0
 30
0.0
  3
*D9
  1

  0
LINE
  5
52CE
330
3B94
100
AcDbEntity
  8
sunpo
 62
     3
370
     9
100
AcDbLine
 10
195.401466647841
 20
336.1835589276255
 30
0.0
 11
172.6451044774749
 21
336.1835589276255
 31
0.0
  0
LINE
  5
52CF
330
3B94
100
AcDbEntity
  8
sunpo
 62
     3
370
     9
100
AcDbLine
 10
195.4014666478861
 20
149.1835589276256
 30
0.0
 11
172.6451044774749
 21
149.1835589276256
 31
0.0
  0
LINE
  5
52D0
330
3B94
100
AcDbEntity
  8
sunpo
 62
     3
370
     9
100
AcDbLine
 10
174.6451044774749
 20
336.1835589276255
 30
0.0
 11
174.6451044774749
 21
149.1835589276256
 31
0.0
  0
INSERT
  5
52D1
330
3B94
100
AcDbEntity
  8
sunpo
 62
     3
370
     9
100
AcDbBlockReference
  2
_DotSmall
 10
174.6451044774749
 20
336.1835589276255
 30
0.0
 41
6.0
 42
6.0
 43
6.0
 50
90.0
  0
INSERT
  5
52D2
330
3B94
100
AcDbEntity
  8
sunpo
 62
     3
370
     9
100
AcDbBlockReference
  2
_DotSmall
 10
174.6451044774749
 20
149.1835589276256
 30
0.0
 41
6.0
 42
6.0
 43
6.0
 50
270.0
  0
MTEXT
  5
52D3
330
3B94
100
AcDbEntity
  8
sunpo
 62
     2
100
AcDbMText
 10
169.8355806679511
 20
242.6835589276256
 30
0.0
 40
5.0
 41
0.0
 71
     5
 72
     1
  1
H+35+35(外寸)
  7
Std
 11
0.0000000000000001
 21
1.0
 31
0.0
 73
     1
 44
1.0
  0
POINT
  5
52D4
330
3B94
100
AcDbEntity
  8
Defpoints
 62
     0
100
AcDbPoint
 10
199.401466647841
 20
336.1835589276255
 30
0.0
  0
POINT
  5
52D5
330
3B94
100
AcDbEntity
  8
Defpoints
 62
     0
100
AcDbPoint
 10
199.4014666478861
 20
149.1835589276256
 30
0.0
  0
POINT
  5
52D6
330
3B94
100
AcDbEntity
  8
Defpoints
 62
     0
100
AcDbPoint
 10
174.6451044774749
 20
149.1835589276256
 30
0.0
  0
ENDBLK
  5
3B9F
330
3B94
100
AcDbEntity
  8
0
100
AcDbBlockEnd
  0
BLOCK
  5
3BAA
330
3BA0
100
AcDbEntity
  8
0
100
AcDbBlockBegin
  2
*D10
 70
     1
 10
0.0
 20
0.0
 30
0.0
  3
*D10
  1

  0
LINE
  5
5189
330
3BA0
100
AcDbEntity
  8
sunpo
 62
     3
370
     9
100
AcDbLine
 10
562.9014666477027
 20
322.1835589276255
 30
0.0
 11
562.9014666477027
 21
304.1835589276256
 31
0.0
  0
LINE
  5
518A
330
3BA0
100
AcDbEntity
  8
sunpo
 62
     3
370
     9
100
AcDbLine
 10
566.4014666477157
 20
322.1835589276255
 30
0.0
 11
566.4014666477157
 21
304.1835589276256
 31
0.0
  0
LINE
  5
518B
330
3BA0
100
AcDbEntity
  8
sunpo
 62
     3
370
     9
100
AcDbLine
 10
562.9014666477027
 20
306.1835589276256
 30
0.0
 11
566.4014666477157
 21
306.1835589276256
 31
0.0
  0
MTEXT
  5
518C
330
3BA0
100
AcDbEntity
  8
sunpo
 62
     2
100
AcDbMText
 10
570.6101150920058
 20
311.4971604894384
 30
0.0
 40
5.0
 41
0.0
 71
     5
 72
     1
  1
35
  7
Std
 73
     1
 44
1.0
  0
INSERT
  5
518D
330
3BA0
100
AcDbEntity
  8
sunpo
 62
     3
370
     9
100
AcDbBlockReference
  2
_DotSmall
 10
562.9014666477027
 20
306.1835589276256
 30
0.0
 41
6.0
 42
6.0
 43
6.0
 50
180.0
  0
INSERT
  5
518E
330
3BA0
100
AcDbEntity
  8
sunpo
 62
     3
370
     9
100
AcDbBlockReference
  2
_DotSmall
 10
566.4014666477157
 20
306.1835589276256
 30
0.0
 41
6.0
 42
6.0
 43
6.0
  0
POINT
  5
518F
330
3BA0
100
AcDbEntity
  8
Defpoints
 62
     0
100
AcDbPoint
 10
562.9014666477027
 20
326.1835589276255
 30
0.0
  0
POINT
  5
5190
330
3BA0
100
AcDbEntity
  8
Defpoints
 62
     0
100
AcDbPoint
 10
566.4014666477157
 20
326.1835589276255
 30
0.0
  0
POINT
  5
5191
330
3BA0
100
AcDbEntity
  8
Defpoints
 62
     0
100
AcDbPoint
 10
566.4014666477157
 20
306.1835589276256
 30
0.0
  0
ENDBLK
  5
3BAB
330
3BA0
100
AcDbEntity
  8
0
100
AcDbBlockEnd
  0
BLOCK
  5
3BB7
330
3BAC
100
AcDbEntity
  8
0
100
AcDbBlockBegin
  2
*D11
 70
     1
 10
0.0
 20
0.0
 30
0.0
  3
*D11
  1

  0
LINE
  5
54A2
330
3BAC
100
AcDbEntity
  8
sunpo
 62
     3
370
     9
100
AcDbLine
 10
226.6757735716819
 20
692.4105505324754
 30
0.0
 11
228.6757735716819
 21
692.4105505324754
 31
0.0
  0
LINE
  5
54A3
330
3BAC
100
AcDbEntity
  8
sunpo
 62
     3
370
     9
100
AcDbLine
 10
226.6757735716819
 20
707.4105505324754
 30
0.0
 11
228.6757735716819
 21
707.4105505324754
 31
0.0
  0
LINE
  5
54A4
330
3BAC
100
AcDbEntity
  8
sunpo
 62
     3
370
     9
100
AcDbLine
 10
230.6757735716819
 20
692.4105505324754
 30
0.0
 11
230.6757735716819
 21
707.4105505324754
 31
0.0
  0
MTEXT
  5
54A5
330
3BAC
100
AcDbEntity
  8
sunpo
 62
     2
100
AcDbMText
 10
225.6757735716819
 20
700.0337714382534
 30
0.0
 40
6.0
 41
0.0
 71
     5
 72
     1
  1
15
  7
Std
 11
0.0000000000000001
 21
1.0
 31
0.0
 73
     1
 44
1.0
  0
INSERT
  5
54A6
330
3BAC
100
AcDbEntity
  8
sunpo
 62
     3
370
     9
100
AcDbBlockReference
  2
_DotSmall
 10
230.6757735716819
 20
692.4105505324754
 30
0.0
 41
7.0
 42
7.0
 43
7.0
 50
270.0
  0
INSERT
  5
54A7
330
3BAC
100
AcDbEntity
  8
sunpo
 62
     3
370
     9
100
AcDbBlockReference
  2
_DotSmall
 10
230.6757735716819
 20
707.4105505324754
 30
0.0
 41
7.0
 42
7.0
 43
7.0
 50
90.0
  0
POINT
  5
54A8
330
3BAC
100
AcDbEntity
  8
Defpoints
 62
     0
100
AcDbPoint
 10
230.6757735716819
 20
692.4105505324754
 30
0.0
  0
POINT
  5
54A9
330
3BAC
100
AcDbEntity
  8
Defpoints
 62
     0
100
AcDbPoint
 10
230.6757735716819
 20
707.4105505324754
 30
0.0
  0
POINT
  5
54AA
330
3BAC
100
AcDbEntity
  8
Defpoints
 62
     0
100
AcDbPoint
 10
230.6757735716819
 20
707.4105505324754
 30
0.0
  0
ENDBLK
  5
3BB8
330
3BAC
100
AcDbEntity
  8
0
100
AcDbBlockEnd
  0
BLOCK
  5
3BC3
330
3BB9
100
AcDbEntity
  8
0
100
AcDbBlockBegin
  2
*D12
 70
     1
 10
0.0
 20
0.0
 30
0.0
  3
*D12
  1

  0
LINE
  5
5499
330
3BB9
100
AcDbEntity
  8
sunpo
 62
     3
370
     9
100
AcDbLine
 10
226.6757735716819
 20
652.4105505324754
 30
0.0
 11
228.6757735716819
 21
652.4105505324754
 31
0.0
  0
LINE
  5
549A
330
3BB9
100
AcDbEntity
  8
sunpo
 62
     3
370
     9
100
AcDbLine
 10
226.6757735716819
 20
632.4105505324808
 30
0.0
 11
228.6757735716819
 21
632.4105505324808
 31
0.0
  0
LINE
  5
549B
330
3BB9
100
AcDbEntity
  8
sunpo
 62
     3
370
     9
100
AcDbLine
 10
230.6757735716819
 20
652.4105505324754
 30
0.0
 11
230.6757735716819
 21
632.4105505324808
 31
0.0
  0
INSERT
  5
549C
330
3BB9
100
AcDbEntity
  8
sunpo
 62
     3
370
     9
100
AcDbBlockReference
  2
_DotSmall
 10
230.6757735716819
 20
652.4105505324754
 30
0.0
 41
7.0
 42
7.0
 43
7.0
 50
90.0
  0
INSERT
  5
549D
330
3BB9
100
AcDbEntity
  8
sunpo
 62
     3
370
     9
100
AcDbBlockReference
  2
_DotSmall
 10
230.6757735716819
 20
632.4105505324808
 30
0.0
 41
7.0
 42
7.0
 43
7.0
 50
270.0
  0
MTEXT
  5
549E
330
3BB9
100
AcDbEntity
  8
sunpo
 62
     2
100
AcDbMText
 10
226.4757735716818
 20
642.4105505324781
 30
0.0
 40
6.0
 41
0.0
 71
     5
 72
     1
  1
20
  7
Std
 11
0.0000000000000001
 21
1.0
 31
0.0
 73
     1
 44
1.0
  0
POINT
  5
549F
330
3BB9
100
AcDbEntity
  8
Defpoints
 62
     0
100
AcDbPoint
 10
230.6757735716819
 20
652.4105505324754
 30
0.0
  0
POINT
  5
54A0
330
3BB9
100
AcDbEntity
  8
Defpoints
 62
     0
100
AcDbPoint
 10
230.6757735716819
 20
632.4105505324808
 30
0.0
  0
POINT
  5
54A1
330
3BB9
100
AcDbEntity
  8
Defpoints
 62
     0
100
AcDbPoint
 10
230.6757735716819
 20
632.4105505324808
 30
0.0
  0
ENDBLK
  5
3BC4
330
3BB9
100
AcDbEntity
  8
0
100
AcDbBlockEnd
  0
BLOCK
  5
3BCF
330
3BC5
100
AcDbEntity
  8
0
100
AcDbBlockBegin
  2
*D13
 70
     1
 10
0.0
 20
0.0
 30
0.0
  3
*D13
  1

  0
LINE
  5
5490
330
3BC5
100
AcDbEntity
  8
sunpo
 62
     3
370
     9
100
AcDbLine
 10
242.6757735716819
 20
689.4105505324809
 30
0.0
 11
244.6757735716819
 21
689.4105505324809
 31
0.0
  0
LINE
  5
5491
330
3BC5
100
AcDbEntity
  8
sunpo
 62
     3
370
     9
100
AcDbLine
 10
242.6757735716819
 20
655.4105505324809
 30
0.0
 11
244.6757735716819
 21
655.4105505324809
 31
0.0
  0
LINE
  5
5492
330
3BC5
100
AcDbEntity
  8
sunpo
 62
     3
370
     9
100
AcDbLine
 10
246.6757735716819
 20
689.4105505324809
 30
0.0
 11
246.6757735716819
 21
655.4105505324809
 31
0.0
  0
INSERT
  5
5493
330
3BC5
100
AcDbEntity
  8
sunpo
 62
     3
370
     9
100
AcDbBlockReference
  2
_DotSmall
 10
246.6757735716819
 20
689.4105505324809
 30
0.0
 41
7.0
 42
7.0
 43
7.0
 50
90.0
  0
INSERT
  5
5494
330
3BC5
100
AcDbEntity
  8
sunpo
 62
     3
370
     9
100
AcDbBlockReference
  2
_DotSmall
 10
246.6757735716819
 20
655.4105505324809
 30
0.0
 41
7.0
 42
7.0
 43
7.0
 50
270.0
  0
MTEXT
  5
5495
330
3BC5
100
AcDbEntity
  8
sunpo
 62
     2
100
AcDbMText
 10
242.4757735716818
 20
672.4105505324809
 30
0.0
 40
6.0
 41
0.0
 71
     5
 72
     1
  1
34
  7
Std
 11
0.0000000000000001
 21
1.0
 31
0.0
 73
     1
 44
1.0
  0
POINT
  5
5496
330
3BC5
100
AcDbEntity
  8
Defpoints
 62
     0
100
AcDbPoint
 10
246.6757735716819
 20
689.4105505324809
 30
0.0
  0
POINT
  5
5497
330
3BC5
100
AcDbEntity
  8
Defpoints
 62
     0
100
AcDbPoint
 10
246.6757735716819
 20
655.4105505324809
 30
0.0
  0
POINT
  5
5498
330
3BC5
100
AcDbEntity
  8
Defpoints
 62
     0
100
AcDbPoint
 10
246.6757735716819
 20
655.4105505324809
 30
0.0
  0
ENDBLK
  5
3BD0
330
3BC5
100
AcDbEntity
  8
0
100
AcDbBlockEnd
  0
BLOCK
  5
3BDB
330
3BD1
100
AcDbEntity
  8
0
100
AcDbBlockBegin
  2
*D14
 70
     1
 10
0.0
 20
0.0
 30
0.0
  3
*D14
  1

  0
LINE
  5
5487
330
3BD1
100
AcDbEntity
  8
sunpo
 62
     3
370
     9
100
AcDbLine
 10
234.6757735716819
 20
580.4105505324754
 30
0.0
 11
232.675773571682
 21
580.4105505324754
 31
0.0
  0
LINE
  5
5488
330
3BD1
100
AcDbEntity
  8
sunpo
 62
     3
370
     9
100
AcDbLine
 10
226.6757735716819
 20
575.4105505324754
 30
0.0
 11
228.6757735716819
 21
575.4105505324754
 31
0.0
  0
LINE
  5
5489
330
3BD1
100
AcDbEntity
  8
sunpo
 62
     3
370
     9
100
AcDbLine
 10
230.675773571682
 20
580.4105505324754
 30
0.0
 11
230.6757735716819
 21
575.4105505324754
 31
0.0
  0
MTEXT
  5
548A
330
3BD1
100
AcDbEntity
  8
sunpo
 62
     2
100
AcDbMText
 10
216.0757735716818
 20
577.9105505324754
 30
0.0
 40
6.0
 41
0.0
 71
     5
 72
     1
  1
5
  7
Std
 11
0.0000000000000001
 21
1.0
 31
0.0
 73
     1
 44
1.0
  0
INSERT
  5
548B
330
3BD1
100
AcDbEntity
  8
sunpo
 62
     3
370
     9
100
AcDbBlockReference
  2
_DotSmall
 10
230.675773571682
 20
580.4105505324754
 30
0.0
 41
7.0
 42
7.0
 43
7.0
 50
90.0
  0
INSERT
  5
548C
330
3BD1
100
AcDbEntity
  8
sunpo
 62
     3
370
     9
100
AcDbBlockReference
  2
_DotSmall
 10
230.6757735716819
 20
575.4105505324754
 30
0.0
 41
7.0
 42
7.0
 43
7.0
 50
270.0
  0
POINT
  5
548D
330
3BD1
100
AcDbEntity
  8
Defpoints
 62
     0
100
AcDbPoint
 10
230.6757735716819
 20
580.4105505324754
 30
0.0
  0
POINT
  5
548E
330
3BD1
100
AcDbEntity
  8
Defpoints
 62
     0
100
AcDbPoint
 10
230.6757735716819
 20
575.4105505324754
 30
0.0
  0
POINT
  5
548F
330
3BD1
100
AcDbEntity
  8
Defpoints
 62
     0
100
AcDbPoint
 10
230.6757735716819
 20
575.4105505324754
 30
0.0
  0
ENDBLK
  5
3BDC
330
3BD1
100
AcDbEntity
  8
0
100
AcDbBlockEnd
  0
BLOCK
  5
3BE7
330
3BDD
100
AcDbEntity
  8
0
100
AcDbBlockBegin
  2
*D15
 70
     1
 10
0.0
 20
0.0
 30
0.0
  3
*D15
  1

  0
LINE
  5
547E
330
3BDD
100
AcDbEntity
  8
sunpo
 62
     3
370
     9
100
AcDbLine
 10
274.6757735716817
 20
575.4105505324754
 30
0.0
 11
276.6757735716817
 21
575.4105505324754
 31
0.0
  0
LINE
  5
547F
330
3BDD
100
AcDbEntity
  8
sunpo
 62
     3
370
     9
100
AcDbLine
 10
274.6757735716817
 20
491.4105505324808
 30
0.0
 11
276.6757735716817
 21
491.4105505324808
 31
0.0
  0
LINE
  5
5480
330
3BDD
100
AcDbEntity
  8
sunpo
 62
     3
370
     9
100
AcDbLine
 10
278.6757735716817
 20
575.4105505324754
 30
0.0
 11
278.6757735716817
 21
491.4105505324808
 31
0.0
  0
INSERT
  5
5481
330
3BDD
100
AcDbEntity
  8
sunpo
 62
     3
370
     9
100
AcDbBlockReference
  2
_DotSmall
 10
278.6757735716817
 20
575.4105505324754
 30
0.0
 41
7.0
 42
7.0
 43
7.0
 50
90.0
  0
INSERT
  5
5482
330
3BDD
100
AcDbEntity
  8
sunpo
 62
     3
370
     9
100
AcDbBlockReference
  2
_DotSmall
 10
278.6757735716817
 20
491.4105505324808
 30
0.0
 41
7.0
 42
7.0
 43
7.0
 50
270.0
  0
MTEXT
  5
5483
330
3BDD
100
AcDbEntity
  8
sunpo
 62
     2
100
AcDbMText
 10
274.4757735716817
 20
533.4105505324783
 30
0.0
 40
6.0
 41
0.0
 71
     5
 72
     1
  1
84
  7
Std
 11
0.0000000000000001
 21
1.0
 31
0.0
 73
     1
 44
1.0
  0
POINT
  5
5484
330
3BDD
100
AcDbEntity
  8
Defpoints
 62
     0
100
AcDbPoint
 10
278.6757735716817
 20
575.4105505324754
 30
0.0
  0
POINT
  5
5485
330
3BDD
100
AcDbEntity
  8
Defpoints
 62
     0
100
AcDbPoint
 10
278.6757735716817
 20
491.4105505324808
 30
0.0
  0
POINT
  5
5486
330
3BDD
100
AcDbEntity
  8
Defpoints
 62
     0
100
AcDbPoint
 10
278.6757735716817
 20
491.4105505324808
 30
0.0
  0
ENDBLK
  5
3BE8
330
3BDD
100
AcDbEntity
  8
0
100
AcDbBlockEnd
  0
BLOCK
  5
3BF3
330
3BE9
100
AcDbEntity
  8
0
100
AcDbBlockBegin
  2
*D16
 70
     1
 10
0.0
 20
0.0
 30
0.0
  3
*D16
  1

  0
LINE
  5
5475
330
3BE9
100
AcDbEntity
  8
sunpo
 62
     3
370
     9
100
AcDbLine
 10
242.6757735716819
 20
629.4105505324754
 30
0.0
 11
244.6757735716819
 21
629.4105505324754
 31
0.0
  0
LINE
  5
5476
330
3BE9
100
AcDbEntity
  8
sunpo
 62
     3
370
     9
100
AcDbLine
 10
242.6757735716819
 20
595.4105505324754
 30
0.0
 11
244.6757735716819
 21
595.4105505324754
 31
0.0
  0
LINE
  5
5477
330
3BE9
100
AcDbEntity
  8
sunpo
 62
     3
370
     9
100
AcDbLine
 10
246.6757735716819
 20
629.4105505324754
 30
0.0
 11
246.6757735716819
 21
595.4105505324754
 31
0.0
  0
INSERT
  5
5478
330
3BE9
100
AcDbEntity
  8
sunpo
 62
     3
370
     9
100
AcDbBlockReference
  2
_DotSmall
 10
246.6757735716819
 20
629.4105505324754
 30
0.0
 41
7.0
 42
7.0
 43
7.0
 50
90.0
  0
INSERT
  5
5479
330
3BE9
100
AcDbEntity
  8
sunpo
 62
     3
370
     9
100
AcDbBlockReference
  2
_DotSmall
 10
246.6757735716819
 20
595.4105505324754
 30
0.0
 41
7.0
 42
7.0
 43
7.0
 50
270.0
  0
MTEXT
  5
547A
330
3BE9
100
AcDbEntity
  8
sunpo
 62
     2
100
AcDbMText
 10
242.4757735716818
 20
612.4105505324754
 30
0.0
 40
6.0
 41
0.0
 71
     5
 72
     1
  1
34
  7
Std
 11
0.0000000000000001
 21
1.0
 31
0.0
 73
     1
 44
1.0
  0
POINT
  5
547B
330
3BE9
100
AcDbEntity
  8
Defpoints
 62
     0
100
AcDbPoint
 10
246.6757735716819
 20
629.4105505324754
 30
0.0
  0
POINT
  5
547C
330
3BE9
100
AcDbEntity
  8
Defpoints
 62
     0
100
AcDbPoint
 10
246.6757735716819
 20
595.4105505324754
 30
0.0
  0
POINT
  5
547D
330
3BE9
100
AcDbEntity
  8
Defpoints
 62
     0
100
AcDbPoint
 10
246.6757735716819
 20
595.4105505324754
 30
0.0
  0
ENDBLK
  5
3BF4
330
3BE9
100
AcDbEntity
  8
0
100
AcDbBlockEnd
  0
BLOCK
  5
3BFF
330
3BF5
100
AcDbEntity
  8
0
100
AcDbBlockBegin
  2
*D17
 70
     1
 10
0.0
 20
0.0
 30
0.0
  3
*D17
  1

  0
LINE
  5
546C
330
3BF5
100
AcDbEntity
  8
sunpo
 62
     3
370
     9
100
AcDbLine
 10
282.6757735716817
 20
707.4105505324754
 30
0.0
 11
280.6757735716818
 21
707.4105505324754
 31
0.0
  0
LINE
  5
546D
330
3BF5
100
AcDbEntity
  8
sunpo
 62
     3
370
     9
100
AcDbLine
 10
274.6757735716817
 20
575.4105505324754
 30
0.0
 11
276.6757735716817
 21
575.4105505324754
 31
0.0
  0
LINE
  5
546E
330
3BF5
100
AcDbEntity
  8
sunpo
 62
     3
370
     9
100
AcDbLine
 10
278.6757735716818
 20
707.4105505324754
 30
0.0
 11
278.6757735716817
 21
575.4105505324754
 31
0.0
  0
INSERT
  5
546F
330
3BF5
100
AcDbEntity
  8
sunpo
 62
     3
370
     9
100
AcDbBlockReference
  2
_DotSmall
 10
278.6757735716818
 20
707.4105505324754
 30
0.0
 41
7.0
 42
7.0
 43
7.0
 50
90.0
  0
INSERT
  5
5470
330
3BF5
100
AcDbEntity
  8
sunpo
 62
     3
370
     9
100
AcDbBlockReference
  2
_DotSmall
 10
278.6757735716817
 20
575.4105505324754
 30
0.0
 41
7.0
 42
7.0
 43
7.0
 50
270.0
  0
MTEXT
  5
5471
330
3BF5
100
AcDbEntity
  8
sunpo
 62
     2
100
AcDbMText
 10
274.4757735716817
 20
641.4105505324755
 30
0.0
 40
6.0
 41
0.0
 71
     5
 72
     1
  1
132
  7
Std
 11
0.0000000000000001
 21
1.0
 31
0.0
 73
     1
 44
1.0
  0
POINT
  5
5472
330
3BF5
100
AcDbEntity
  8
Defpoints
 62
     0
100
AcDbPoint
 10
278.6757735716817
 20
707.4105505324754
 30
0.0
  0
POINT
  5
5473
330
3BF5
100
AcDbEntity
  8
Defpoints
 62
     0
100
AcDbPoint
 10
278.6757735716817
 20
575.4105505324754
 30
0.0
  0
POINT
  5
5474
330
3BF5
100
AcDbEntity
  8
Defpoints
 62
     0
100
AcDbPoint
 10
278.6757735716817
 20
575.4105505324754
 30
0.0
  0
ENDBLK
  5
3C00
330
3BF5
100
AcDbEntity
  8
0
100
AcDbBlockEnd
  0
BLOCK
  5
3C0B
330
3C01
100
AcDbEntity
  8
0
100
AcDbBlockBegin
  2
*D18
 70
     1
 10
0.0
 20
0.0
 30
0.0
  3
*D18
  1

  0
LINE
  5
5463
330
3C01
100
AcDbEntity
  8
sunpo
 62
     3
370
     9
100
AcDbLine
 10
140.6757735716819
 20
554.4105505324754
 30
0.0
 11
140.6757735716819
 21
543.4105505324754
 31
0.0
  0
LINE
  5
5464
330
3C01
100
AcDbEntity
  8
sunpo
 62
     3
370
     9
100
AcDbLine
 10
164.6757735716819
 20
576.4105505324754
 30
0.0
 11
164.6757735716819
 21
543.4105505324754
 31
0.0
  0
LINE
  5
5465
330
3C01
100
AcDbEntity
  8
sunpo
 62
     3
370
     9
100
AcDbLine
 10
140.6757735716819
 20
545.4105505324754
 30
0.0
 11
164.6757735716819
 21
545.4105505324754
 31
0.0
  0
INSERT
  5
5466
330
3C01
100
AcDbEntity
  8
sunpo
 62
     3
370
     9
100
AcDbBlockReference
  2
_DotSmall
 10
140.6757735716819
 20
545.4105505324754
 30
0.0
 41
7.0
 42
7.0
 43
7.0
 50
180.0
  0
INSERT
  5
5467
330
3C01
100
AcDbEntity
  8
sunpo
 62
     3
370
     9
100
AcDbBlockReference
  2
_DotSmall
 10
164.6757735716819
 20
545.4105505324754
 30
0.0
 41
7.0
 42
7.0
 43
7.0
  0
MTEXT
  5
5468
330
3C01
100
AcDbEntity
  8
sunpo
 62
     2
100
AcDbMText
 10
152.6757735716819
 20
549.6105505324755
 30
0.0
 40
6.0
 41
0.0
 71
     5
 72
     1
  1
24
  7
Std
 73
     1
 44
1.0
  0
POINT
  5
5469
330
3C01
100
AcDbEntity
  8
Defpoints
 62
     0
100
AcDbPoint
 10
140.6757735716819
 20
558.4105505324754
 30
0.0
  0
POINT
  5
546A
330
3C01
100
AcDbEntity
  8
Defpoints
 62
     0
100
AcDbPoint
 10
164.6757735716819
 20
580.4105505324754
 30
0.0
  0
POINT
  5
546B
330
3C01
100
AcDbEntity
  8
Defpoints
 62
     0
100
AcDbPoint
 10
164.6757735716819
 20
545.4105505324754
 30
0.0
  0
ENDBLK
  5
3C0C
330
3C01
100
AcDbEntity
  8
0
100
AcDbBlockEnd
  0
BLOCK
  5
3C17
330
3C0D
100
AcDbEntity
  8
0
100
AcDbBlockBegin
  2
*D19
 70
     1
 10
0.0
 20
0.0
 30
0.0
  3
*D19
  1

  0
LINE
  5
545A
330
3C0D
100
AcDbEntity
  8
sunpo
 62
     3
370
     9
100
AcDbLine
 10
194.6757735716819
 20
652.4105505324754
 30
0.0
 11
232.6757735716819
 21
652.4105505324754
 31
0.0
  0
LINE
  5
545B
330
3C0D
100
AcDbEntity
  8
sunpo
 62
     3
370
     9
100
AcDbLine
 10
194.6757735716819
 20
692.4105505324754
 30
0.0
 11
232.6757735716819
 21
692.4105505324754
 31
0.0
  0
LINE
  5
545C
330
3C0D
100
AcDbEntity
  8
sunpo
 62
     3
370
     9
100
AcDbLine
 10
230.6757735716819
 20
652.4105505324754
 30
0.0
 11
230.6757735716819
 21
692.4105505324754
 31
0.0
  0
INSERT
  5
545D
330
3C0D
100
AcDbEntity
  8
sunpo
 62
     3
370
     9
100
AcDbBlockReference
  2
_DotSmall
 10
230.6757735716819
 20
652.4105505324754
 30
0.0
 41
7.0
 42
7.0
 43
7.0
 50
270.0
  0
INSERT
  5
545E
330
3C0D
100
AcDbEntity
  8
sunpo
 62
     3
370
     9
100
AcDbBlockReference
  2
_DotSmall
 10
230.6757735716819
 20
692.4105505324754
 30
0.0
 41
7.0
 42
7.0
 43
7.0
 50
90.0
  0
MTEXT
  5
545F
330
3C0D
100
AcDbEntity
  8
sunpo
 62
     2
100
AcDbMText
 10
226.4757735716818
 20
672.4105505324754
 30
0.0
 40
6.0
 41
0.0
 71
     5
 72
     1
  1
40
  7
Std
 11
0.0000000000000001
 21
1.0
 31
0.0
 73
     1
 44
1.0
  0
POINT
  5
5460
330
3C0D
100
AcDbEntity
  8
Defpoints
 62
     0
100
AcDbPoint
 10
190.6757735716819
 20
652.4105505324754
 30
0.0
  0
POINT
  5
5461
330
3C0D
100
AcDbEntity
  8
Defpoints
 62
     0
100
AcDbPoint
 10
190.6757735716819
 20
692.4105505324754
 30
0.0
  0
POINT
  5
5462
330
3C0D
100
AcDbEntity
  8
Defpoints
 62
     0
100
AcDbPoint
 10
230.6757735716819
 20
692.4105505324754
 30
0.0
  0
ENDBLK
  5
3C18
330
3C0D
100
AcDbEntity
  8
0
100
AcDbBlockEnd
  0
BLOCK
  5
3C23
330
3C19
100
AcDbEntity
  8
0
100
AcDbBlockBegin
  2
*D20
 70
     1
 10
0.0
 20
0.0
 30
0.0
  3
*D20
  1

  0
LINE
  5
5451
330
3C19
100
AcDbEntity
  8
sunpo
 62
     3
370
     9
100
AcDbLine
 10
194.6757735716819
 20
632.4105505324754
 30
0.0
 11
232.6757735716819
 21
632.4105505324754
 31
0.0
  0
LINE
  5
5452
330
3C19
100
AcDbEntity
  8
sunpo
 62
     3
370
     9
100
AcDbLine
 10
226.6757735716819
 20
592.4105505324754
 30
0.0
 11
228.6757735716819
 21
592.4105505324754
 31
0.0
  0
LINE
  5
5453
330
3C19
100
AcDbEntity
  8
sunpo
 62
     3
370
     9
100
AcDbLine
 10
230.6757735716819
 20
632.4105505324754
 30
0.0
 11
230.6757735716819
 21
592.4105505324754
 31
0.0
  0
INSERT
  5
5454
330
3C19
100
AcDbEntity
  8
sunpo
 62
     3
370
     9
100
AcDbBlockReference
  2
_DotSmall
 10
230.6757735716819
 20
632.4105505324754
 30
0.0
 41
7.0
 42
7.0
 43
7.0
 50
90.0
  0
INSERT
  5
5455
330
3C19
100
AcDbEntity
  8
sunpo
 62
     3
370
     9
100
AcDbBlockReference
  2
_DotSmall
 10
230.6757735716819
 20
592.4105505324754
 30
0.0
 41
7.0
 42
7.0
 43
7.0
 50
270.0
  0
MTEXT
  5
5456
330
3C19
100
AcDbEntity
  8
sunpo
 62
     2
100
AcDbMText
 10
226.4757735716818
 20
612.4105505324754
 30
0.0
 40
6.0
 41
0.0
 71
     5
 72
     1
  1
40
  7
Std
 11
0.0000000000000001
 21
1.0
 31
0.0
 73
     1
 44
1.0
  0
POINT
  5
5457
330
3C19
100
AcDbEntity
  8
Defpoints
 62
     0
100
AcDbPoint
 10
190.6757735716819
 20
632.4105505324754
 30
0.0
  0
POINT
  5
5458
330
3C19
100
AcDbEntity
  8
Defpoints
 62
     0
100
AcDbPoint
 10
230.6757735716819
 20
592.4105505324754
 30
0.0
  0
POINT
  5
5459
330
3C19
100
AcDbEntity
  8
Defpoints
 62
     0
100
AcDbPoint
 10
230.6757735716819
 20
592.4105505324754
 30
0.0
  0
ENDBLK
  5
3C24
330
3C19
100
AcDbEntity
  8
0
100
AcDbBlockEnd
  0
BLOCK
  5
3C2F
330
3C25
100
AcDbEntity
  8
0
100
AcDbBlockBegin
  2
*D21
 70
     1
 10
0.0
 20
0.0
 30
0.0
  3
*D21
  1

  0
LINE
  5
5447
330
3C25
100
AcDbEntity
  8
sunpo
 62
     3
370
     9
100
AcDbLine
 10
194.6757735716819
 20
592.4105505324754
 30
0.0
 11
232.6757735716819
 21
592.4105505324754
 31
0.0
  0
LINE
  5
5448
330
3C25
100
AcDbEntity
  8
sunpo
 62
     3
370
     9
100
AcDbLine
 10
194.6757735716819
 20
580.4105505324754
 30
0.0
 11
232.6757735716819
 21
580.4105505324754
 31
0.0
  0
LINE
  5
5449
330
3C25
100
AcDbEntity
  8
sunpo
 62
     3
370
     9
100
AcDbLine
 10
230.6757735716819
 20
592.4105505324754
 30
0.0
 11
230.6757735716819
 21
591.173435920695
 31
0.0
  0
LINE
  5
544A
330
3C25
100
AcDbEntity
  8
sunpo
 62
     3
370
     9
100
AcDbLine
 10
230.6757735716819
 20
580.4105505324754
 30
0.0
 11
230.6757735716819
 21
581.6877216349808
 31
0.0
  0
MTEXT
  5
544B
330
3C25
100
AcDbEntity
  8
sunpo
 62
     2
100
AcDbMText
 10
227.5757735716818
 20
586.4305787778379
 30
0.0
 40
6.0
 41
0.0
 71
     5
 72
     1
  1
12
  7
Std
 11
0.0000000000000001
 21
1.0
 31
0.0
 73
     1
 44
1.0
  0
INSERT
  5
544C
330
3C25
100
AcDbEntity
  8
sunpo
 62
     3
370
     9
100
AcDbBlockReference
  2
_DotSmall
 10
230.6757735716819
 20
592.4105505324754
 30
0.0
 41
7.0
 42
7.0
 43
7.0
 50
90.0
  0
INSERT
  5
544D
330
3C25
100
AcDbEntity
  8
sunpo
 62
     3
370
     9
100
AcDbBlockReference
  2
_DotSmall
 10
230.6757735716819
 20
580.4105505324754
 30
0.0
 41
7.0
 42
7.0
 43
7.0
 50
270.0
  0
POINT
  5
544E
330
3C25
100
AcDbEntity
  8
Defpoints
 62
     0
100
AcDbPoint
 10
190.6757735716819
 20
592.4105505324754
 30
0.0
  0
POINT
  5
544F
330
3C25
100
AcDbEntity
  8
Defpoints
 62
     0
100
AcDbPoint
 10
190.6757735716819
 20
580.4105505324754
 30
0.0
  0
POINT
  5
5450
330
3C25
100
AcDbEntity
  8
Defpoints
 62
     0
100
AcDbPoint
 10
230.6757735716819
 20
580.4105505324754
 30
0.0
  0
ENDBLK
  5
3C30
330
3C25
100
AcDbEntity
  8
0
100
AcDbBlockEnd
  0
BLOCK
  5
3C39
330
3C31
100
AcDbEntity
  8
0
100
AcDbBlockBegin
  2
*D22
 70
     1
 10
0.0
 20
0.0
 30
0.0
  3
*D22
  1

  0
LINE
  5
5440
330
3C31
100
AcDbEntity
  8
sunpo
 62
     3
370
     9
100
AcDbLine
 10
142.6757735716819
 20
477.4105505324809
 30
0.0
 11
142.6757735716819
 21
409.4105505324827
 31
0.0
  0
LINE
  5
5441
330
3C31
100
AcDbEntity
  8
sunpo
 62
     3
370
     9
100
AcDbLine
 10
142.6757735716819
 20
411.4105505324827
 30
0.0
 11
655.8455023824644
 21
411.4105505324827
 31
0.0
  0
MTEXT
  5
5442
330
3C31
100
AcDbEntity
  8
sunpo
 62
     2
100
AcDbMText
 10
603.1913175128111
 20
416.3053021613008
 30
0.0
 40
6.0
 41
0.0
 71
     5
 72
     1
  1
W
  7
Std
 73
     1
 44
1.0
  0
INSERT
  5
5443
330
3C31
100
AcDbEntity
  8
sunpo
 62
     3
370
     9
100
AcDbBlockReference
  2
_DotSmall
 10
142.6757735716819
 20
411.4105505324827
 30
0.0
 41
7.0
 42
7.0
 43
7.0
 50
180.0
  0
POINT
  5
5444
330
3C31
100
AcDbEntity
  8
Defpoints
 62
     0
100
AcDbPoint
 10
142.6757735716819
 20
481.4105505324809
 30
0.0
  0
POINT
  5
5445
330
3C31
100
AcDbEntity
  8
Defpoints
 62
     0
100
AcDbPoint
 10
655.8455023824644
 20
481.4105505324809
 30
0.0
  0
POINT
  5
5446
330
3C31
100
AcDbEntity
  8
Defpoints
 62
     0
100
AcDbPoint
 10
655.8455023824644
 20
411.4105505324827
 30
0.0
  0
ENDBLK
  5
3C3A
330
3C31
100
AcDbEntity
  8
0
100
AcDbBlockEnd
  0
BLOCK
  5
3C45
330
3C3B
100
AcDbEntity
  8
0
100
AcDbBlockBegin
  2
*D23
 70
     1
 10
0.0
 20
0.0
 30
0.0
  3
*D23
  1

  0
LINE
  5
5534
330
3C3B
100
AcDbEntity
  8
sunpo
 62
     3
370
     9
100
AcDbLine
 10
1038.176789825749
 20
560.2336948678821
 30
0.0
 11
1038.176789825749
 21
536.2336948678821
 31
0.0
  0
LINE
  5
5535
330
3C3B
100
AcDbEntity
  8
sunpo
 62
     3
370
     9
100
AcDbLine
 10
1053.176789825749
 20
560.2336948678821
 30
0.0
 11
1053.176789825749
 21
536.2336948678821
 31
0.0
  0
LINE
  5
5536
330
3C3B
100
AcDbEntity
  8
sunpo
 62
     3
370
     9
100
AcDbLine
 10
1038.176789825749
 20
538.2336948678821
 30
0.0
 11
1053.176789825749
 21
538.2336948678821
 31
0.0
  0
INSERT
  5
5537
330
3C3B
100
AcDbEntity
  8
sunpo
 62
     3
370
     9
100
AcDbBlockReference
  2
_DotSmall
 10
1038.176789825749
 20
538.2336948678821
 30
0.0
 41
7.0
 42
7.0
 43
7.0
 50
180.0
  0
INSERT
  5
5538
330
3C3B
100
AcDbEntity
  8
sunpo
 62
     3
370
     9
100
AcDbBlockReference
  2
_DotSmall
 10
1053.176789825749
 20
538.2336948678821
 30
0.0
 41
7.0
 42
7.0
 43
7.0
  0
MTEXT
  5
5539
330
3C3B
100
AcDbEntity
  8
sunpo
 62
     2
100
AcDbMText
 10
1045.676789825749
 20
542.4336948678821
 30
0.0
 40
6.0
 41
0.0
 71
     5
 72
     1
  1
15
  7
Std
 73
     1
 44
1.0
  0
POINT
  5
553A
330
3C3B
100
AcDbEntity
  8
Defpoints
 62
     0
100
AcDbPoint
 10
1038.176789825749
 20
564.2336948678821
 30
0.0
  0
POINT
  5
553B
330
3C3B
100
AcDbEntity
  8
Defpoints
 62
     0
100
AcDbPoint
 10
1053.176789825749
 20
564.2336948678821
 30
0.0
  0
POINT
  5
553C
330
3C3B
100
AcDbEntity
  8
Defpoints
 62
     0
100
AcDbPoint
 10
1053.176789825749
 20
538.2336948678821
 30
0.0
  0
ENDBLK
  5
3C46
330
3C3B
100
AcDbEntity
  8
0
100
AcDbBlockEnd
  0
BLOCK
  5
3C51
330
3C47
100
AcDbEntity
  8
0
100
AcDbBlockBegin
  2
*D24
 70
     1
 10
0.0
 20
0.0
 30
0.0
  3
*D24
  1

  0
LINE
  5
552B
330
3C47
100
AcDbEntity
  8
sunpo
 62
     3
370
     9
100
AcDbLine
 10
1038.176789825749
 20
560.2336948678821
 30
0.0
 11
1038.176789825749
 21
536.2336948678821
 31
0.0
  0
LINE
  5
552C
330
3C47
100
AcDbEntity
  8
sunpo
 62
     3
370
     9
100
AcDbLine
 10
998.1767898257489
 20
560.2336948678821
 30
0.0
 11
998.1767898257489
 21
536.2336948678821
 31
0.0
  0
LINE
  5
552D
330
3C47
100
AcDbEntity
  8
sunpo
 62
     3
370
     9
100
AcDbLine
 10
1038.176789825749
 20
538.2336948678821
 30
0.0
 11
998.1767898257489
 21
538.2336948678821
 31
0.0
  0
INSERT
  5
552E
330
3C47
100
AcDbEntity
  8
sunpo
 62
     3
370
     9
100
AcDbBlockReference
  2
_DotSmall
 10
1038.176789825749
 20
538.2336948678821
 30
0.0
 41
7.0
 42
7.0
 43
7.0
  0
INSERT
  5
552F
330
3C47
100
AcDbEntity
  8
sunpo
 62
     3
370
     9
100
AcDbBlockReference
  2
_DotSmall
 10
998.1767898257489
 20
538.2336948678821
 30
0.0
 41
7.0
 42
7.0
 43
7.0
 50
180.0
  0
MTEXT
  5
5530
330
3C47
100
AcDbEntity
  8
sunpo
 62
     2
100
AcDbMText
 10
1018.176789825749
 20
542.4336948678821
 30
0.0
 40
6.0
 41
0.0
 71
     5
 72
     1
  1
40
  7
Std
 73
     1
 44
1.0
  0
POINT
  5
5531
330
3C47
100
AcDbEntity
  8
Defpoints
 62
     0
100
AcDbPoint
 10
1038.176789825749
 20
564.2336948678821
 30
0.0
  0
POINT
  5
5532
330
3C47
100
AcDbEntity
  8
Defpoints
 62
     0
100
AcDbPoint
 10
998.1767898257489
 20
564.2336948678821
 30
0.0
  0
POINT
  5
5533
330
3C47
100
AcDbEntity
  8
Defpoints
 62
     0
100
AcDbPoint
 10
998.1767898257489
 20
538.2336948678821
 30
0.0
  0
ENDBLK
  5
3C52
330
3C47
100
AcDbEntity
  8
0
100
AcDbBlockEnd
  0
BLOCK
  5
3C5D
330
3C53
100
AcDbEntity
  8
0
100
AcDbBlockBegin
  2
*D25
 70
     1
 10
0.0
 20
0.0
 30
0.0
  3
*D25
  1

  0
LINE
  5
5522
330
3C53
100
AcDbEntity
  8
sunpo
 62
     3
370
     9
100
AcDbLine
 10
917.176789825749
 20
710.0909635336101
 30
0.0
 11
744.7598279566464
 21
710.0909635336103
 31
0.0
  0
LINE
  5
5523
330
3C53
100
AcDbEntity
  8
sunpo
 62
     3
370
     9
100
AcDbLine
 10
917.176789825749
 20
675.0909635336101
 30
0.0
 11
744.7598279566464
 21
675.0909635336102
 31
0.0
  0
LINE
  5
5524
330
3C53
100
AcDbEntity
  8
sunpo
 62
     3
370
     9
100
AcDbLine
 10
746.7598279566463
 20
710.0909635336103
 30
0.0
 11
746.7598279566463
 21
675.0909635336102
 31
0.0
  0
INSERT
  5
5525
330
3C53
100
AcDbEntity
  8
sunpo
 62
     3
370
     9
100
AcDbBlockReference
  2
_DotSmall
 10
746.7598279566463
 20
710.0909635336103
 30
0.0
 41
7.0
 42
7.0
 43
7.0
 50
90.0
  0
INSERT
  5
5526
330
3C53
100
AcDbEntity
  8
sunpo
 62
     3
370
     9
100
AcDbBlockReference
  2
_DotSmall
 10
746.7598279566463
 20
675.0909635336102
 30
0.0
 41
7.0
 42
7.0
 43
7.0
 50
270.0
  0
MTEXT
  5
5527
330
3C53
100
AcDbEntity
  8
sunpo
 62
     2
100
AcDbMText
 10
742.5598279566462
 20
692.5909635336104
 30
0.0
 40
6.0
 41
0.0
 71
     5
 72
     1
  1
35
  7
Std
 11
0.0000000000000001
 21
1.0
 31
0.0
 73
     1
 44
1.0
  0
POINT
  5
5528
330
3C53
100
AcDbEntity
  8
Defpoints
 62
     0
100
AcDbPoint
 10
921.1767898257489
 20
710.0909635336101
 30
0.0
  0
POINT
  5
5529
330
3C53
100
AcDbEntity
  8
Defpoints
 62
     0
100
AcDbPoint
 10
921.1767898257489
 20
675.0909635336101
 30
0.0
  0
POINT
  5
552A
330
3C53
100
AcDbEntity
  8
Defpoints
 62
     0
100
AcDbPoint
 10
746.7598279566463
 20
675.0909635336102
 30
0.0
  0
ENDBLK
  5
3C5E
330
3C53
100
AcDbEntity
  8
0
100
AcDbBlockEnd
  0
BLOCK
  5
3C69
330
3C5F
100
AcDbEntity
  8
0
100
AcDbBlockBegin
  2
*D26
 70
     1
 10
0.0
 20
0.0
 30
0.0
  3
*D26
  1

  0
LINE
  5
5519
330
3C5F
100
AcDbEntity
  8
sunpo
 62
     3
370
     9
100
AcDbLine
 10
917.176789825749
 20
677.0909635336102
 30
0.0
 11
855.8181602553249
 21
677.0909635336102
 31
0.0
  0
LINE
  5
551A
330
3C5F
100
AcDbEntity
  8
sunpo
 62
     3
370
     9
100
AcDbLine
 10
917.176789825749
 20
710.0909635336101
 30
0.0
 11
855.8181602553249
 21
710.0909635336101
 31
0.0
  0
LINE
  5
551B
330
3C5F
100
AcDbEntity
  8
sunpo
 62
     3
370
     9
100
AcDbLine
 10
857.818160255325
 20
677.0909635336102
 30
0.0
 11
857.818160255325
 21
710.0909635336101
 31
0.0
  0
INSERT
  5
551C
330
3C5F
100
AcDbEntity
  8
sunpo
 62
     3
370
     9
100
AcDbBlockReference
  2
_DotSmall
 10
857.818160255325
 20
677.0909635336102
 30
0.0
 41
7.0
 42
7.0
 43
7.0
 50
270.0
  0
INSERT
  5
551D
330
3C5F
100
AcDbEntity
  8
sunpo
 62
     3
370
     9
100
AcDbBlockReference
  2
_DotSmall
 10
857.818160255325
 20
710.0909635336101
 30
0.0
 41
7.0
 42
7.0
 43
7.0
 50
90.0
  0
MTEXT
  5
551E
330
3C5F
100
AcDbEntity
  8
sunpo
 62
     2
100
AcDbMText
 10
853.6181602553249
 20
693.5909635336104
 30
0.0
 40
6.0
 41
0.0
 71
     5
 72
     1
  1
33
  7
Std
 11
0.0000000000000001
 21
1.0
 31
0.0
 73
     1
 44
1.0
  0
POINT
  5
551F
330
3C5F
100
AcDbEntity
  8
Defpoints
 62
     0
100
AcDbPoint
 10
921.1767898257489
 20
677.0909635336102
 30
0.0
  0
POINT
  5
5520
330
3C5F
100
AcDbEntity
  8
Defpoints
 62
     0
100
AcDbPoint
 10
921.1767898257489
 20
710.0909635336101
 30
0.0
  0
POINT
  5
5521
330
3C5F
100
AcDbEntity
  8
Defpoints
 62
     0
100
AcDbPoint
 10
857.818160255325
 20
710.0909635336101
 30
0.0
  0
ENDBLK
  5
3C6A
330
3C5F
100
AcDbEntity
  8
0
100
AcDbBlockEnd
  0
BLOCK
  5
3C75
330
3C6B
100
AcDbEntity
  8
0
100
AcDbBlockBegin
  2
*D27
 70
     1
 10
0.0
 20
0.0
 30
0.0
  3
*D27
  1

  0
LINE
  5
550E
330
3C6B
100
AcDbEntity
  8
sunpo
 62
     3
370
     9
100
AcDbLine
 10
917.176789825749
 20
677.0909635336102
 30
0.0
 11
855.8181602553249
 21
677.0909635336102
 31
0.0
  0
LINE
  5
550F
330
3C6B
100
AcDbEntity
  8
sunpo
 62
     3
370
     9
100
AcDbLine
 10
917.176789825749
 20
675.0909635336101
 30
0.0
 11
855.8181602553249
 21
675.0909635336101
 31
0.0
  0
LINE
  5
5510
330
3C6B
100
AcDbEntity
  8
sunpo
 62
     3
370
     9
100
AcDbLine
 10
857.818160255325
 20
677.0909635336102
 30
0.0
 11
857.818160255325
 21
684.0909635336101
 31
0.0
  0
LINE
  5
5511
330
3C6B
100
AcDbEntity
  8
sunpo
 62
     3
370
     9
100
AcDbLine
 10
857.818160255325
 20
675.0909635336101
 30
0.0
 11
857.818160255325
 21
668.0909635336101
 31
0.0
  0
MTEXT
  5
5512
330
3C6B
100
AcDbEntity
  8
sunpo
 62
     2
100
AcDbMText
 10
854.7181602553363
 20
671.0909635336101
 30
0.0
 40
6.0
 41
0.0
 71
     5
 72
     1
  1
2
  7
Std
 11
0.0000000000000001
 21
1.0
 31
0.0
 73
     1
 44
1.0
  0
LINE
  5
5513
330
3C6B
100
AcDbEntity
  8
sunpo
 62
     3
370
     9
100
AcDbLine
 10
857.818160255325
 20
677.0909635336102
 30
0.0
 11
857.818160255325
 21
675.0909635336101
 31
0.0
  0
INSERT
  5
5514
330
3C6B
100
AcDbEntity
  8
sunpo
 62
     3
370
     9
100
AcDbBlockReference
  2
_DotSmall
 10
857.818160255325
 20
677.0909635336102
 30
0.0
 41
7.0
 42
7.0
 43
7.0
 50
270.0
  0
INSERT
  5
5515
330
3C6B
100
AcDbEntity
  8
sunpo
 62
     3
370
     9
100
AcDbBlockReference
  2
_DotSmall
 10
857.818160255325
 20
675.0909635336101
 30
0.0
 41
7.0
 42
7.0
 43
7.0
 50
90.0
  0
POINT
  5
5516
330
3C6B
100
AcDbEntity
  8
Defpoints
 62
     0
100
AcDbPoint
 10
921.1767898257489
 20
677.0909635336102
 30
0.0
  0
POINT
  5
5517
330
3C6B
100
AcDbEntity
  8
Defpoints
 62
     0
100
AcDbPoint
 10
921.1767898257489
 20
675.0909635336101
 30
0.0
  0
POINT
  5
5518
330
3C6B
100
AcDbEntity
  8
Defpoints
 62
     0
100
AcDbPoint
 10
857.818160255325
 20
675.0909635336101
 30
0.0
  0
ENDBLK
  5
3C76
330
3C6B
100
AcDbEntity
  8
0
100
AcDbBlockEnd
  0
BLOCK
  5
3C81
330
3C77
100
AcDbEntity
  8
0
100
AcDbBlockBegin
  2
*D28
 70
     1
 10
0.0
 20
0.0
 30
0.0
  3
*D28
  1

  0
LINE
  5
5505
330
3C77
100
AcDbEntity
  8
sunpo
 62
     3
370
     9
100
AcDbLine
 10
975.176789825749
 20
560.2336948678821
 30
0.0
 11
975.176789825749
 21
552.2336948678821
 31
0.0
  0
LINE
  5
5506
330
3C77
100
AcDbEntity
  8
sunpo
 62
     3
370
     9
100
AcDbLine
 10
941.176789825749
 20
560.2336948678821
 30
0.0
 11
941.176789825749
 21
552.2336948678821
 31
0.0
  0
LINE
  5
5507
330
3C77
100
AcDbEntity
  8
sunpo
 62
     3
370
     9
100
AcDbLine
 10
975.176789825749
 20
554.2336948678821
 30
0.0
 11
941.176789825749
 21
554.2336948678821
 31
0.0
  0
INSERT
  5
5508
330
3C77
100
AcDbEntity
  8
sunpo
 62
     3
370
     9
100
AcDbBlockReference
  2
_DotSmall
 10
975.176789825749
 20
554.2336948678821
 30
0.0
 41
7.0
 42
7.0
 43
7.0
  0
INSERT
  5
5509
330
3C77
100
AcDbEntity
  8
sunpo
 62
     3
370
     9
100
AcDbBlockReference
  2
_DotSmall
 10
941.176789825749
 20
554.2336948678821
 30
0.0
 41
7.0
 42
7.0
 43
7.0
 50
180.0
  0
MTEXT
  5
550A
330
3C77
100
AcDbEntity
  8
sunpo
 62
     2
100
AcDbMText
 10
958.176789825749
 20
558.4336948678822
 30
0.0
 40
6.0
 41
0.0
 71
     5
 72
     1
  1
34
  7
Std
 73
     1
 44
1.0
  0
POINT
  5
550B
330
3C77
100
AcDbEntity
  8
Defpoints
 62
     0
100
AcDbPoint
 10
975.176789825749
 20
564.2336948678821
 30
0.0
  0
POINT
  5
550C
330
3C77
100
AcDbEntity
  8
Defpoints
 62
     0
100
AcDbPoint
 10
941.176789825749
 20
564.2336948678821
 30
0.0
  0
POINT
  5
550D
330
3C77
100
AcDbEntity
  8
Defpoints
 62
     0
100
AcDbPoint
 10
941.176789825749
 20
554.2336948678821
 30
0.0
  0
ENDBLK
  5
3C82
330
3C77
100
AcDbEntity
  8
0
100
AcDbBlockEnd
  0
BLOCK
  5
3C8D
330
3C83
100
AcDbEntity
  8
0
100
AcDbBlockBegin
  2
*D29
 70
     1
 10
0.0
 20
0.0
 30
0.0
  3
*D29
  1

  0
LINE
  5
54FC
330
3C83
100
AcDbEntity
  8
sunpo
 62
     3
370
     9
100
AcDbLine
 10
938.1767898257489
 20
560.2336948678821
 30
0.0
 11
938.1767898257489
 21
536.2336948678821
 31
0.0
  0
LINE
  5
54FD
330
3C83
100
AcDbEntity
  8
sunpo
 62
     3
370
     9
100
AcDbLine
 10
926.176789825749
 20
560.2336948678821
 30
0.0
 11
926.176789825749
 21
536.2336948678821
 31
0.0
  0
LINE
  5
54FE
330
3C83
100
AcDbEntity
  8
sunpo
 62
     3
370
     9
100
AcDbLine
 10
938.1767898257489
 20
538.2336948678821
 30
0.0
 11
926.176789825749
 21
538.2336948678821
 31
0.0
  0
MTEXT
  5
54FF
330
3C83
100
AcDbEntity
  8
sunpo
 62
     2
100
AcDbMText
 10
931.941909623622
 20
526.9596325082074
 30
0.0
 40
6.0
 41
0.0
 71
     5
 72
     1
  1
12
  7
Std
 73
     1
 44
1.0
  0
INSERT
  5
5500
330
3C83
100
AcDbEntity
  8
sunpo
 62
     3
370
     9
100
AcDbBlockReference
  2
_DotSmall
 10
938.1767898257489
 20
538.2336948678821
 30
0.0
 41
7.0
 42
7.0
 43
7.0
  0
INSERT
  5
5501
330
3C83
100
AcDbEntity
  8
sunpo
 62
     3
370
     9
100
AcDbBlockReference
  2
_DotSmall
 10
926.176789825749
 20
538.2336948678821
 30
0.0
 41
7.0
 42
7.0
 43
7.0
 50
180.0
  0
POINT
  5
5502
330
3C83
100
AcDbEntity
  8
Defpoints
 62
     0
100
AcDbPoint
 10
938.1767898257489
 20
564.2336948678821
 30
0.0
  0
POINT
  5
5503
330
3C83
100
AcDbEntity
  8
Defpoints
 62
     0
100
AcDbPoint
 10
926.176789825749
 20
564.2336948678821
 30
0.0
  0
POINT
  5
5504
330
3C83
100
AcDbEntity
  8
Defpoints
 62
     0
100
AcDbPoint
 10
926.176789825749
 20
538.2336948678821
 30
0.0
  0
ENDBLK
  5
3C8E
330
3C83
100
AcDbEntity
  8
0
100
AcDbBlockEnd
  0
BLOCK
  5
3C99
330
3C8F
100
AcDbEntity
  8
0
100
AcDbBlockBegin
  2
*D30
 70
     1
 10
0.0
 20
0.0
 30
0.0
  3
*D30
  1

  0
LINE
  5
54F3
330
3C8F
100
AcDbEntity
  8
sunpo
 62
     3
370
     9
100
AcDbLine
 10
926.176789825749
 20
560.2336948678821
 30
0.0
 11
926.176789825749
 21
536.2336948678821
 31
0.0
  0
LINE
  5
54F4
330
3C8F
100
AcDbEntity
  8
sunpo
 62
     3
370
     9
100
AcDbLine
 10
921.1767898257489
 20
560.3431466078309
 30
0.0
 11
921.1767898257489
 21
536.2336948678821
 31
0.0
  0
LINE
  5
54F5
330
3C8F
100
AcDbEntity
  8
sunpo
 62
     3
370
     9
100
AcDbLine
 10
926.176789825749
 20
538.2336948678821
 30
0.0
 11
921.1767898257489
 21
538.2336948678821
 31
0.0
  0
MTEXT
  5
54F6
330
3C8F
100
AcDbEntity
  8
sunpo
 62
     2
100
AcDbMText
 10
922.6169231519092
 20
531.0579082517051
 30
0.0
 40
6.0
 41
0.0
 71
     5
 72
     1
  1
5
  7
Std
 73
     1
 44
1.0
  0
INSERT
  5
54F7
330
3C8F
100
AcDbEntity
  8
sunpo
 62
     3
370
     9
100
AcDbBlockReference
  2
_DotSmall
 10
926.176789825749
 20
538.2336948678821
 30
0.0
 41
7.0
 42
7.0
 43
7.0
  0
INSERT
  5
54F8
330
3C8F
100
AcDbEntity
  8
sunpo
 62
     3
370
     9
100
AcDbBlockReference
  2
_DotSmall
 10
921.1767898257489
 20
538.2336948678821
 30
0.0
 41
7.0
 42
7.0
 43
7.0
 50
180.0
  0
POINT
  5
54F9
330
3C8F
100
AcDbEntity
  8
Defpoints
 62
     0
100
AcDbPoint
 10
926.176789825749
 20
564.2336948678821
 30
0.0
  0
POINT
  5
54FA
330
3C8F
100
AcDbEntity
  8
Defpoints
 62
     0
100
AcDbPoint
 10
921.1767898257489
 20
564.3431466078309
 30
0.0
  0
POINT
  5
54FB
330
3C8F
100
AcDbEntity
  8
Defpoints
 62
     0
100
AcDbPoint
 10
921.1767898257489
 20
538.2336948678821
 30
0.0
  0
ENDBLK
  5
3C9A
330
3C8F
100
AcDbEntity
  8
0
100
AcDbBlockEnd
  0
BLOCK
  5
3CA5
330
3C9B
100
AcDbEntity
  8
0
100
AcDbBlockBegin
  2
*D31
 70
     1
 10
0.0
 20
0.0
 30
0.0
  3
*D31
  1

  0
LINE
  5
54EA
330
3C9B
100
AcDbEntity
  8
sunpo
 62
     3
370
     9
100
AcDbLine
 10
938.1767898257489
 20
560.2336948678821
 30
0.0
 11
938.1767898257489
 21
536.2336948678821
 31
0.0
  0
LINE
  5
54EB
330
3C9B
100
AcDbEntity
  8
sunpo
 62
     3
370
     9
100
AcDbLine
 10
978.176789825749
 20
560.2336948678821
 30
0.0
 11
978.176789825749
 21
536.2336948678821
 31
0.0
  0
LINE
  5
54EC
330
3C9B
100
AcDbEntity
  8
sunpo
 62
     3
370
     9
100
AcDbLine
 10
938.1767898257489
 20
538.2336948678821
 30
0.0
 11
978.176789825749
 21
538.2336948678821
 31
0.0
  0
INSERT
  5
54ED
330
3C9B
100
AcDbEntity
  8
sunpo
 62
     3
370
     9
100
AcDbBlockReference
  2
_DotSmall
 10
938.1767898257489
 20
538.2336948678821
 30
0.0
 41
7.0
 42
7.0
 43
7.0
 50
180.0
  0
INSERT
  5
54EE
330
3C9B
100
AcDbEntity
  8
sunpo
 62
     3
370
     9
100
AcDbBlockReference
  2
_DotSmall
 10
978.176789825749
 20
538.2336948678821
 30
0.0
 41
7.0
 42
7.0
 43
7.0
  0
MTEXT
  5
54EF
330
3C9B
100
AcDbEntity
  8
sunpo
 62
     2
100
AcDbMText
 10
958.176789825749
 20
542.4336948678821
 30
0.0
 40
6.0
 41
0.0
 71
     5
 72
     1
  1
40
  7
Std
 73
     1
 44
1.0
  0
POINT
  5
54F0
330
3C9B
100
AcDbEntity
  8
Defpoints
 62
     0
100
AcDbPoint
 10
938.1767898257489
 20
564.2336948678821
 30
0.0
  0
POINT
  5
54F1
330
3C9B
100
AcDbEntity
  8
Defpoints
 62
     0
100
AcDbPoint
 10
978.176789825749
 20
564.2336948678821
 30
0.0
  0
POINT
  5
54F2
330
3C9B
100
AcDbEntity
  8
Defpoints
 62
     0
100
AcDbPoint
 10
978.176789825749
 20
538.2336948678821
 30
0.0
  0
ENDBLK
  5
3CA6
330
3C9B
100
AcDbEntity
  8
0
100
AcDbBlockEnd
  0
BLOCK
  5
3D5C
330
3D52
100
AcDbEntity
  8
0
100
AcDbBlockBegin
  2
*D32
 70
     1
 10
0.0
 20
0.0
 30
0.0
  3
*D32
  1

  0
LINE
  5
54E1
330
3D52
100
AcDbEntity
  8
sunpo
 62
     3
370
     9
100
AcDbLine
 10
978.176789825749
 20
560.2336948678821
 30
0.0
 11
978.176789825749
 21
536.2336948678821
 31
0.0
  0
LINE
  5
54E2
330
3D52
100
AcDbEntity
  8
sunpo
 62
     3
370
     9
100
AcDbLine
 10
998.1767898257489
 20
560.2336948678821
 30
0.0
 11
998.1767898257489
 21
536.2336948678821
 31
0.0
  0
LINE
  5
54E3
330
3D52
100
AcDbEntity
  8
sunpo
 62
     3
370
     9
100
AcDbLine
 10
978.176789825749
 20
538.2336948678821
 30
0.0
 11
998.1767898257489
 21
538.2336948678821
 31
0.0
  0
INSERT
  5
54E4
330
3D52
100
AcDbEntity
  8
sunpo
 62
     3
370
     9
100
AcDbBlockReference
  2
_DotSmall
 10
978.176789825749
 20
538.2336948678821
 30
0.0
 41
7.0
 42
7.0
 43
7.0
 50
180.0
  0
INSERT
  5
54E5
330
3D52
100
AcDbEntity
  8
sunpo
 62
     3
370
     9
100
AcDbBlockReference
  2
_DotSmall
 10
998.1767898257489
 20
538.2336948678821
 30
0.0
 41
7.0
 42
7.0
 43
7.0
  0
MTEXT
  5
54E6
330
3D52
100
AcDbEntity
  8
sunpo
 62
     2
100
AcDbMText
 10
988.1767898257489
 20
542.4336948678821
 30
0.0
 40
6.0
 41
0.0
 71
     5
 72
     1
  1
20
  7
Std
 73
     1
 44
1.0
  0
POINT
  5
54E7
330
3D52
100
AcDbEntity
  8
Defpoints
 62
     0
100
AcDbPoint
 10
978.176789825749
 20
564.2336948678821
 30
0.0
  0
POINT
  5
54E8
330
3D52
100
AcDbEntity
  8
Defpoints
 62
     0
100
AcDbPoint
 10
998.1767898257489
 20
564.2336948678821
 30
0.0
  0
POINT
  5
54E9
330
3D52
100
AcDbEntity
  8
Defpoints
 62
     0
100
AcDbPoint
 10
998.1767898257489
 20
538.2336948678821
 30
0.0
  0
ENDBLK
  5
3D5D
330
3D52
100
AcDbEntity
  8
0
100
AcDbBlockEnd
  0
BLOCK
  5
3D68
330
3D5E
100
AcDbEntity
  8
0
100
AcDbBlockBegin
  2
*D33
 70
     1
 10
0.0
 20
0.0
 30
0.0
  3
*D33
  1

  0
LINE
  5
54D8
330
3D5E
100
AcDbEntity
  8
sunpo
 62
     3
370
     9
100
AcDbLine
 10
1001.176789825749
 20
364.1616178012427
 30
0.0
 11
1001.176789825749
 21
356.1616178012428
 31
0.0
  0
LINE
  5
54D9
330
3D5E
100
AcDbEntity
  8
sunpo
 62
     3
370
     9
100
AcDbLine
 10
1035.176789825749
 20
364.1616178012427
 30
0.0
 11
1035.176789825749
 21
356.1616178012428
 31
0.0
  0
LINE
  5
54DA
330
3D5E
100
AcDbEntity
  8
sunpo
 62
     3
370
     9
100
AcDbLine
 10
1001.176789825749
 20
358.1616178012428
 30
0.0
 11
1035.176789825749
 21
358.1616178012428
 31
0.0
  0
INSERT
  5
54DB
330
3D5E
100
AcDbEntity
  8
sunpo
 62
     3
370
     9
100
AcDbBlockReference
  2
_DotSmall
 10
1001.176789825749
 20
358.1616178012428
 30
0.0
 41
7.0
 42
7.0
 43
7.0
 50
180.0
  0
INSERT
  5
54DC
330
3D5E
100
AcDbEntity
  8
sunpo
 62
     3
370
     9
100
AcDbBlockReference
  2
_DotSmall
 10
1035.176789825749
 20
358.1616178012428
 30
0.0
 41
7.0
 42
7.0
 43
7.0
  0
MTEXT
  5
54DD
330
3D5E
100
AcDbEntity
  8
sunpo
 62
     2
100
AcDbMText
 10
1018.176789825749
 20
362.3616178012428
 30
0.0
 40
6.0
 41
0.0
 71
     5
 72
     1
  1
34
  7
Std
 73
     1
 44
1.0
  0
POINT
  5
54DE
330
3D5E
100
AcDbEntity
  8
Defpoints
 62
     0
100
AcDbPoint
 10
1001.176789825749
 20
368.1616178012427
 30
0.0
  0
POINT
  5
54DF
330
3D5E
100
AcDbEntity
  8
Defpoints
 62
     0
100
AcDbPoint
 10
1035.176789825749
 20
368.1616178012427
 30
0.0
  0
POINT
  5
54E0
330
3D5E
100
AcDbEntity
  8
Defpoints
 62
     0
100
AcDbPoint
 10
1035.176789825749
 20
358.1616178012428
 30
0.0
  0
ENDBLK
  5
3D69
330
3D5E
100
AcDbEntity
  8
0
100
AcDbBlockEnd
  0
BLOCK
  5
3D74
330
3D6A
100
AcDbEntity
  8
0
100
AcDbBlockBegin
  2
*D34
 70
     1
 10
0.0
 20
0.0
 30
0.0
  3
*D34
  1

  0
LINE
  5
54CF
330
3D6A
100
AcDbEntity
  8
sunpo
 62
     3
370
     9
100
AcDbLine
 10
837.1767898257489
 20
280.197225038095
 30
0.0
 11
837.1767898257489
 21
344.1616178012428
 31
0.0
  0
LINE
  5
54D0
330
3D6A
100
AcDbEntity
  8
sunpo
 62
     3
370
     9
100
AcDbLine
 10
921.1767898257489
 20
335.6705196104649
 30
0.0
 11
921.1767898257489
 21
344.1616178012428
 31
0.0
  0
LINE
  5
54D1
330
3D6A
100
AcDbEntity
  8
sunpo
 62
     3
370
     9
100
AcDbLine
 10
837.1767898257489
 20
342.1616178012428
 30
0.0
 11
921.1767898257489
 21
342.1616178012428
 31
0.0
  0
INSERT
  5
54D2
330
3D6A
100
AcDbEntity
  8
sunpo
 62
     3
370
     9
100
AcDbBlockReference
  2
_DotSmall
 10
837.1767898257489
 20
342.1616178012428
 30
0.0
 41
7.0
 42
7.0
 43
7.0
 50
180.0
  0
INSERT
  5
54D3
330
3D6A
100
AcDbEntity
  8
sunpo
 62
     3
370
     9
100
AcDbBlockReference
  2
_DotSmall
 10
921.1767898257489
 20
342.1616178012428
 30
0.0
 41
7.0
 42
7.0
 43
7.0
  0
MTEXT
  5
54D4
330
3D6A
100
AcDbEntity
  8
sunpo
 62
     2
100
AcDbMText
 10
879.1767898257489
 20
346.3616178012427
 30
0.0
 40
6.0
 41
0.0
 71
     5
 72
     1
  1
84
  7
Std
 73
     1
 44
1.0
  0
POINT
  5
54D5
330
3D6A
100
AcDbEntity
  8
Defpoints
 62
     0
100
AcDbPoint
 10
837.1767898257489
 20
276.197225038095
 30
0.0
  0
POINT
  5
54D6
330
3D6A
100
AcDbEntity
  8
Defpoints
 62
     0
100
AcDbPoint
 10
921.1767898257489
 20
331.6705196104649
 30
0.0
  0
POINT
  5
54D7
330
3D6A
100
AcDbEntity
  8
Defpoints
 62
     0
100
AcDbPoint
 10
921.1767898257489
 20
342.1616178012428
 30
0.0
  0
ENDBLK
  5
3D75
330
3D6A
100
AcDbEntity
  8
0
100
AcDbBlockEnd
  0
BLOCK
  5
3D80
330
3D76
100
AcDbEntity
  8
0
100
AcDbBlockBegin
  2
*D35
 70
     1
 10
0.0
 20
0.0
 30
0.0
  3
*D35
  1

  0
LINE
  5
554A
330
3D76
100
AcDbEntity
  8
sunpo
 62
     3
370
     9
100
AcDbLine
 10
786.1184575270702
 20
253.0884444589701
 30
0.0
 11
744.7598279566463
 21
253.0884444589701
 31
0.0
  0
LINE
  5
554B
330
3D76
100
AcDbEntity
  8
sunpo
 62
     3
370
     9
100
AcDbLine
 10
786.1184575270702
 20
218.0884444589701
 30
0.0
 11
744.7598279566463
 21
218.0884444589701
 31
0.0
  0
LINE
  5
554C
330
3D76
100
AcDbEntity
  8
sunpo
 62
     3
370
     9
100
AcDbLine
 10
746.7598279566463
 20
253.0884444589701
 30
0.0
 11
746.7598279566463
 21
218.0884444589701
 31
0.0
  0
INSERT
  5
554D
330
3D76
100
AcDbEntity
  8
sunpo
 62
     3
370
     9
100
AcDbBlockReference
  2
_DotSmall
 10
746.7598279566463
 20
253.0884444589701
 30
0.0
 41
7.0
 42
7.0
 43
7.0
 50
90.0
  0
INSERT
  5
554E
330
3D76
100
AcDbEntity
  8
sunpo
 62
     3
370
     9
100
AcDbBlockReference
  2
_DotSmall
 10
746.7598279566463
 20
218.0884444589701
 30
0.0
 41
7.0
 42
7.0
 43
7.0
 50
270.0
  0
MTEXT
  5
554F
330
3D76
100
AcDbEntity
  8
sunpo
 62
     2
100
AcDbMText
 10
742.5598279566462
 20
235.5884444589702
 30
0.0
 40
6.0
 41
0.0
 71
     5
 72
     1
  1
35
  7
Std
 11
0.0000000000000001
 21
1.0
 31
0.0
 73
     1
 44
1.0
  0
POINT
  5
5550
330
3D76
100
AcDbEntity
  8
Defpoints
 62
     0
100
AcDbPoint
 10
790.1184575270702
 20
253.0884444589701
 30
0.0
  0
POINT
  5
5551
330
3D76
100
AcDbEntity
  8
Defpoints
 62
     0
100
AcDbPoint
 10
790.1184575270702
 20
218.0884444589701
 30
0.0
  0
POINT
  5
5552
330
3D76
100
AcDbEntity
  8
Defpoints
 62
     0
100
AcDbPoint
 10
746.7598279566463
 20
218.0884444589701
 30
0.0
  0
ENDBLK
  5
3D81
330
3D76
100
AcDbEntity
  8
0
100
AcDbBlockEnd
  0
BLOCK
  5
3D8C
330
3D82
100
AcDbEntity
  8
0
100
AcDbBlockBegin
  2
*D36
 70
     1
 10
0.0
 20
0.0
 30
0.0
  3
*D36
  1

  0
LINE
  5
54BD
330
3D82
100
AcDbEntity
  8
sunpo
 62
     3
370
     9
100
AcDbLine
 10
829.1767898257489
 20
240.9729828065956
 30
0.0
 11
795.8181602553249
 21
240.9729828065956
 31
0.0
  0
LINE
  5
54BE
330
3D82
100
AcDbEntity
  8
sunpo
 62
     3
370
     9
100
AcDbLine
 10
829.1767898257489
 20
215.9729828065956
 30
0.0
 11
795.8181602553249
 21
215.9729828065956
 31
0.0
  0
LINE
  5
54BF
330
3D82
100
AcDbEntity
  8
sunpo
 62
     3
370
     9
100
AcDbLine
 10
797.818160255325
 20
240.9729828065956
 30
0.0
 11
797.818160255325
 21
215.9729828065956
 31
0.0
  0
INSERT
  5
54C0
330
3D82
100
AcDbEntity
  8
sunpo
 62
     3
370
     9
100
AcDbBlockReference
  2
_DotSmall
 10
797.818160255325
 20
240.9729828065956
 30
0.0
 41
7.0
 42
7.0
 43
7.0
 50
90.0
  0
INSERT
  5
54C1
330
3D82
100
AcDbEntity
  8
sunpo
 62
     3
370
     9
100
AcDbBlockReference
  2
_DotSmall
 10
797.818160255325
 20
215.9729828065956
 30
0.0
 41
7.0
 42
7.0
 43
7.0
 50
270.0
  0
MTEXT
  5
54C2
330
3D82
100
AcDbEntity
  8
sunpo
 62
     2
100
AcDbMText
 10
793.6181602553249
 20
228.4729828065958
 30
0.0
 40
6.0
 41
0.0
 71
     5
 72
     1
  1
25
  7
Std
 11
0.0000000000000001
 21
1.0
 31
0.0
 73
     1
 44
1.0
  0
POINT
  5
54C3
330
3D82
100
AcDbEntity
  8
Defpoints
 62
     0
100
AcDbPoint
 10
833.176789825749
 20
240.9729828065956
 30
0.0
  0
POINT
  5
54C4
330
3D82
100
AcDbEntity
  8
Defpoints
 62
     0
100
AcDbPoint
 10
833.176789825749
 20
215.9729828065956
 30
0.0
  0
POINT
  5
54C5
330
3D82
100
AcDbEntity
  8
Defpoints
 62
     0
100
AcDbPoint
 10
797.818160255325
 20
215.9729828065956
 30
0.0
  0
ENDBLK
  5
3D8D
330
3D82
100
AcDbEntity
  8
0
100
AcDbBlockEnd
  0
BLOCK
  5
3D98
330
3D8E
100
AcDbEntity
  8
0
100
AcDbBlockBegin
  2
*D37
 70
     1
 10
0.0
 20
0.0
 30
0.0
  3
*D37
  1

  0
LINE
  5
54B4
330
3D8E
100
AcDbEntity
  8
sunpo
 62
     3
370
     9
100
AcDbLine
 10
921.1767898257489
 20
347.1616178012427
 30
0.0
 11
921.1767898257489
 21
340.1616178012428
 31
0.0
  0
LINE
  5
54B5
330
3D8E
100
AcDbEntity
  8
sunpo
 62
     3
370
     9
100
AcDbLine
 10
1053.176789825749
 20
364.1616178012427
 30
0.0
 11
1053.176789825749
 21
340.1616178012428
 31
0.0
  0
LINE
  5
54B6
330
3D8E
100
AcDbEntity
  8
sunpo
 62
     3
370
     9
100
AcDbLine
 10
921.1767898257489
 20
342.1616178012428
 30
0.0
 11
1053.176789825749
 21
342.1616178012428
 31
0.0
  0
INSERT
  5
54B7
330
3D8E
100
AcDbEntity
  8
sunpo
 62
     3
370
     9
100
AcDbBlockReference
  2
_DotSmall
 10
921.1767898257489
 20
342.1616178012428
 30
0.0
 41
7.0
 42
7.0
 43
7.0
 50
180.0
  0
INSERT
  5
54B8
330
3D8E
100
AcDbEntity
  8
sunpo
 62
     3
370
     9
100
AcDbBlockReference
  2
_DotSmall
 10
1053.176789825749
 20
342.1616178012428
 30
0.0
 41
7.0
 42
7.0
 43
7.0
  0
MTEXT
  5
54B9
330
3D8E
100
AcDbEntity
  8
sunpo
 62
     2
100
AcDbMText
 10
987.1767898257489
 20
346.3616178012427
 30
0.0
 40
6.0
 41
0.0
 71
     5
 72
     1
  1
132
  7
Std
 73
     1
 44
1.0
  0
POINT
  5
54BA
330
3D8E
100
AcDbEntity
  8
Defpoints
 62
     0
100
AcDbPoint
 10
921.1767898257489
 20
351.1616178012427
 30
0.0
  0
POINT
  5
54BB
330
3D8E
100
AcDbEntity
  8
Defpoints
 62
     0
100
AcDbPoint
 10
1053.176789825749
 20
368.1616178012427
 30
0.0
  0
POINT
  5
54BC
330
3D8E
100
AcDbEntity
  8
Defpoints
 62
     0
100
AcDbPoint
 10
1053.176789825749
 20
342.1616178012428
 30
0.0
  0
ENDBLK
  5
3D99
330
3D8E
100
AcDbEntity
  8
0
100
AcDbBlockEnd
  0
BLOCK
  5
3DA4
330
3D9A
100
AcDbEntity
  8
0
100
AcDbBlockBegin
  2
*D38
 70
     1
 10
0.0
 20
0.0
 30
0.0
  3
*D38
  1

  0
LINE
  5
54AB
330
3D9A
100
AcDbEntity
  8
sunpo
 62
     3
370
     9
100
AcDbLine
 10
897.1767898257489
 20
253.0884444589701
 30
0.0
 11
744.7598279566463
 21
253.0884444589701
 31
0.0
  0
LINE
  5
54AC
330
3D9A
100
AcDbEntity
  8
sunpo
 62
     3
370
     9
100
AcDbLine
 10
917.176789825749
 20
675.0909635336101
 30
0.0
 11
744.7598279566464
 21
675.0909635336102
 31
0.0
  0
LINE
  5
54AD
330
3D9A
100
AcDbEntity
  8
sunpo
 62
     3
370
     9
100
AcDbLine
 10
746.7598279566463
 20
253.0884444589701
 30
0.0
 11
746.7598279566463
 21
675.0909635336102
 31
0.0
  0
INSERT
  5
54AE
330
3D9A
100
AcDbEntity
  8
sunpo
 62
     3
370
     9
100
AcDbBlockReference
  2
_DotSmall
 10
746.7598279566463
 20
253.0884444589701
 30
0.0
 41
7.0
 42
7.0
 43
7.0
 50
270.0
  0
INSERT
  5
54AF
330
3D9A
100
AcDbEntity
  8
sunpo
 62
     3
370
     9
100
AcDbBlockReference
  2
_DotSmall
 10
746.7598279566463
 20
675.0909635336102
 30
0.0
 41
7.0
 42
7.0
 43
7.0
 50
90.0
  0
MTEXT
  5
54B0
330
3D9A
100
AcDbEntity
  8
sunpo
 62
     2
100
AcDbMText
 10
742.5598279566462
 20
464.0897039962903
 30
0.0
 40
6.0
 41
0.0
 71
     5
 72
     1
  1
H
  7
Std
 11
0.0000000000000001
 21
1.0
 31
0.0
 73
     1
 44
1.0
  0
POINT
  5
54B1
330
3D9A
100
AcDbEntity
  8
Defpoints
 62
     0
100
AcDbPoint
 10
901.176789825749
 20
253.0884444589701
 30
0.0
  0
POINT
  5
54B2
330
3D9A
100
AcDbEntity
  8
Defpoints
 62
     0
100
AcDbPoint
 10
921.1767898257489
 20
675.0909635336101
 30
0.0
  0
POINT
  5
54B3
330
3D9A
100
AcDbEntity
  8
Defpoints
 62
     0
100
AcDbPoint
 10
746.7598279566463
 20
675.0909635336102
 30
0.0
  0
ENDBLK
  5
3DA5
330
3D9A
100
AcDbEntity
  8
0
100
AcDbBlockEnd
  0
BLOCK
  5
3DAD
330
3DA6
100
AcDbEntity
  8
0
100
AcDbBlockBegin
  2
*D39
 70
     1
 10
0.0
 20
0.0
 30
0.0
  3
*D39
  1

  0
LINE
  5
543A
330
3DA6
100
AcDbEntity
  8
sunpo
 62
     3
370
     9
100
AcDbLine
 10
554.6190011640379
 20
542.6551512623832
 30
0.0
 11
532.9621351188827
 21
530.1659498025749
 31
0.0
  0
MTEXT
  5
543B
330
3DA6
100
AcDbEntity
  8
sunpo
 62
     2
100
AcDbMText
 10
539.554767758201
 20
541.8862472885945
 30
0.0
 40
6.0
 41
0.0
 71
     5
 72
     1
  1
\U+220525
  7
Std
 11
0.8662746418051861
 21
0.4995680583917434
 31
0.0
 73
     1
 44
1.0
  0
INSERT
  5
543C
330
3DA6
100
AcDbEntity
  8
sunpo
 62
     3
370
     9
100
AcDbBlockReference
  2
_DotSmall
 10
554.6190011640379
 20
542.6551512623832
 30
0.0
 41
7.0
 42
7.0
 43
7.0
 50
29.97142708539515
  0
INSERT
  5
543D
330
3DA6
100
AcDbEntity
  8
sunpo
 62
     3
370
     9
100
AcDbBlockReference
  2
_DotSmall
 10
532.9621351188827
 20
530.1659498025749
 30
0.0
 41
7.0
 42
7.0
 43
7.0
 50
209.9714270853952
  0
POINT
  5
543E
330
3DA6
100
AcDbEntity
  8
Defpoints
 62
     0
100
AcDbPoint
 10
532.9621351188827
 20
530.1659498025749
 30
0.0
  0
POINT
  5
543F
330
3DA6
100
AcDbEntity
  8
Defpoints
 62
     0
100
AcDbPoint
 10
554.6190011640379
 20
542.6551512623832
 30
0.0
  0
ENDBLK
  5
3DAE
330
3DA6
100
AcDbEntity
  8
0
100
AcDbBlockEnd
  0
BLOCK
  5
3DB9
330
3DAF
100
AcDbEntity
  8
0
100
AcDbBlockBegin
  2
*D40
 70
     1
 10
0.0
 20
0.0
 30
0.0
  3
*D40
  1

  0
LINE
  5
5431
330
3DAF
100
AcDbEntity
  8
sunpo
 62
     3
370
     9
100
AcDbLine
 10
107.6757735716819
 20
477.4105505324809
 30
0.0
 11
107.6757735716819
 21
409.4105505324827
 31
0.0
  0
LINE
  5
5432
330
3DAF
100
AcDbEntity
  8
sunpo
 62
     3
370
     9
100
AcDbLine
 10
142.6757735716819
 20
477.4105505324809
 30
0.0
 11
142.6757735716819
 21
409.4105505324827
 31
0.0
  0
LINE
  5
5433
330
3DAF
100
AcDbEntity
  8
sunpo
 62
     3
370
     9
100
AcDbLine
 10
107.6757735716819
 20
411.4105505324827
 30
0.0
 11
142.6757735716819
 21
411.4105505324827
 31
0.0
  0
INSERT
  5
5434
330
3DAF
100
AcDbEntity
  8
sunpo
 62
     3
370
     9
100
AcDbBlockReference
  2
_DotSmall
 10
107.6757735716819
 20
411.4105505324827
 30
0.0
 41
7.0
 42
7.0
 43
7.0
 50
180.0
  0
INSERT
  5
5435
330
3DAF
100
AcDbEntity
  8
sunpo
 62
     3
370
     9
100
AcDbBlockReference
  2
_DotSmall
 10
142.6757735716819
 20
411.4105505324827
 30
0.0
 41
7.0
 42
7.0
 43
7.0
  0
MTEXT
  5
5436
330
3DAF
100
AcDbEntity
  8
sunpo
 62
     2
100
AcDbMText
 10
125.1757735716819
 20
415.6105505324827
 30
0.0
 40
6.0
 41
0.0
 71
     5
 72
     1
  1
35
  7
Std
 73
     1
 44
1.0
  0
POINT
  5
5437
330
3DAF
100
AcDbEntity
  8
Defpoints
 62
     0
100
AcDbPoint
 10
107.6757735716819
 20
481.4105505324809
 30
0.0
  0
POINT
  5
5438
330
3DAF
100
AcDbEntity
  8
Defpoints
 62
     0
100
AcDbPoint
 10
142.6757735716819
 20
481.4105505324809
 30
0.0
  0
POINT
  5
5439
330
3DAF
100
AcDbEntity
  8
Defpoints
 62
     0
100
AcDbPoint
 10
142.6757735716819
 20
411.4105505324827
 30
0.0
  0
ENDBLK
  5
3DBA
330
3DAF
100
AcDbEntity
  8
0
100
AcDbBlockEnd
  0
BLOCK
  5
3DC5
330
3DBB
100
AcDbEntity
  8
0
100
AcDbBlockBegin
  2
*D41
 70
     1
 10
0.0
 20
0.0
 30
0.0
  3
*D41
  1

  0
LINE
  5
5426
330
3DBB
100
AcDbEntity
  8
sunpo
 62
     3
370
     9
100
AcDbLine
 10
140.6757735716819
 20
554.4105505324754
 30
0.0
 11
140.6757735716819
 21
427.9105505324809
 31
0.0
  0
LINE
  5
5427
330
3DBB
100
AcDbEntity
  8
sunpo
 62
     3
370
     9
100
AcDbLine
 10
142.6757735716933
 20
433.9105505324808
 30
0.0
 11
142.6757735716933
 21
431.9105505324809
 31
0.0
  0
LINE
  5
5428
330
3DBB
100
AcDbEntity
  8
sunpo
 62
     3
370
     9
100
AcDbLine
 10
140.6757735716819
 20
429.9105505324809
 30
0.0
 11
133.6757735716819
 21
429.9105505324809
 31
0.0
  0
LINE
  5
5429
330
3DBB
100
AcDbEntity
  8
sunpo
 62
     3
370
     9
100
AcDbLine
 10
142.6757735716933
 20
429.9105505324809
 30
0.0
 11
149.6757735716933
 21
429.9105505324809
 31
0.0
  0
MTEXT
  5
542A
330
3DBB
100
AcDbEntity
  8
sunpo
 62
     2
100
AcDbMText
 10
146.6757735716819
 20
433.0105505324812
 30
0.0
 40
6.0
 41
0.0
 71
     5
 72
     1
  1
2
  7
Std
 73
     1
 44
1.0
  0
LINE
  5
542B
330
3DBB
100
AcDbEntity
  8
sunpo
 62
     3
370
     9
100
AcDbLine
 10
140.6757735716819
 20
429.9105505324809
 30
0.0
 11
142.6757735716933
 21
429.9105505324809
 31
0.0
  0
INSERT
  5
542C
330
3DBB
100
AcDbEntity
  8
sunpo
 62
     3
370
     9
100
AcDbBlockReference
  2
_DotSmall
 10
140.6757735716819
 20
429.9105505324809
 30
0.0
 41
7.0
 42
7.0
 43
7.0
  0
INSERT
  5
542D
330
3DBB
100
AcDbEntity
  8
sunpo
 62
     3
370
     9
100
AcDbBlockReference
  2
_DotSmall
 10
142.6757735716933
 20
429.9105505324809
 30
0.0
 41
7.0
 42
7.0
 43
7.0
 50
180.0
  0
POINT
  5
542E
330
3DBB
100
AcDbEntity
  8
Defpoints
 62
     0
100
AcDbPoint
 10
140.6757735716819
 20
558.4105505324754
 30
0.0
  0
POINT
  5
542F
330
3DBB
100
AcDbEntity
  8
Defpoints
 62
     0
100
AcDbPoint
 10
142.6757735716933
 20
429.9105505324809
 30
0.0
  0
POINT
  5
5430
330
3DBB
100
AcDbEntity
  8
Defpoints
 62
     0
100
AcDbPoint
 10
142.6757735716933
 20
429.9105505324809
 30
0.0
  0
ENDBLK
  5
3DC6
330
3DBB
100
AcDbEntity
  8
0
100
AcDbBlockEnd
  0
BLOCK
  5
3DD1
330
3DC7
100
AcDbEntity
  8
0
100
AcDbBlockBegin
  2
*D42
 70
     1
 10
0.0
 20
0.0
 30
0.0
  3
*D42
  1

  0
LINE
  5
541D
330
3DC7
100
AcDbEntity
  8
sunpo
 62
     3
370
     9
100
AcDbLine
 10
543.7905681414585
 20
457.77048176401
 30
0.0
 11
543.7905681414585
 21
453.77048176401
 31
0.0
  0
LINE
  5
541E
330
3DC7
100
AcDbEntity
  8
sunpo
 62
     3
370
     9
100
AcDbLine
 10
608.7905681414586
 20
457.77048176401
 30
0.0
 11
608.7905681414586
 21
453.77048176401
 31
0.0
  0
LINE
  5
541F
330
3DC7
100
AcDbEntity
  8
sunpo
 62
     3
370
     9
100
AcDbLine
 10
543.7905681414585
 20
455.7704817640099
 30
0.0
 11
608.7905681414586
 21
455.7704817640099
 31
0.0
  0
INSERT
  5
5420
330
3DC7
100
AcDbEntity
  8
sunpo
 62
     3
370
     9
100
AcDbBlockReference
  2
_DotSmall
 10
543.7905681414585
 20
455.7704817640099
 30
0.0
 41
7.0
 42
7.0
 43
7.0
 50
180.0
  0
INSERT
  5
5421
330
3DC7
100
AcDbEntity
  8
sunpo
 62
     3
370
     9
100
AcDbBlockReference
  2
_DotSmall
 10
608.7905681414586
 20
455.7704817640099
 30
0.0
 41
7.0
 42
7.0
 43
7.0
  0
MTEXT
  5
5422
330
3DC7
100
AcDbEntity
  8
sunpo
 62
     2
100
AcDbMText
 10
576.2905681414586
 20
459.97048176401
 30
0.0
 40
6.0
 41
0.0
 71
     5
 72
     1
  1
65
  7
Std
 73
     1
 44
1.0
  0
POINT
  5
5423
330
3DC7
100
AcDbEntity
  8
Defpoints
 62
     0
100
AcDbPoint
 10
543.7905681414585
 20
461.77048176401
 30
0.0
  0
POINT
  5
5424
330
3DC7
100
AcDbEntity
  8
Defpoints
 62
     0
100
AcDbPoint
 10
608.7905681414586
 20
461.77048176401
 30
0.0
  0
POINT
  5
5425
330
3DC7
100
AcDbEntity
  8
Defpoints
 62
     0
100
AcDbPoint
 10
608.7905681414586
 20
455.7704817640099
 30
0.0
  0
ENDBLK
  5
3DD2
330
3DC7
100
AcDbEntity
  8
0
100
AcDbBlockEnd
  0
BLOCK
  5
52C2
330
52B8
100
AcDbEntity
  8
0
100
AcDbBlockBegin
  2
*D43
 70
     1
 10
0.0
 20
0.0
 30
0.0
  3
*D43
  1

  0
LINE
  5
52C4
330
52B8
100
AcDbEntity
  8
sunpo
 62
     3
370
     9
100
AcDbLine
 10
191.4014666477217
 20
152.6835589276197
 30
0.0
 11
183.4014666477217
 21
152.6835589276197
 31
0.0
  0
LINE
  5
52C5
330
52B8
100
AcDbEntity
  8
sunpo
 62
     3
370
     9
100
AcDbLine
 10
195.4014666477217
 20
332.6835589276305
 30
0.0
 11
183.4014666477217
 21
332.6835589276305
 31
0.0
  0
LINE
  5
52C6
330
52B8
100
AcDbEntity
  8
sunpo
 62
     3
370
     9
100
AcDbLine
 10
185.4014666477217
 20
152.6835589276197
 30
0.0
 11
185.4014666477217
 21
332.6835589276305
 31
0.0
  0
INSERT
  5
52C7
330
52B8
100
AcDbEntity
  8
sunpo
 62
     3
370
     9
100
AcDbBlockReference
  2
_DotSmall
 10
185.4014666477217
 20
152.6835589276197
 30
0.0
 41
6.0
 42
6.0
 43
6.0
 50
270.0
  0
INSERT
  5
52C8
330
52B8
100
AcDbEntity
  8
sunpo
 62
     3
370
     9
100
AcDbBlockReference
  2
_DotSmall
 10
185.4014666477217
 20
332.6835589276305
 30
0.0
 41
6.0
 42
6.0
 43
6.0
 50
90.0
  0
MTEXT
  5
52C9
330
52B8
100
AcDbEntity
  8
sunpo
 62
     2
100
AcDbMText
 10
181.9014666477217
 20
242.6835589276251
 30
0.0
 40
5.0
 41
0.0
 71
     5
 72
     1
  1
H
  7
Std
 11
0.0000000000000001
 21
1.0
 31
0.0
 73
     1
 44
1.0
  0
POINT
  5
52CA
330
52B8
100
AcDbEntity
  8
Defpoints
 62
     0
100
AcDbPoint
 10
195.4014666477217
 20
152.6835589276196
 30
0.0
  0
POINT
  5
52CB
330
52B8
100
AcDbEntity
  8
Defpoints
 62
     0
100
AcDbPoint
 10
199.4014666477217
 20
332.6835589276305
 30
0.0
  0
POINT
  5
52CC
330
52B8
100
AcDbEntity
  8
Defpoints
 62
     0
100
AcDbPoint
 10
185.4014666477217
 20
332.6835589276305
 30
0.0
  0
ENDBLK
  5
52C3
330
52B8
100
AcDbEntity
  8
0
100
AcDbBlockEnd
  0
ENDSEC
  0
SECTION
  2
ENTITIES
  0
LWPOLYLINE
  5
CE
330
1F
100
AcDbEntity
  8
hojo
100
AcDbPolyline
 90
        4
 70
     1
 43
0.0
 10
0.0
 20
0.0
 10
1188.0
 20
0.0
 10
1188.0
 20
840.0
 10
0.0
 20
840.0
  0
MTEXT
  5
1C5F
330
1F
100
AcDbEntity
  8
wakumoji
100
AcDbMText
 10
998.5000000000004
 20
65.00000000000001
 30
0.0
 40
12.38095238095238
 41
196.0
 71
     5
 72
     5
  1
　　二葉工業株式会社
  7
gothic
 73
     1
 44
1.0
  0
SPLINE
  5
1C60
330
1F
100
AcDbEntity
  8
hojo
370
    -2
100
AcDbSpline
210
0.0
220
0.0
230
1.0
 70
    11
 71
     3
 72
    20
 73
    16
 74
     0
 42
0.0000000001
 43
0.0000000001
 40
0.0
 40
0.0
 40
0.0
 40
0.0
 40
1.0
 40
1.0
 40
1.0
 40
2.0
 40
2.0
 40
2.0
 40
3.0
 40
3.0
 40
3.0
 40
4.0
 40
4.0
 40
4.0
 40
5.0
 40
5.0
 40
5.0
 40
5.0
 10
928.831711476184
 20
58.87308069585124
 30
0.0
 10
928.831711476184
 20
58.87308069585124
 30
0.0
 10
928.2625324862284
 20
58.40110261425434
 30
0.0
 10
928.2625324862284
 20
58.40110261425434
 30
0.0
 10
928.2625324862284
 20
58.40110261425434
 30
0.0
 10
928.7532125147508
 20
57.80953050363897
 30
0.0
 10
928.7532125147508
 20
57.80953050363897
 30
0.0
 10
928.7532125147508
 20
57.80953050363897
 30
0.0
 10
929.3226375829549
 20
58.28175466348548
 30
0.0
 10
929.3226375829549
 20
58.28175466348548
 30
0.0
 10
929.5017825482327
 20
58.43063200413526
 30
0.0
 10
929.6137481515316
 20
58.66096124520628
 30
0.0
 10
929.4277129952815
 20
58.8851385300528
 30
0.0
 10
929.2229758921067
 20
59.13170893555871
 30
0.0
 10
928.9719760781185
 20
58.98947570763194
 30
0.0
 10
928.831711476184
 20
58.87308069585124
 30
0.0
  0
POLYLINE
  5
1C61
330
1F
100
AcDbEntity
  8
hojo
370
     0
100
AcDb2dPolyline
 66
     1
 10
0.0
 20
0.0
 30
0.0
 70
     1
  0
VERTEX
  5
1C62
330
1C61
100
AcDbEntity
  8
hojo
370
     0
100
AcDbVertex
100
AcDb2dVertex
 10
931.0309127875679
 20
61.32869554270147
 30
0.0
  0
VERTEX
  5
1C63
330
1C61
100
AcDbEntity
  8
hojo
370
     0
100
AcDbVertex
100
AcDb2dVertex
 10
931.3355576598391
 20
62.08587831489895
 30
0.0
  0
VERTEX
  5
1C64
330
1C61
100
AcDbEntity
  8
hojo
370
     0
100
AcDbVertex
100
AcDb2dVertex
 10
930.0072272716953
 20
62.18037236251802
 30
0.0
  0
SEQEND
  5
1C65
330
1C61
100
AcDbEntity
  8
hojo
370
     0
  0
POLYLINE
  5
1C66
330
1F
100
AcDbEntity
  8
hojo
370
    -2
100
AcDb2dPolyline
 66
     1
 10
0.0
 20
0.0
 30
0.0
 70
     1
  0
VERTEX
  5
1C67
330
1C66
100
AcDbEntity
  8
hojo
370
    -2
100
AcDbVertex
100
AcDb2dVertex
 10
924.9628692452807
 20
56.75483912839118
 30
0.0
  0
VERTEX
  5
1C68
330
1C66
100
AcDbEntity
  8
hojo
370
    -2
100
AcDbVertex
100
AcDb2dVertex
 10
925.7599166938179
 20
56.9307850764315
 30
0.0
  0
VERTEX
  5
1C69
330
1C66
100
AcDbEntity
  8
hojo
370
    -2
100
AcDbVertex
100
AcDb2dVertex
 10
925.088123074026
 20
58.08070873404577
 30
0.0
  0
SEQEND
  5
1C6A
330
1C66
100
AcDbEntity
  8
hojo
370
    -2
  0
SPLINE
  5
1C6B
330
1F
100
AcDbEntity
  8
hojo
370
    -2
100
AcDbSpline
210
0.0
220
0.0
230
1.0
 70
    11
 71
     3
 72
    20
 73
    16
 74
     0
 42
0.0000000001
 43
0.0000000001
 40
0.0
 40
0.0
 40
0.0
 40
0.0
 40
1.0
 40
1.0
 40
1.0
 40
2.0
 40
2.0
 40
2.0
 40
3.0
 40
3.0
 40
3.0
 40
4.0
 40
4.0
 40
4.0
 40
5.0
 40
5.0
 40
5.0
 40
5.0
 10
928.610487130326
 20
59.69325949979467
 30
0.0
 10
928.5314960123942
 20
59.78873786041003
 30
0.0
 10
928.3567804555987
 20
59.91349953265672
 30
0.0
 10
928.1296502317646
 20
59.72500359391706
 30
0.0
 10
928.1296502317646
 20
59.72500359391706
 30
0.0
 10
927.5577643810697
 20
59.25056472982942
 30
0.0
 10
927.5577643810697
 20
59.25056472982942
 30
0.0
 10
927.5577643810697
 20
59.25056472982942
 30
0.0
 10
928.0019356205293
 20
58.71509845998808
 30
0.0
 10
928.0019356205293
 20
58.71509845998808
 30
0.0
 10
928.0019356205293
 20
58.71509845998808
 30
0.0
 10
928.5740675494725
 20
59.18953732407536
 30
0.0
 10
928.5740675494725
 20
59.18953732407536
 30
0.0
 10
928.7815115133863
 20
59.3617920983812
 30
0.0
 10
928.710640977672
 20
59.57268115778098
 30
0.0
 10
928.610487130326
 20
59.69325949979467
 30
0.0
  0
POLYLINE
  5
1C6C
330
1F
100
AcDbEntity
  8
hojo
370
     0
100
AcDb2dPolyline
 66
     1
 10
0.0
 20
0.0
 30
0.0
 70
     1
  0
VERTEX
  5
1C6D
330
1C6C
100
AcDbEntity
  8
hojo
370
     0
100
AcDbVertex
100
AcDb2dVertex
 10
931.8252533753657
 20
60.66772936586639
 30
0.0
  0
VERTEX
  5
1C6E
330
1C6C
100
AcDbEntity
  8
hojo
370
     0
100
AcDbVertex
100
AcDb2dVertex
 10
931.5725310136345
 20
60.03924551790006
 30
0.0
  0
VERTEX
  5
1C6F
330
1C6C
100
AcDbEntity
  8
hojo
370
     0
100
AcDbVertex
100
AcDb2dVertex
 10
929.2965532885601
 20
62.07357440244852
 30
0.0
  0
VERTEX
  5
1C70
330
1C6C
100
AcDbEntity
  8
hojo
370
     0
100
AcDbVertex
100
AcDb2dVertex
 10
929.5697001449589
 20
62.7527503697107
 30
0.0
  0
VERTEX
  5
1C71
330
1C6C
100
AcDbEntity
  8
hojo
370
     0
100
AcDbVertex
100
AcDb2dVertex
 10
932.62033219791
 20
62.64472201839598
 30
0.0
  0
VERTEX
  5
1C72
330
1C6C
100
AcDbEntity
  8
hojo
370
     0
100
AcDbVertex
100
AcDb2dVertex
 10
932.3676098361788
 20
62.01623817042964
 30
0.0
  0
VERTEX
  5
1C73
330
1C6C
100
AcDbEntity
  8
hojo
370
     0
100
AcDbVertex
100
AcDb2dVertex
 10
931.8136876976623
 20
62.0543802990258
 30
0.0
  0
VERTEX
  5
1C74
330
1C6C
100
AcDbEntity
  8
hojo
370
     0
100
AcDbVertex
100
AcDb2dVertex
 10
931.3990458480834
 20
61.0235585139315
 30
0.0
  0
SEQEND
  5
1C75
330
1C6C
100
AcDbEntity
  8
hojo
370
     0
  0
SPLINE
  5
1C76
330
1F
100
AcDbEntity
  8
hojo
370
     0
100
AcDbSpline
210
0.0
220
0.0
230
1.0
 70
    11
 71
     3
 72
    29
 73
    25
 74
     0
 42
0.0000000001
 43
0.0000000001
 40
0.0
 40
0.0
 40
0.0
 40
0.0
 40
1.0
 40
1.0
 40
1.0
 40
2.0
 40
2.0
 40
2.0
 40
3.0
 40
3.0
 40
3.0
 40
4.0
 40
4.0
 40
4.0
 40
5.0
 40
5.0
 40
5.0
 40
6.0
 40
6.0
 40
6.0
 40
7.0
 40
7.0
 40
7.0
 40
8.0
 40
8.0
 40
8.0
 40
8.0
 10
929.8150401592202
 20
58.04207444895147
 30
0.0
 10
929.8150401592202
 20
58.04207444895147
 30
0.0
 10
928.5674234367492
 20
57.00657717712601
 30
0.0
 10
928.5674234367492
 20
57.00657717712601
 30
0.0
 10
928.5674234367492
 20
57.00657717712601
 30
0.0
 10
926.7343865598896
 20
59.21586769671922
 30
0.0
 10
926.7343865598896
 20
59.21586769671922
 30
0.0
 10
926.7343865598896
 20
59.21586769671922
 30
0.0
 10
927.9231905808465
 20
60.20214931874325
 30
0.0
 10
927.9231905808465
 20
60.20214931874325
 30
0.0
 10
928.3548118296065
 20
60.56019317104983
 30
0.0
 10
928.8137477640066
 20
60.54345985011714
 30
0.0
 10
929.0881250116504
 20
60.21273068345036
 30
0.0
 10
929.3556120683215
 20
59.89036817724991
 30
0.0
 10
929.2057504146765
 20
59.61451446011233
 30
0.0
 10
929.1338955659657
 20
59.47917142315782
 30
0.0
 10
929.2601337077071
 20
59.53183216844554
 30
0.0
 10
929.3241140524488
 20
59.5517645066153
 30
0.0
 10
929.4304198560208
 20
59.55471744560346
 30
0.0
 10
929.6358951939419
 20
59.56406841906574
 30
0.0
 10
929.8455538620974
 20
59.48261651864378
 30
0.0
 10
930.0106723671811
 20
59.28353921519665
 30
0.0
 10
930.3246682129152
 20
58.90507086822253
 30
0.0
 10
930.2439545472402
 20
58.39765751876803
 30
0.0
 10
929.8150401592202
 20
58.04207444895147
 30
0.0
  0
POLYLINE
  5
1C77
330
1F
100
AcDbEntity
  8
hojo
370
     0
100
AcDb2dPolyline
 66
     1
 10
0.0
 20
0.0
 30
0.0
 70
     1
  0
VERTEX
  5
1C78
330
1C77
100
AcDbEntity
  8
hojo
370
     0
100
AcDbVertex
100
AcDb2dVertex
 10
926.2848015989511
 20
56.0392435802758
 30
0.0
  0
VERTEX
  5
1C79
330
1C77
100
AcDbEntity
  8
hojo
370
     0
100
AcDbVertex
100
AcDb2dVertex
 10
926.0037802385845
 20
56.51835793109421
 30
0.0
  0
VERTEX
  5
1C7A
330
1C77
100
AcDbEntity
  8
hojo
370
     0
100
AcDbVertex
100
AcDb2dVertex
 10
924.9188212387089
 20
56.27867771656092
 30
0.0
  0
VERTEX
  5
1C7B
330
1C77
100
AcDbEntity
  8
hojo
370
     0
100
AcDbVertex
100
AcDb2dVertex
 10
924.8654222586738
 20
55.72623204753764
 30
0.0
  0
VERTEX
  5
1C7C
330
1C77
100
AcDbEntity
  8
hojo
370
     0
100
AcDbVertex
100
AcDb2dVertex
 10
924.2037178470914
 20
55.58006156762712
 30
0.0
  0
VERTEX
  5
1C7D
330
1C77
100
AcDbEntity
  8
hojo
370
     0
100
AcDbVertex
100
AcDb2dVertex
 10
924.5989195149983
 20
58.60707010867372
 30
0.0
  0
VERTEX
  5
1C7E
330
1C77
100
AcDbEntity
  8
hojo
370
     0
100
AcDbVertex
100
AcDb2dVertex
 10
925.3140229066152
 20
58.76480626628763
 30
0.0
  0
VERTEX
  5
1C7F
330
1C77
100
AcDbEntity
  8
hojo
370
     0
100
AcDbVertex
100
AcDb2dVertex
 10
926.9465060105339
 20
56.18541406018668
 30
0.0
  0
SEQEND
  5
1C80
330
1C77
100
AcDbEntity
  8
hojo
370
     0
  0
SPLINE
  5
1C81
330
1F
100
AcDbEntity
  8
hojo
370
     0
100
AcDbSpline
210
0.0
220
0.0
230
1.0
 70
    11
 71
     3
 72
    41
 73
    37
 74
     0
 42
0.0000000001
 43
0.0000000001
 40
0.0
 40
0.0
 40
0.0
 40
0.0
 40
1.0
 40
1.0
 40
1.0
 40
2.0
 40
2.0
 40
2.0
 40
3.0
 40
3.0
 40
3.0
 40
4.0
 40
4.0
 40
4.0
 40
5.0
 40
5.0
 40
5.0
 40
6.0
 40
6.0
 40
6.0
 40
7.0
 40
7.0
 40
7.0
 40
8.0
 40
8.0
 40
8.0
 40
9.0
 40
9.0
 40
9.0
 40
10.0
 40
10.0
 40
10.0
 40
11.0
 40
11.0
 40
11.0
 40
12.0
 40
12.0
 40
12.0
 40
12.0
 10
915.1059589030197
 20
64.95613501132758
 30
0.0
 10
914.3183854670697
 20
65.16161034924917
 30
0.0
 10
914.2678163868982
 20
65.52137674929873
 30
0.0
 10
914.2653556044082
 20
65.86219512417485
 30
0.0
 10
914.2552663961991
 20
67.18326620397384
 30
0.0
 10
915.2668940778708
 20
69.3806219284903
 30
0.0
 10
915.521831143843
 20
69.78332898299196
 30
0.0
 10
916.2626497124811
 20
70.9534310570245
 30
0.0
 10
917.640441828677
 20
72.42325643834885
 30
0.0
 10
918.5921494567146
 20
72.83273064469831
 30
0.0
 10
918.9184492148992
 20
72.97311828575693
 30
0.0
 10
919.1042382929003
 20
72.85758454784811
 30
0.0
 10
919.248686225068
 20
72.63869794535532
 30
0.0
 10
919.248686225068
 20
72.63869794535532
 30
0.0
 10
922.7518561779447
 20
66.00504354772384
 30
0.0
 10
923.0828314228606
 20
65.65844233399622
 30
0.0
 10
923.3581929835004
 20
65.37016166528339
 30
0.0
 10
923.6121457364765
 20
65.41113369374325
 30
0.0
 10
923.8478886990261
 20
65.68403447189304
 30
0.0
 10
924.1225120249191
 20
66.00196756961124
 30
0.0
 10
925.3273111320622
 20
67.88926470037769
 30
0.0
 10
927.9187611723651
 20
72.42239516447735
 30
0.0
 10
928.0169463937191
 20
72.59440386053395
 30
0.0
 10
928.1660698126174
 20
72.74131257519186
 30
0.0
 10
928.5765283319625
 20
72.55675388843593
 30
0.0
 10
929.6262981422305
 20
72.08428365034052
 30
0.0
 10
931.0461696390065
 20
70.21285856663526
 30
0.0
 10
931.7873573250185
 20
68.69369449638471
 30
0.0
 10
932.2930481267293
 20
67.65672075506519
 30
0.0
 10
932.6114733809463
 20
65.70064475370092
 30
0.0
 10
932.5898184950338
 20
65.20688874706685
 30
0.0
 10
932.5745616435952
 20
64.85462773361179
 30
0.0
 10
932.3304520205788
 20
64.81070276616375
 30
0.0
 10
932.088311023555
 20
64.78043514153616
 30
0.0
 10
932.088311023555
 20
64.78043514153616
 30
0.0
 10
915.1059589030197
 20
64.95613501132758
 30
0.0
 10
915.1059589030197
 20
64.95613501132758
 30
0.0
  0
POLYLINE
  5
1C82
330
1F
100
AcDbEntity
  8
hojo
370
     0
100
AcDb2dPolyline
 66
     1
 10
0.0
 20
0.0
 30
0.0
 70
     1
  0
VERTEX
  5
1C83
330
1C82
100
AcDbEntity
  8
hojo
370
     0
100
AcDbVertex
100
AcDb2dVertex
 10
923.0859074009732
 20
57.8848304478357
 30
0.0
  0
VERTEX
  5
1C84
330
1C82
100
AcDbEntity
  8
hojo
370
     0
100
AcDbVertex
100
AcDb2dVertex
 10
922.1430585898993
 20
58.10826949793483
 30
0.0
  0
VERTEX
  5
1C85
330
1C82
100
AcDbEntity
  8
hojo
370
     0
100
AcDbVertex
100
AcDb2dVertex
 10
921.604024185447
 20
55.83647510309347
 30
0.0
  0
VERTEX
  5
1C86
330
1C82
100
AcDbEntity
  8
hojo
370
     0
100
AcDbVertex
100
AcDb2dVertex
 10
920.9623751511589
 20
55.98879753922957
 30
0.0
  0
VERTEX
  5
1C87
330
1C82
100
AcDbEntity
  8
hojo
370
     0
100
AcDbVertex
100
AcDb2dVertex
 10
921.5015325947351
 20
58.26059193407054
 30
0.0
  0
VERTEX
  5
1C88
330
1C82
100
AcDbEntity
  8
hojo
370
     0
100
AcDbVertex
100
AcDb2dVertex
 10
920.5586837836618
 20
58.48427706241856
 30
0.0
  0
VERTEX
  5
1C89
330
1C82
100
AcDbEntity
  8
hojo
370
     0
100
AcDbVertex
100
AcDb2dVertex
 10
920.6822150646635
 20
59.00547079381758
 30
0.0
  0
VERTEX
  5
1C8A
330
1C82
100
AcDbEntity
  8
hojo
370
     0
100
AcDbVertex
100
AcDb2dVertex
 10
923.2094386819749
 20
58.40602417923438
 30
0.0
  0
SEQEND
  5
1C8B
330
1C82
100
AcDbEntity
  8
hojo
370
     0
  0
SPLINE
  5
1C8C
330
1F
100
AcDbEntity
  8
hojo
370
     0
100
AcDbSpline
210
0.0
220
0.0
230
1.0
 70
    11
 71
     3
 72
    35
 73
    31
 74
     0
 42
0.0000000001
 43
0.0000000001
 40
0.0
 40
0.0
 40
0.0
 40
0.0
 40
1.0
 40
1.0
 40
1.0
 40
2.0
 40
2.0
 40
2.0
 40
3.0
 40
3.0
 40
3.0
 40
4.0
 40
4.0
 40
4.0
 40
5.0
 40
5.0
 40
5.0
 40
6.0
 40
6.0
 40
6.0
 40
7.0
 40
7.0
 40
7.0
 40
8.0
 40
8.0
 40
8.0
 40
9.0
 40
9.0
 40
9.0
 40
10.0
 40
10.0
 40
10.0
 40
10.0
 10
919.1250319049418
 20
57.86022262293482
 30
0.0
 10
918.6081445429003
 20
57.2573309128653
 30
0.0
 10
917.945455818322
 20
57.30728479741374
 30
0.0
 10
917.3398572475134
 20
57.82650990282054
 30
0.0
 10
916.8586512315782
 20
58.23918312640671
 30
0.0
 10
916.4643108375431
 20
58.89842675549918
 30
0.0
 10
917.0783991079424
 20
59.61476053836122
 30
0.0
 10
917.0783991079424
 20
59.61476053836122
 30
0.0
 10
918.2258619830664
 20
60.95342621296442
 30
0.0
 10
918.2258619830664
 20
60.95342621296442
 30
0.0
 10
918.2258619830664
 20
60.95342621296442
 30
0.0
 10
918.7236782808096
 20
60.52672652918483
 30
0.0
 10
918.7236782808096
 20
60.52672652918483
 30
0.0
 10
918.7236782808096
 20
60.52672652918483
 30
0.0
 10
917.5501311112903
 20
59.15779322995368
 30
0.0
 10
917.5501311112903
 20
59.15779322995368
 30
0.0
 10
917.2537298603611
 20
58.81205329009754
 30
0.0
 10
917.4465321684579
 20
58.45474767253763
 30
0.0
 10
917.6789530746459
 20
58.25542429084163
 30
0.0
 10
918.1047914845544
 20
57.89049024756241
 30
0.0
 10
918.442656920442
 20
58.06619011735456
 30
0.0
 10
918.6038381735428
 20
58.25443997784532
 30
0.0
 10
918.6038381735428
 20
58.25443997784532
 30
0.0
 10
919.7773853430616
 20
59.62361935532536
 30
0.0
 10
919.7773853430616
 20
59.62361935532536
 30
0.0
 10
919.7773853430616
 20
59.62361935532536
 30
0.0
 10
920.2723717409412
 20
59.19913437578689
 30
0.0
 10
920.2723717409412
 20
59.19913437578689
 30
0.0
 10
920.2723717409412
 20
59.19913437578689
 30
0.0
 10
919.1250319049418
 20
57.86022262293482
 30
0.0
 10
919.1250319049418
 20
57.86022262293482
 30
0.0
  0
POLYLINE
  5
1C8D
330
1F
100
AcDbEntity
  8
hojo
370
     0
100
AcDb2dPolyline
 66
     1
 10
0.0
 20
0.0
 30
0.0
 70
     1
  0
VERTEX
  5
1C8E
330
1C8D
100
AcDbEntity
  8
hojo
370
     0
100
AcDbVertex
100
AcDb2dVertex
 10
916.2300443444873
 20
60.95637915195258
 30
0.0
  0
VERTEX
  5
1C8F
330
1C8D
100
AcDbEntity
  8
hojo
370
     0
100
AcDbVertex
100
AcDb2dVertex
 10
915.6880570010471
 20
62.10261163583126
 30
0.0
  0
VERTEX
  5
1C90
330
1C8D
100
AcDbEntity
  8
hojo
370
     0
100
AcDbVertex
100
AcDb2dVertex
 10
914.6704004022749
 20
61.62128258077209
 30
0.0
  0
VERTEX
  5
1C91
330
1C8D
100
AcDbEntity
  8
hojo
370
     0
100
AcDbVertex
100
AcDb2dVertex
 10
914.3901172766545
 20
62.21408508263194
 30
0.0
  0
VERTEX
  5
1C92
330
1C8D
100
AcDbEntity
  8
hojo
370
     0
100
AcDbVertex
100
AcDb2dVertex
 10
916.9852584906925
 20
63.44127731043482
 30
0.0
  0
VERTEX
  5
1C93
330
1C8D
100
AcDbEntity
  8
hojo
370
     0
100
AcDbVertex
100
AcDb2dVertex
 10
917.8946406599015
 20
61.51792971618852
 30
0.0
  0
VERTEX
  5
1C94
330
1C8D
100
AcDbEntity
  8
hojo
370
     0
100
AcDbVertex
100
AcDb2dVertex
 10
917.4106047441027
 20
61.28907694461123
 30
0.0
  0
VERTEX
  5
1C95
330
1C8D
100
AcDbEntity
  8
hojo
370
     0
100
AcDbVertex
100
AcDb2dVertex
 10
916.7813826613896
 20
62.61962203699733
 30
0.0
  0
VERTEX
  5
1C96
330
1C8D
100
AcDbEntity
  8
hojo
370
     0
100
AcDbVertex
100
AcDb2dVertex
 10
916.1557287132874
 20
62.32358990344073
 30
0.0
  0
VERTEX
  5
1C97
330
1C8D
100
AcDbEntity
  8
hojo
370
     0
100
AcDbVertex
100
AcDb2dVertex
 10
916.6975930176022
 20
61.17735741956167
 30
0.0
  0
SEQEND
  5
1C98
330
1C8D
100
AcDbEntity
  8
hojo
370
     0
  0
LWPOLYLINE
  5
1CA8
330
1F
100
AcDbEntity
  8
size
100
AcDbPolyline
 90
        4
 70
     1
 43
0.0
 10
1158.0
 20
38.0
 10
1158.0
 20
806.0
 10
38.0
 20
806.0
 10
38.0
 20
38.0
  0
LWPOLYLINE
  5
1CA9
330
1F
100
AcDbEntity
  8
size
100
AcDbPolyline
 90
        4
 70
     1
 43
0.0
 10
38.5
 20
805.5000000000003
 10
38.5
 20
38.5
 10
1157.5
 20
38.5
 10
1157.5
 20
805.5000000000003
  0
LWPOLYLINE
  5
1CAA
330
1F
100
AcDbEntity
  8
size
100
AcDbPolyline
 90
        4
 70
     1
 43
0.0
 10
1157.0
 20
39.0
 10
1157.0
 20
805.0000000000004
 10
39.0
 20
805.0000000000004
 10
39.0
 20
39.0
  0
LWPOLYLINE
  5
1CAB
330
1F
100
AcDbEntity
  8
size
100
AcDbPolyline
 90
        4
 70
     1
 43
0.0
 10
39.5
 20
804.4999999999999
 10
39.5
 20
39.5
 10
1156.5
 20
39.5
 10
1156.5
 20
804.4999999999999
  0
LWPOLYLINE
  5
1CAC
330
1F
100
AcDbEntity
  8
size
100
AcDbPolyline
 90
        4
 70
     1
 43
0.0
 10
1156.0
 20
40.0
 10
1156.0
 20
804.0
 10
40.0
 20
804.0
 10
40.0
 20
40.0
  0
LWPOLYLINE
  5
1CAD
330
1F
100
AcDbEntity
  8
size
100
AcDbPolyline
 90
        4
 70
     1
 43
0.0
 10
40.49999999999999
 20
803.5
 10
40.49999999999999
 20
40.49999999999999
 10
1155.5
 20
40.49999999999999
 10
1155.5
 20
803.5
  0
MTEXT
  5
1CB0
330
1F
100
AcDbEntity
  8
wakumoji
100
AcDbMText
 10
509.7500000000004
 20
77.12500000000002
 30
0.0
 40
6.0
 41
0.0
 71
     5
 72
     5
  1
 年    月    日
  7
gothic
 73
     1
 44
1.0
  0
MTEXT
  5
1CB1
330
1F
100
AcDbEntity
  8
wakumoji
100
AcDbMText
 10
464.7499999999999
 20
52.875
 30
0.0
 40
6.0
 41
13.5
 71
     5
 72
     5
  1
検図
  7
gothic
 73
     1
 44
1.0
  0
MTEXT
  5
1CB2
330
1F
100
AcDbEntity
  8
wakumoji
100
AcDbMText
 10
418.75
 20
52.875
 30
0.0
 40
6.0
 41
13.5
 71
     5
 72
     5
  1
担当
  7
gothic
 73
     1
 44
1.0
  0
MTEXT
  5
1CB3
330
1F
100
AcDbEntity
  8
wakumoji
100
AcDbMText
 10
464.7499999999999
 20
77.12500000000002
 30
0.0
 40
6.0
 41
13.5
 71
     5
 72
     5
  1
作図
  7
gothic
 73
     1
 44
1.0
  0
MTEXT
  5
1CB4
330
1F
100
AcDbEntity
  8
wakumoji
100
AcDbMText
 10
418.75
 20
77.12500000000002
 30
0.0
 40
6.0
 41
13.5
 71
     5
 72
     5
  1
製図
  7
gothic
 73
     1
 44
1.0
  0
LINE
  5
1CB5
330
1F
100
AcDbEntity
  8
size
100
AcDbLine
 10
412.0
 20
64.75
 30
0.0
 11
547.5
 21
64.75
 31
0.0
  0
MTEXT
  5
1CB6
330
1F
100
AcDbEntity
  8
wakumoji
100
AcDbMText
 10
43.0
 20
88.00000000000002
 30
0.0
 40
6.0
 41
169.5
 71
     1
 72
     5
  1
記事
  7
gothic
 73
     1
 44
1.0
  0
LINE
  5
1CB8
330
1F
100
AcDbEntity
  8
size
100
AcDbLine
 10
412.0
 20
65.25
 30
0.0
 11
547.5
 21
65.25
 31
0.0
  0
LINE
  5
1CB9
330
1F
100
AcDbEntity
  8
size
100
AcDbLine
 10
411.5
 20
41.0
 30
0.0
 11
411.5
 21
89.0
 31
0.0
  0
LINE
  5
1CBA
330
1F
100
AcDbEntity
  8
size
100
AcDbLine
 10
412.0
 20
41.0
 30
0.0
 11
412.0
 21
89.0
 31
0.0
  0
LINE
  5
1CBB
330
1F
100
AcDbEntity
  8
size
100
AcDbLine
 10
426.0
 20
41.0
 30
0.0
 11
426.0
 21
89.0
 31
0.0
  0
LINE
  5
1CBC
330
1F
100
AcDbEntity
  8
size
100
AcDbLine
 10
425.4999999999999
 20
41.0
 30
0.0
 11
425.4999999999999
 21
89.0
 31
0.0
  0
LINE
  5
1CBD
330
1F
100
AcDbEntity
  8
size
100
AcDbLine
 10
457.5
 20
41.0
 30
0.0
 11
457.5
 21
89.0
 31
0.0
  0
LINE
  5
1CBE
330
1F
100
AcDbEntity
  8
size
100
AcDbLine
 10
458.0
 20
41.0
 30
0.0
 11
458.0
 21
89.0
 31
0.0
  0
LINE
  5
1CBF
330
1F
100
AcDbEntity
  8
size
100
AcDbLine
 10
471.4999999999999
 20
41.0
 30
0.0
 11
471.4999999999999
 21
89.0
 31
0.0
  0
LINE
  5
1CC0
330
1F
100
AcDbEntity
  8
size
100
AcDbLine
 10
472.0
 20
41.0
 30
0.0
 11
472.0
 21
89.0
 31
0.0
  0
MTEXT
  5
1CC1
330
1F
100
AcDbEntity
  8
wakumoji
100
AcDbMText
 10
581.7500000000004
 20
49.0
 30
0.0
 40
6.0
 41
39.5
 71
     5
 72
     5
  1
 : 
  7
gothic
 73
     1
 44
1.0
  0
MTEXT
  5
1CC2
330
1F
100
AcDbEntity
  8
wakumoji
100
AcDbMText
 10
581.7500000000004
 20
65.00000000000001
 30
0.0
 40
6.0
 41
39.5
 71
     5
 72
     5
  1
1 : 20
  7
gothic
 73
     1
 44
1.0
  0
MTEXT
  5
1CC6
330
1F
100
AcDbEntity
  8
wakumoji
100
AcDbMText
 10
554.7500000000004
 20
65.00000000000001
 30
0.0
 40
7.0
 41
13.5
 71
     5
 72
     5
  1
縮尺
  7
gothic
 73
     1
 44
1.0
  0
LINE
  5
1CC7
330
1F
100
AcDbEntity
  8
size
100
AcDbLine
 10
53.0
 20
65.0
 30
0.0
 11
399.5
 21
65.0
 31
0.0
  0
LINE
  5
1CC8
330
1F
100
AcDbEntity
  8
size
100
AcDbLine
 10
602.0
 20
65.25
 30
0.0
 11
798.5
 21
65.25
 31
0.0
  0
LINE
  5
1CC9
330
1F
100
AcDbEntity
  8
size
100
AcDbLine
 10
548.0
 20
41.0
 30
0.0
 11
548.0
 21
89.0
 31
0.0
  0
LINE
  5
1CCA
330
1F
100
AcDbEntity
  8
size
100
AcDbLine
 10
547.5
 20
41.0
 30
0.0
 11
547.5
 21
89.0
 31
0.0
  0
LINE
  5
1CCB
330
1F
100
AcDbEntity
  8
size
100
AcDbLine
 10
561.5
 20
41.0
 30
0.0
 11
561.5
 21
89.0
 31
0.0
  0
LINE
  5
1CCC
330
1F
100
AcDbEntity
  8
size
100
AcDbLine
 10
562.0
 20
41.0
 30
0.0
 11
562.0
 21
89.0
 31
0.0
  0
LINE
  5
1CCD
330
1F
100
AcDbEntity
  8
size
100
AcDbLine
 10
602.0
 20
64.75
 30
0.0
 11
798.5
 21
64.75
 31
0.0
  0
MTEXT
  5
1CCE
330
1F
100
AcDbEntity
  8
wakumoji
100
AcDbMText
 10
603.0000000000004
 20
88.00000000000002
 30
0.0
 40
7.0
 41
196.5
 71
     1
 72
     5
  1
工事名
  7
gothic
 73
     1
 44
1.0
  0
MTEXT
  5
1CCF
330
1F
100
AcDbEntity
  8
wakumoji
100
AcDbMText
 10
603.0000000000004
 20
63.75000000000001
 30
0.0
 40
7.0
 41
196.5
 71
     1
 72
     5
  1
図面名
  7
gothic
 73
     1
 44
1.0
  0
LINE
  5
1CD0
330
1F
100
AcDbEntity
  8
size
100
AcDbLine
 10
602.0
 20
41.0
 30
0.0
 11
602.0
 21
89.0
 31
0.0
  0
LINE
  5
1CD1
330
1F
100
AcDbEntity
  8
size
100
AcDbLine
 10
601.5
 20
41.0
 30
0.0
 11
601.5
 21
89.0
 31
0.0
  0
LINE
  5
1CD2
330
1F
100
AcDbEntity
  8
size
100
AcDbLine
 10
798.5
 20
41.0
 30
0.0
 11
798.5
 21
89.0
 31
0.0
  0
LINE
  5
1CD3
330
1F
100
AcDbEntity
  8
size
100
AcDbLine
 10
799.0
 20
41.0
 30
0.0
 11
799.0
 21
89.0
 31
0.0
  0
MTEXT
  5
1CD4
330
1F
100
AcDbEntity
  8
wakumoji
100
AcDbMText
 10
900.0000000000005
 20
43.0
 30
0.0
 40
6.0
 41
101.0
 71
     9
 72
     5
  1
年　　月　　日　
  7
gothic
 73
     1
 44
1.0
  0
LINE
  5
1CD5
330
1F
100
AcDbEntity
  8
size
100
AcDbLine
 10
900.0
 20
41.0
 30
0.0
 11
900.0
 21
89.0
 31
0.0
  0
LINE
  5
1CD6
330
1F
100
AcDbEntity
  8
size
100
AcDbLine
 10
900.5
 20
41.0
 30
0.0
 11
900.5
 21
89.0
 31
0.0
  0
MTEXT
  5
1CD7
330
1F
100
AcDbEntity
  8
wakumoji
100
AcDbMText
 10
1097.0
 20
56.75
 30
0.0
 40
8.0
 41
58.0
 71
     4
 72
     5
  1
Ｎｏ．
  7
gothic
 73
     1
 44
1.0
  0
LINE
  5
1CD8
330
1F
100
AcDbEntity
  8
size
100
AcDbLine
 10
1096.5
 20
41.0
 30
0.0
 11
1096.5
 21
89.0
 31
0.0
  0
LINE
  5
1CD9
330
1F
100
AcDbEntity
  8
size
100
AcDbLine
 10
1097.0
 20
72.5
 30
0.0
 11
1155.0
 21
72.5
 31
0.0
  0
MTEXT
  5
1CDA
330
1F
100
AcDbEntity
  8
wakumoji
100
AcDbMText
 10
1126.0
 20
81.00000000000001
 30
0.0
 40
8.0
 41
58.0
 71
     5
 72
     5
  1
図面番号
  7
gothic
 73
     1
 44
1.0
  0
LINE
  5
1CDB
330
1F
100
AcDbEntity
  8
size
100
AcDbLine
 10
1097.0
 20
73.0
 30
0.0
 11
1155.0
 21
73.0
 31
0.0
  0
LINE
  5
1CDC
330
1F
100
AcDbEntity
  8
size
100
AcDbLine
 10
1097.0
 20
41.0
 30
0.0
 11
1097.0
 21
89.0
 31
0.0
  0
LINE
  5
1CDD
330
1F
100
AcDbEntity
  8
size
100
AcDbLine
 10
41.0
 20
89.50000000000001
 30
0.0
 11
1155.0
 21
89.50000000000001
 31
0.0
  0
LINE
  5
1CDE
330
1F
100
AcDbEntity
  8
size
100
AcDbLine
 10
41.0
 20
90.0
 30
0.0
 11
1155.0
 21
90.0
 31
0.0
  0
LINE
  5
1CDF
330
1F
100
AcDbEntity
  8
size
100
AcDbLine
 10
41.0
 20
90.5
 30
0.0
 11
1155.0
 21
90.5
 31
0.0
  0
LINE
  5
1CE0
330
1F
100
AcDbEntity
  8
size
100
AcDbLine
 10
41.0
 20
91.0
 30
0.0
 11
1155.0
 21
91.0
 31
0.0
  0
LINE
  5
1CE1
330
1F
100
AcDbEntity
  8
size
100
AcDbLine
 10
41.0
 20
89.0
 30
0.0
 11
1155.0
 21
89.0
 31
0.0
  0
LWPOLYLINE
  5
1CE3
330
1F
100
AcDbEntity
  8
Defpoints
 62
     4
100
AcDbPolyline
 90
        4
 70
     1
 43
0.0
 10
20.0
 20
20.0
 10
1168.0
 20
20.0
 10
1168.0
 20
820.0000000000001
 10
20.0
 20
820.0000000000001
  0
MTEXT
  5
1CE4
330
1F
100
AcDbEntity
  8
wakumoji
100
AcDbMText
 10
581.7500000000004
 20
81.00000000000001
 30
0.0
 40
6.0
 41
39.5
 71
     5
 72
     5
  1
1 : 2
  7
gothic
 73
     1
 44
1.0
  0
TEXT
  5
1CE9
330
1F
100
AcDbEntity
  8
hojo
100
AcDbText
 10
4.874124167624358
 20
3.038995724530105
 30
0.0
 40
14.28571428571429
  1
A2-1:2
 41
0.8
  7
Std
100
AcDbText
  0
INSERT
  5
1CF0
330
1F
100
AcDbEntity
  8
size
100
AcDbBlockReference
  2
二葉ﾛｺﾞ
 10
923.3571428571432
 20
65.0
 30
0.0
 41
0.1
 42
0.1
 43
0.1
  0
TEXT
  5
22AD
330
1F
100
AcDbEntity
  8
moji
100
AcDbText
 10
656.6403159639537
 20
44.73087747178932
 30
0.0
 40
7.0
  1
アルミ枠 上下黒板  詳細図
  7
kanji
 72
     4
 11
708.4403159639538
 21
48.23087747178931
 31
0.0
100
AcDbText
  0
LWPOLYLINE
  5
3626
330
1F
100
AcDbEntity
  8
saisen
370
    15
100
AcDbPolyline
 90
        4
 70
     1
 43
0.0
 10
357.9687268146481
 20
121.4843860528512
 10
414.7660096409599
 20
121.4843860528512
 10
414.7660096409599
 20
107.8375282745073
 10
357.9687268146481
 20
107.8375282745073
  0
LWPOLYLINE
  5
3627
330
1F
100
AcDbEntity
  8
saisen
370
    15
100
AcDbPolyline
 90
        4
 70
     1
 43
0.0
 10
414.2660096409604
 20
120.9843860528497
 10
414.2660096409604
 20
108.3375282745066
 10
358.4687268146477
 20
108.3375282745066
 10
358.4687268146477
 20
120.9843860528497
  0
TEXT
  5
3628
330
1F
100
AcDbEntity
  8
moji
100
AcDbText
 10
371.9551019155293
 20
111.6080182835271
 30
0.0
 40
6.0
  1
正 面 図
  7
kanji
 72
     4
 11
385.3551019155293
 21
114.4080182835271
 31
0.0
100
AcDbText
  0
TEXT
  5
3629
330
1F
100
AcDbEntity
  8
moji
100
AcDbText
 10
367.8227730396749
 20
448.5136581840682
 30
0.0
 40
6.0
  1
横 断 面 図
  7
kanji
 72
     4
 11
386.6227730396749
 21
451.5136581840681
 31
0.0
100
AcDbText
  0
LWPOLYLINE
  5
362A
330
1F
100
AcDbEntity
  8
saisen
370
    15
100
AcDbPolyline
 90
        4
 70
     1
 43
0.0
 10
359.7363979387974
 20
445.4431681750444
 10
359.7363979387974
 20
458.0900259533875
 10
415.5336807651046
 20
458.0900259533875
 10
415.5336807651046
 20
445.4431681750444
  0
LWPOLYLINE
  5
362B
330
1F
100
AcDbEntity
  8
saisen
370
    15
100
AcDbPolyline
 90
        4
 70
     1
 43
0.0
 10
359.2363979387976
 20
458.5900259533867
 10
416.0336807651042
 20
458.5900259533867
 10
416.0336807651042
 20
444.943168175043
 10
359.2363979387976
 20
444.943168175043
  0
LWPOLYLINE
  5
362F
330
1F
100
AcDbEntity
  8
moji
100
AcDbPolyline
 90
        3
 70
     1
 43
0.0
 10
82.95690227959335
 20
700.2105505324753
 10
91.27074615593073
 20
700.2105505324753
 10
87.11382421776216
 20
707.4105505324754
  0
TEXT
  5
3630
330
1F
100
AcDbEntity
  8
moji
100
AcDbText
 10
70.10786383689401
 20
691.2105505324732
 30
0.0
 40
6.000000000000001
  1
壁 仕上面
  7
Std
100
AcDbText
  0
DIMENSION
  5
3649
330
1F
100
AcDbEntity
  8
sunpo
100
AcDbDimension
  2
*D5
 10
199.4014666477187
 20
306.1835589276256
 30
0.0
 11
194.4529571303719
 21
310.7260472181173
 31
0.0
 70
   160
 71
     5
 42
35.00000000013188
  3
dim2_20
100
AcDbAlignedDimension
 13
202.9014666477319
 23
326.1835589276255
 33
0.0
 14
199.4014666477187
 24
326.1835589276255
 34
0.0
100
AcDbRotatedDimension
  0
LINE
  5
364A
330
1F
100
AcDbEntity
  8
塗板・掲示板
100
AcDbLine
 10
566.4014666477157
 20
336.1835589276255
 30
0.0
 11
199.4014666477158
 21
336.1835589276255
 31
0.0
  0
LINE
  5
364B
330
1F
100
AcDbEntity
  8
塗板・掲示板
100
AcDbLine
 10
203.2014666477276
 20
151.4829579363853
 30
0.0
 11
562.6014666477158
 21
151.4829579363853
 31
0.0
  0
LINE
  5
364C
330
1F
100
AcDbEntity
  8
塗板・掲示板
100
AcDbLine
 10
203.2014666477276
 20
148.9829579363853
 30
0.0
 11
562.6014666477158
 21
148.9829579363853
 31
0.0
  0
LINE
  5
364D
330
1F
100
AcDbEntity
  8
hasen
100
AcDbLine
 10
199.4014666477217
 20
149.1835589276291
 30
0.0
 11
566.4014666477217
 21
149.1835589276291
 31
0.0
  0
LINE
  5
364E
330
1F
100
AcDbEntity
  8
塗板・掲示板
100
AcDbLine
 10
199.4014666477217
 20
151.6874106561976
 30
0.0
 11
199.4014666477217
 21
336.1835589276255
 31
0.0
  0
LINE
  5
364F
330
1F
100
AcDbEntity
  8
塗板・掲示板
100
AcDbLine
 10
205.1014666477158
 20
152.6835589276292
 30
0.0
 11
205.1014666477158
 21
332.6835589276292
 31
0.0
  0
LINE
  5
3650
330
1F
100
AcDbEntity
  8
塗板・掲示板
100
AcDbLine
 10
202.9014666477333
 20
332.6835589276365
 30
0.0
 11
202.9014666477333
 21
152.6835589276292
 31
0.0
  0
LINE
  5
3651
330
1F
100
AcDbEntity
  8
塗板・掲示板
100
AcDbLine
 10
560.7014666477216
 20
332.6835589276328
 30
0.0
 11
560.7014666477216
 21
152.6835589276255
 31
0.0
  0
LINE
  5
3652
330
1F
100
AcDbEntity
  8
塗板・掲示板
100
AcDbLine
 10
562.9014666477157
 20
332.6835589276328
 30
0.0
 11
562.9014666477157
 21
152.6835589276255
 31
0.0
  0
DIMENSION
  5
3653
330
1F
100
AcDbEntity
  8
sunpo
100
AcDbDimension
  2
*D6
 10
562.9014666477173
 20
306.1835589276256
 30
0.0
 11
382.9014666477247
 21
309.6835589276255
 31
0.0
 70
    32
  1
W
 71
     5
 42
3599.999999999854
  3
dim2_20
100
AcDbAlignedDimension
 13
202.9014666477319
 23
326.1835589276255
 33
0.0
 14
562.9014666477173
 24
326.1835589276255
 34
0.0
100
AcDbRotatedDimension
  0
LINE
  5
3655
330
1F
100
AcDbEntity
  8
塗板・掲示板
100
AcDbLine
 10
560.7014666477216
 20
154.1835589276292
 30
0.0
 11
205.1014666477158
 21
154.1835589276292
 31
0.0
  0
LINE
  5
3656
330
1F
100
AcDbEntity
  8
塗板・掲示板
100
AcDbLine
 10
205.1014666477158
 20
241.1835589276255
 30
0.0
 11
560.7014666477216
 21
241.1835589276255
 31
0.0
  0
LINE
  5
3657
330
1F
100
AcDbEntity
  8
hasen
100
AcDbLine
 10
560.7014666477216
 20
244.1835589276255
 30
0.0
 11
205.1014666477158
 21
244.1835589276255
 31
0.0
  0
LINE
  5
3658
330
1F
100
AcDbEntity
  8
塗板・掲示板
100
AcDbLine
 10
202.9014666477333
 20
152.6835589276292
 30
0.0
 11
562.9014666477157
 21
152.6835589276255
 31
0.0
  0
LINE
  5
3659
330
1F
100
AcDbEntity
  8
塗板・掲示板
100
AcDbLine
 10
202.9014666477333
 20
152.6835589276292
 30
0.0
 11
201.9053183762994
 21
151.6874106561976
 31
0.0
  0
LINE
  5
365A
330
1F
100
AcDbEntity
  8
塗板・掲示板
100
AcDbLine
 10
203.2014666477276
 20
151.6874106561976
 30
0.0
 11
199.2014666477332
 21
151.6874106561976
 31
0.0
  0
LINE
  5
365B
330
1F
100
AcDbEntity
  8
塗板・掲示板
100
AcDbLine
 10
203.2014666477276
 20
148.7874106561961
 30
0.0
 11
199.2014666477332
 21
148.7874106561961
 31
0.0
  0
LINE
  5
365C
330
1F
100
AcDbEntity
  8
塗板・掲示板
100
AcDbLine
 10
203.2014666477276
 20
148.7874106561961
 30
0.0
 11
203.2014666477276
 21
151.6874106561976
 31
0.0
  0
LINE
  5
365D
330
1F
100
AcDbEntity
  8
塗板・掲示板
100
AcDbLine
 10
199.2014666477332
 20
148.7874106561961
 30
0.0
 11
199.2014666477332
 21
151.6874106561976
 31
0.0
  0
LINE
  5
365E
330
1F
100
AcDbEntity
  8
hasen
100
AcDbLine
 10
199.4014666477217
 20
149.1835589276291
 30
0.0
 11
199.4014666477217
 21
151.6874106561976
 31
0.0
  0
LWPOLYLINE
  5
365F
330
1F
100
AcDbEntity
  8
塗板・掲示板
100
AcDbPolyline
 90
        6
 70
     1
 43
0.0
 10
224.3244372323809
 20
152.6835589276255
 10
226.0784960615652
 20
152.6835589276255
 42
0.3575107650276803
 10
226.2255831629182
 20
152.8041415073552
 10
226.5014666469724
 20
154.1835589276255
 10
223.9014666469723
 20
154.1835589276255
 10
224.1773501310263
 20
152.8041415073552
 42
0.3575107650276803
  0
DIMENSION
  5
3660
330
1F
100
AcDbEntity
  8
sunpo
100
AcDbDimension
  2
*D7
 10
185.4014666477217
 20
152.6835589276197
 30
0.0
 11
179.9573631779294
 21
144.9849011629448
 31
0.0
 70
   160
 71
     5
 42
34.99999999974534
 53
90.0
  3
dim2_20
100
AcDbAlignedDimension
 13
199.4014666477217
 23
149.1835589276451
 33
0.0
 14
199.4014666477217
 24
152.6835589276196
 34
0.0
 50
270.0
100
AcDbRotatedDimension
  0
LWPOLYLINE
  5
3661
330
1F
100
AcDbEntity
  8
塗板・掲示板
100
AcDbPolyline
 90
        6
 70
     1
 43
0.0
 10
224.3244372323809
 20
239.6835589276256
 10
226.0784960615652
 20
239.6835589276256
 42
0.3575107650276803
 10
226.2255831629182
 20
239.8041415073552
 10
226.5014666469724
 20
241.1835589276256
 10
223.9014666469723
 20
241.1835589276256
 10
224.1773501310263
 20
239.8041415073552
 42
0.3575107650276803
  0
LWPOLYLINE
  5
3662
330
1F
100
AcDbEntity
  8
塗板・掲示板
100
AcDbPolyline
 90
        6
 70
     1
 43
0.0
 10
539.7244372333719
 20
152.6835589276255
 10
541.4784960625561
 20
152.6835589276255
 42
0.3575107650276803
 10
541.6255831639091
 20
152.8041415073552
 10
541.9014666479632
 20
154.1835589276255
 10
539.3014666479632
 20
154.1835589276255
 10
539.5773501320173
 20
152.8041415073552
 42
0.3575107650276803
  0
LINE
  5
3663
330
1F
100
AcDbEntity
  8
塗板・掲示板
100
AcDbLine
 10
562.9014666477157
 20
152.6835589276255
 30
0.0
 11
563.8976149191444
 21
151.6874106561976
 31
0.0
  0
LWPOLYLINE
  5
3664
330
1F
100
AcDbEntity
  8
塗板・掲示板
100
AcDbPolyline
 90
        6
 70
     1
 43
0.0
 10
539.7244372333719
 20
239.6835589276219
 10
541.4784960625561
 20
239.6835589276219
 42
0.3575107650276803
 10
541.6255831639091
 20
239.8041415073516
 10
541.9014666479632
 20
241.1835589276219
 10
539.3014666479632
 20
241.1835589276219
 10
539.5773501320173
 20
239.8041415073516
 42
0.3575107650276803
  0
LINE
  5
3665
330
1F
100
AcDbEntity
  8
塗板・掲示板
100
AcDbLine
 10
202.9014666477333
 20
332.6835589276365
 30
0.0
 11
562.9014666477157
 21
332.6835589276328
 31
0.0
  0
LINE
  5
3666
330
1F
100
AcDbEntity
  8
塗板・掲示板
100
AcDbLine
 10
205.1014666477158
 20
331.1835589276256
 30
0.0
 11
560.7014666477216
 21
331.1835589276256
 31
0.0
  0
DIMENSION
  5
3667
330
1F
100
AcDbEntity
  8
sunpo
100
AcDbDimension
  2
*D8
 10
185.4014666477217
 20
336.1835589276196
 30
0.0
 11
181.2581977915561
 21
326.7718374772065
 31
0.0
 70
   160
 71
     5
 42
34.99999999989086
 53
90.0
  3
dim2_20
100
AcDbAlignedDimension
 13
203.4014666477217
 23
332.6835589276305
 33
0.0
 14
203.4014666477217
 24
336.1835589276196
 34
0.0
 50
270.0
100
AcDbRotatedDimension
  0
LINE
  5
3668
330
1F
100
AcDbEntity
  8
塗板・掲示板
100
AcDbLine
 10
202.9014666477333
 20
332.6835589276365
 30
0.0
 11
199.4014666477158
 21
336.1835589276255
 31
0.0
  0
LINE
  5
3669
330
1F
100
AcDbEntity
  8
塗板・掲示板
100
AcDbLine
 10
562.9014666477157
 20
332.6835589276328
 30
0.0
 11
566.4014666477157
 21
336.1835589276255
 31
0.0
  0
LINE
  5
366A
330
1F
100
AcDbEntity
  8
塗板・掲示板
100
AcDbLine
 10
566.4014666477157
 20
336.1835589276255
 30
0.0
 11
566.40146664771
 21
151.6874106561976
 31
0.0
  0
DIMENSION
  5
366B
330
1F
100
AcDbEntity
  8
sunpo
100
AcDbDimension
  2
*D9
 10
174.6451044774749
 20
149.1835589276256
 30
0.0
 11
169.8355806679511
 21
242.6835589276256
 31
0.0
 70
    32
  1
H+35+35(外寸)
 71
     5
 42
1870.0
  3
dim2_20
100
AcDbAlignedDimension
 13
199.401466647841
 23
336.1835589276255
 33
0.0
 14
199.4014666478861
 24
149.1835589276256
 34
0.0
 50
90.0
100
AcDbRotatedDimension
  0
DIMENSION
  5
366C
330
1F
100
AcDbEntity
  8
sunpo
100
AcDbDimension
  2
*D10
 10
566.4014666477157
 20
306.1835589276256
 30
0.0
 11
570.6101150920058
 21
311.4971604894384
 31
0.0
 70
   160
 71
     5
 42
35.0000000001296
  3
dim2_20
100
AcDbAlignedDimension
 13
562.9014666477027
 23
326.1835589276255
 33
0.0
 14
566.4014666477157
 24
326.1835589276255
 34
0.0
 50
180.0
100
AcDbRotatedDimension
  0
LINE
  5
366D
330
1F
100
AcDbEntity
  8
塗板・掲示板
100
AcDbLine
 10
566.6014666477098
 20
148.7874106561961
 30
0.0
 11
566.6014666477098
 21
151.6874106561976
 31
0.0
  0
LINE
  5
366E
330
1F
100
AcDbEntity
  8
塗板・掲示板
100
AcDbLine
 10
562.6014666477158
 20
148.7874106561961
 30
0.0
 11
562.6014666477158
 21
151.6874106561976
 31
0.0
  0
LINE
  5
366F
330
1F
100
AcDbEntity
  8
塗板・掲示板
100
AcDbLine
 10
562.6014666477158
 20
148.7874106561961
 30
0.0
 11
566.6014666477098
 21
148.7874106561961
 31
0.0
  0
LINE
  5
3670
330
1F
100
AcDbEntity
  8
塗板・掲示板
100
AcDbLine
 10
562.6014666477158
 20
151.6874106561976
 30
0.0
 11
566.6014666477098
 21
151.6874106561976
 31
0.0
  0
LINE
  5
3671
330
1F
100
AcDbEntity
  8
hasen
100
AcDbLine
 10
566.4014666477217
 20
149.1835589276291
 30
0.0
 11
566.4014666477217
 21
151.6874106561976
 31
0.0
  0
LWPOLYLINE
  5
3672
330
1F
100
AcDbEntity
  8
塗板・掲示板
100
AcDbPolyline
 90
        4
 70
     1
 43
0.0
 10
342.9014666449655
 20
243.9835589241942
 10
342.9014666450253
 20
241.9835589241942
 10
332.9014666450253
 20
241.9835589238959
 10
332.9014666449655
 20
243.9835589238959
  0
LWPOLYLINE
  5
3673
330
1F
100
AcDbEntity
  8
塗板・掲示板
100
AcDbPolyline
 90
        4
 70
     1
 43
0.0
 10
422.9014666449654
 20
243.9835589265953
 10
422.9014666450252
 20
241.9835589265953
 10
432.9014666450253
 20
241.9835589268936
 10
432.9014666449654
 20
243.9835589268936
  0
LINE
  5
3676
330
1F
100
AcDbEntity
  8
塗板・掲示板
100
AcDbLine
 10
205.1014666477158
 20
241.9835589276248
 30
0.0
 11
560.7014666477216
 21
241.9835589276248
 31
0.0
  0
LWPOLYLINE
  5
3679
330
1F
100
AcDbEntity
  8
saisen
100
AcDbPolyline
 90
        7
 70
     1
 43
0.0
 10
377.0112443066041
 20
238.6835589275746
 10
388.7916889883693
 20
238.6835589275746
 10
388.7916889883693
 20
229.3621319379185
 10
393.2093505988637
 20
229.3621319379185
 10
382.9014666474872
 20
222.0031128426985
 10
372.5935826961095
 20
229.3621319379185
 10
377.0112443066041
 20
229.3621319379185
  0
LWPOLYLINE
  5
367A
330
1F
100
AcDbEntity
  8
hasen
100
AcDbPolyline
 90
        7
 70
     1
 43
0.0
 10
377.0112443063115
 20
258.0049859172271
 10
377.0112443063174
 20
248.683558927571
 10
388.7916889880825
 20
248.6835589275783
 10
388.7916889880767
 20
258.0049859172344
 10
393.2093505985713
 20
258.0049859172381
 10
382.9014666471906
 20
265.3640050124508
 10
372.5935826958184
 20
258.0049859172235
  0
LINE
  5
367B
330
1F
100
AcDbEntity
  8
塗板･掲示板
100
AcDbLine
 10
382.9014666477704
 20
148.4829579363853
 30
0.0
 11
382.9014666477704
 21
142.9829579363853
 31
0.0
  0
LINE
  5
367C
330
1F
100
AcDbEntity
  8
塗板･掲示板
100
AcDbLine
 10
395.4014666477704
 20
148.4829579363853
 30
0.0
 11
370.4014666477704
 21
148.4829579363853
 31
0.0
  0
LINE
  5
367D
330
1F
100
AcDbEntity
  8
塗板･掲示板
100
AcDbLine
 10
370.4014666477704
 20
142.9829579363853
 30
0.0
 11
370.4014666477704
 21
148.9829579363853
 31
0.0
  0
LINE
  5
367E
330
1F
100
AcDbEntity
  8
塗板･掲示板
100
AcDbLine
 10
395.4014666477704
 20
142.9829579363853
 30
0.0
 11
370.4014666477704
 21
142.9829579363853
 31
0.0
  0
LINE
  5
367F
330
1F
100
AcDbEntity
  8
塗板･掲示板
100
AcDbLine
 10
395.4014666477704
 20
148.9829579363853
 30
0.0
 11
395.4014666477704
 21
142.9829579363853
 31
0.0
  0
LWPOLYLINE
  5
3680
330
1F
100
AcDbEntity
  8
hasen
100
AcDbPolyline
 90
        6
 70
     1
 43
0.0
 10
959.176789825749
 20
709.9815117936632
 10
959.176789825749
 20
714.4815117936632
 10
1053.176789825749
 20
714.4815117936632
 10
1053.176789825749
 20
683.4815117936632
 10
1048.676789825749
 20
683.4815117936632
 10
1048.676789825749
 20
709.9815117936632
  0
LWPOLYLINE
  5
3681
330
1F
100
AcDbEntity
  8
2tensasen
100
AcDbPolyline
 90
        6
 70
     1
 43
0.0
 10
1033.176789825749
 20
676.9815117936632
 10
1033.176789825749
 20
678.9815117936632
 10
1051.176789825749
 20
678.9815117936632
 10
1051.176789825749
 20
696.9815117936632
 10
1053.176789825749
 20
696.9815117936632
 10
1053.176789825749
 20
676.9815117936632
  0
LWPOLYLINE
  5
3682
330
1F
100
AcDbEntity
  8
0
100
AcDbPolyline
 90
       38
 70
     1
 43
0.0
 10
1053.176789825749
 20
676.9815117936632
 10
1027.676789825749
 20
676.9815117936632
 10
1027.676789825749
 20
679.9815117936632
 42
0.9999999999999998
 10
1025.676789825749
 20
679.9815117936632
 10
1025.676789825749
 20
676.9815117936632
 10
1023.176789825749
 20
676.9815117936632
 10
1023.176789825749
 20
707.9815117936632
 10
1025.676789825749
 20
707.9815117936632
 10
1025.676789825749
 20
704.9815117936632
 42
0.9999999999999998
 10
1027.676789825749
 20
704.9815117936632
 10
1027.676789825749
 20
707.9815117936632
 10
1046.176789825749
 20
707.9815117936632
 10
1046.176789825749
 20
702.9815117936632
 10
1053.176789825749
 20
702.9815117936632
 10
1053.176789825749
 20
704.9815117936632
 10
1048.176789825749
 20
704.9815117936632
 10
1048.176789825749
 20
709.9815117936632
 10
923.2207788206187
 20
709.9815117936632
 10
921.1767898257489
 20
707.937522798793
 10
921.1767898257489
 20
700.437522798793
 10
921.4767898257605
 20
700.437522798793
 10
921.4767898257605
 20
697.437522798793
 10
921.1767898257489
 20
697.437522798793
 10
921.1767898257489
 20
689.437522798793
 10
921.4767898257605
 20
689.437522798793
 10
921.4767898257605
 20
686.4375227987929
 10
921.1767898257489
 20
686.4375227987929
 10
921.1767898257489
 20
678.937522798793
 10
923.1328008308905
 20
676.9815117936632
 10
941.176789825749
 20
676.9815117936632
 10
941.176789825749
 20
674.9815117936632
 10
996.676789825749
 20
674.9815117936632
 10
996.676789825749
 20
675.2815117936624
 10
998.1767898257489
 20
675.2815117936624
 10
998.1767898257489
 20
674.9815117936632
 10
1051.176789825749
 20
674.9815117936632
 10
1051.176789825749
 20
656.9815117936578
 10
1053.176789825749
 20
656.9815117936578
  0
LWPOLYLINE
  5
3683
330
1F
100
AcDbEntity
  8
0
100
AcDbPolyline
 90
       28
 70
     1
 43
0.0
 10
923.1767898257489
 20
707.937522798793
 10
923.1767898257489
 20
678.9815117936632
 10
926.176789825749
 20
678.9815117936632
 10
926.176789825749
 20
682.9815117936632
 10
928.176789825749
 20
682.9815117936632
 10
928.176789825749
 20
678.9815117936632
 10
943.176789825749
 20
678.9815117936632
 10
943.176789825749
 20
676.9815117936632
 10
1021.176789825749
 20
676.9815117936632
 10
1021.176789825749
 20
707.9815117936632
 10
967.176789825749
 20
707.9815117936632
 10
967.176789825749
 20
703.4815117936632
 10
962.1767898257489
 20
703.4815117936632
 42
-0.9999999999999998
 10
962.1767898257489
 20
705.4815117936632
 10
965.1767898257489
 20
705.4815117936632
 10
965.1767898257489
 20
707.9815117936632
 10
935.176789825749
 20
707.9815117936632
 10
935.176789825749
 20
705.4815117936632
 10
938.1767898257489
 20
705.4815117936632
 42
-0.9999999999999998
 10
938.1767898257489
 20
703.4815117936632
 10
935.1489257807511
 20
703.4815117936632
 42
-0.2160739501950755
 10
933.2482183971924
 20
700.288578663747
 42
-1.000000000000127
 10
932.1053612543405
 20
701.9298822770415
 42
3.186140661633896
 10
929.2482183971925
 20
701.9298822770415
 42
-1.000000000000127
 10
928.1053612543406
 20
700.288578663747
 42
-0.2453926839565818
 10
926.176789825749
 20
703.9815117936632
 10
926.176789825749
 20
707.9815117936632
 10
923.1767898257489
 20
707.9815117936632
  0
LINE
  5
3684
330
1F
100
AcDbEntity
  8
kijun
100
AcDbLine
 10
1042.176789825755
 20
691.4335685250025
 30
0.0
 11
1042.176789825755
 21
671.5294550623203
 31
0.0
  0
LINE
  5
3685
330
1F
100
AcDbEntity
  8
kijun
100
AcDbLine
 10
1087.215791969081
 20
231.2289927190195
 30
0.0
 11
1047.476789825758
 21
231.2289927190195
 31
0.0
  0
LINE
  5
3686
330
1F
100
AcDbEntity
  8
kijun
100
AcDbLine
 10
1009.17678982574
 20
230.4789927190195
 30
0.0
 11
1009.176789825755
 21
212.3239927190207
 31
0.0
  0
LINE
  5
3687
330
1F
100
AcDbEntity
  8
kijun
100
AcDbLine
 10
979.1767898257402
 20
230.4789927190195
 30
0.0
 11
979.1767898257548
 21
212.3239927190207
 31
0.0
  0
LWPOLYLINE
  5
3688
330
1F
100
AcDbEntity
  8
hasen
100
AcDbPolyline
 90
        6
 70
     1
 43
0.0
 10
959.176789825749
 20
217.9789927190232
 10
959.176789825749
 20
213.4789927190232
 10
1053.176789825749
 20
213.4789927190232
 10
1053.176789825749
 20
244.4789927190232
 10
1048.676789825749
 20
244.4789927190232
 10
1048.676789825749
 20
217.9789927190232
  0
LINE
  5
3689
330
1F
100
AcDbEntity
  8
saisen
100
AcDbLine
 10
956.1767898257549
 20
213.9789927190195
 30
0.0
 11
956.1767898257549
 21
217.9789927190195
 31
0.0
  0
LINE
  5
368A
330
1F
100
AcDbEntity
  8
saisen
100
AcDbLine
 10
935.1767898257548
 20
215.9789927190195
 30
0.0
 11
956.1767898257549
 21
215.9789927190195
 31
0.0
  0
LINE
  5
368B
330
1F
100
AcDbEntity
  8
saisen
100
AcDbLine
 10
956.1767898257549
 20
213.9789927190195
 30
0.0
 11
925.1767898257549
 21
213.9789927190195
 31
0.0
  0
LWPOLYLINE
  5
368C
330
1F
100
AcDbEntity
  8
0
100
AcDbPolyline
 90
       38
 70
     1
 43
0.0
 10
1053.176789825749
 20
250.9789927190232
 10
1027.676789825749
 20
250.9789927190232
 10
1027.676789825749
 20
247.9789927190231
 42
-0.9999999999999998
 10
1025.676789825749
 20
247.9789927190231
 10
1025.676789825749
 20
250.9789927190232
 10
1023.176789825749
 20
250.9789927190232
 10
1023.176789825749
 20
219.9789927190232
 10
1025.676789825749
 20
219.9789927190232
 10
1025.676789825749
 20
222.9789927190231
 42
-0.9999999999999998
 10
1027.676789825749
 20
222.9789927190231
 10
1027.676789825749
 20
219.9789927190232
 10
1046.176789825749
 20
219.9789927190232
 10
1046.176789825749
 20
224.9789927190231
 10
1053.176789825749
 20
224.9789927190231
 10
1053.176789825749
 20
222.9789927190231
 10
1048.176789825749
 20
222.9789927190231
 10
1048.176789825749
 20
217.9789927190232
 10
923.2207788206187
 20
217.9789927190232
 10
921.1767898257489
 20
220.0229817138843
 10
921.1767898257489
 20
227.5229817138843
 10
921.4767898257605
 20
227.5229817138843
 10
921.4767898257605
 20
230.5229817138843
 10
921.1767898257489
 20
230.5229817138843
 10
921.1767898257489
 20
238.5229817138843
 10
921.4767898257605
 20
238.5229817138843
 10
921.4767898257605
 20
241.5229817138843
 10
921.1767898257489
 20
241.5229817138843
 10
921.1767898257489
 20
249.0229817138843
 10
923.1328008308905
 20
250.9789927190232
 10
941.176789825749
 20
250.9789927190232
 10
941.176789825749
 20
252.9789927190232
 10
996.676789825749
 20
252.9789927190232
 10
996.676789825749
 20
252.6789927190202
 10
998.1767898257489
 20
252.6789927190202
 10
998.1767898257489
 20
252.9789927190232
 10
1051.176789825749
 20
252.9789927190232
 10
1051.176789825749
 20
270.9789927190268
 10
1053.176789825749
 20
270.9789927190268
  0
LINE
  5
368D
330
1F
100
AcDbEntity
  8
kijun
100
AcDbLine
 10
930.6767898257549
 20
219.2729817138879
 30
0.0
 11
930.6767898257549
 21
229.0229817138879
 31
0.0
  0
LINE
  5
368E
330
1F
100
AcDbEntity
  8
kijun
100
AcDbLine
 10
925.2767898257607
 20
223.9789927190195
 30
0.0
 11
936.0767898257636
 21
223.9789927190195
 31
0.0
  0
LWPOLYLINE
  5
368F
330
1F
100
AcDbEntity
  8
0
100
AcDbPolyline
 90
       28
 70
     1
 43
0.0
 10
923.1767898257489
 20
220.0229817138843
 10
923.1767898257489
 20
248.9789927190232
 10
926.176789825749
 20
248.9789927190232
 10
926.176789825749
 20
244.9789927190232
 10
928.176789825749
 20
244.9789927190232
 10
928.176789825749
 20
248.9789927190232
 10
943.176789825749
 20
248.9789927190232
 10
943.176789825749
 20
250.9789927190232
 10
1021.176789825749
 20
250.9789927190232
 10
1021.176789825749
 20
219.9789927190232
 10
967.176789825749
 20
219.9789927190232
 10
967.176789825749
 20
224.4789927190232
 10
962.1767898257489
 20
224.4789927190232
 42
0.9999999999999998
 10
962.1767898257489
 20
222.4789927190232
 10
965.1767898257489
 20
222.4789927190232
 10
965.1767898257489
 20
219.9789927190232
 10
935.176789825749
 20
219.9789927190232
 10
935.176789825749
 20
222.4789927190232
 10
938.1767898257489
 20
222.4789927190232
 42
0.9999999999999998
 10
938.1767898257489
 20
224.4789927190232
 10
935.1489257807511
 20
224.4789927190232
 42
0.2160739501950755
 10
933.2482183971924
 20
227.6719258489375
 42
1.000000000000127
 10
932.1053612543405
 20
226.030622235643
 42
-3.186140661633896
 10
929.2482183971925
 20
226.030622235643
 42
1.000000000000127
 10
928.1053612543406
 20
227.6719258489375
 42
0.2453926839565818
 10
926.176789825749
 20
223.9789927190232
 10
926.176789825749
 20
219.9789927190232
 10
923.1767898257489
 20
219.9789927190232
  0
LWPOLYLINE
  5
3690
330
1F
100
AcDbEntity
  8
0
100
AcDbPolyline
 90
       10
 70
     1
 43
0.0
 10
845.7892930292423
 20
235.4789927190231
 42
-0.0309142219080663
 10
845.2972260208003
 20
238.5280123268658
 42
0.3857361955736692
 10
844.7996347447174
 20
238.9789927190232
 10
839.1767898257489
 20
238.9789927190232
 10
839.1767898257489
 20
217.9789927190232
 10
856.3203833649536
 20
217.9789927190232
 42
0.752157865134573
 10
856.8533220749714
 20
219.8251465651647
 42
-0.1277054739749905
 10
848.2450776263039
 20
228.9789927190231
 10
844.5767898257605
 20
228.9789927190231
 10
844.5767898257605
 20
235.4789927190231
  0
LWPOLYLINE
  5
3691
330
1F
100
AcDbEntity
  8
0
100
AcDbPolyline
 90
        9
 70
     0
 43
0.0
 10
845.1767898257489
 20
215.9789927190232
 10
845.1767898257489
 20
161.9789927190231
 42
-0.414213562373094
 10
844.176789825749
 20
160.9789927190231
 10
842.176789825749
 20
160.9789927190231
 42
-0.4142135623730951
 10
840.1767898257489
 20
162.9789927190231
 10
840.1767898257489
 20
212.9789927190231
 42
-0.4142135623730951
 10
842.176789825749
 20
214.9789927190231
 10
844.176789825749
 20
214.9789927190231
 42
-0.4142135623730966
 10
845.1767898257489
 20
213.9789927190232
  0
LWPOLYLINE
  5
3692
330
1F
100
AcDbEntity
  8
0
100
AcDbPolyline
 90
        4
 70
     0
 43
0.0
 10
921.1767898257489
 20
203.4789927190232
 10
921.1767898257489
 20
184.9789927190231
 42
-0.4142135623730951
 10
906.1767898257489
 20
169.9789927190231
 10
845.1767898257489
 20
169.9789927190231
  0
LINE
  5
3693
330
1F
100
AcDbEntity
  8
hasen
100
AcDbLine
 10
925.1767898257549
 20
213.9789927190195
 30
0.0
 11
840.4447390181903
 21
213.9789927190195
 31
0.0
  0
LWPOLYLINE
  5
3694
330
1F
100
AcDbEntity
  8
0
100
AcDbPolyline
 90
        4
 70
     1
 43
0.0
 10
845.1767898257489
 20
203.4789927190232
 10
925.176789825749
 20
203.4789927190232
 10
925.176789825749
 20
215.9789927190232
 10
845.1767898257489
 20
215.9789927190232
  0
LWPOLYLINE
  5
3695
330
1F
100
AcDbEntity
  8
0
100
AcDbPolyline
 90
       28
 70
     1
 43
0.0
 10
921.1767898257489
 20
217.9789927190232
 10
921.1767898257489
 20
250.9789927190232
 10
941.176789825749
 20
250.9789927190232
 10
941.176789825749
 20
252.9789927190232
 10
917.176789825749
 20
252.9789927190232
 10
917.176789825749
 20
240.9789927190232
 42
-0.0832317279517671
 10
915.9196047309105
 20
233.4789927190231
 10
918.176789825749
 20
233.4789927190231
 10
918.176789825749
 20
230.9789927190232
 10
914.8891050029678
 20
230.9789927190268
 42
-0.2878248726205736
 10
894.176789825749
 20
217.9789927190232
 10
870.1767898257489
 20
217.9789927190232
 42
-0.2878248726205739
 10
849.4644746485532
 20
230.9789927190232
 10
846.5767898257604
 20
230.9789927190232
 10
846.5767898257604
 20
233.4789927190231
 10
848.4339749205991
 20
233.4789927190231
 42
-0.0631024882500072
 10
847.2505079639509
 20
239.1389927190194
 42
0.3909468837771645
 10
845.2569182368593
 20
240.9789927190232
 10
839.1767898257489
 20
240.9789927190232
 10
837.1767898257489
 20
238.9789927190232
 10
837.1767898257489
 20
217.9789927190232
 10
839.1767898257489
 20
215.9789927190232
 10
894.176789825749
 20
215.9789927190232
 42
0.260544146236052
 10
915.4730861220409
 20
227.884422697045
 42
-0.756387772066819
 10
919.176789825749
 20
226.8368570952971
 10
919.176789825749
 20
215.9789927190232
 10
935.176789825749
 20
215.9789927190232
 10
935.176789825749
 20
217.9789927190232
  0
LWPOLYLINE
  5
3696
330
1F
100
AcDbEntity
  8
saisen
100
AcDbPolyline
 90
       12
 70
     0
 43
0.0
 10
840.4447390181845
 20
213.9789927190232
 10
838.1767898257489
 20
213.9789927190232
 42
-0.4142135623730951
 10
835.176789825749
 20
216.9789927190231
 10
835.176789825749
 20
239.9789927190231
 42
-0.4142135623730951
 10
838.1767898257489
 20
242.9789927190232
 10
847.1767898257489
 20
242.9789927190232
 42
-0.4142135623730951
 10
849.1767898257489
 20
240.9789927190232
 42
0.4142135623730951
 10
870.1767898257489
 20
219.9789927190232
 10
894.176789825749
 20
219.9789927190232
 42
0.4142135623730951
 10
915.1767898257489
 20
240.9789927190232
 10
915.1767898257489
 20
245.9789927191978
 10
917.176789825749
 20
245.9789927192014
  0
HATCH
  5
3697
330
1F
100
AcDbEntity
  8
hatch
100
AcDbHatch
 10
0.0
 20
0.0
 30
0.0
210
0.0
220
0.0
230
1.0
  2
ANSI37
 70
     0
 71
     0
 91
        1
 92
        7
 72
     1
 73
     1
 93
        6
 10
1026.537182020316
 20
252.9789927190232
 42
0.3575107650276564
 10
1028.498343371706
 20
254.5867604487521
 42
0.0
 10
1031.176789825749
 20
267.9789927190232
 42
0.0
 10
1005.176789825749
 20
267.9789927190232
 42
0.0
 10
1007.855236279815
 20
254.5867604487521
 42
0.3575107650277063
 10
1009.816397631193
 20
252.9789927190232
 42
0.0
 97
        0
 75
     0
 76
     1
 52
0.0
 41
1.0
 77
     0
 78
     2
 53
45.0
 43
-171.3743151220824
 44
9.347413146437247
 45
-2.245064030267287
 46
2.245064030267288
 79
     0
 53
135.0
 43
-171.3743151220824
 44
9.347413146437247
 45
-2.245064030267288
 46
-2.245064030267287
 79
     0
 47
0.0816491600082302
 98
        1
 10
1016.928716598662
 20
259.755987768387
  0
LWPOLYLINE
  5
3698
330
1F
100
AcDbEntity
  8
0
100
AcDbPolyline
 90
        6
 70
     1
 43
0.0
 10
1031.176789825749
 20
267.9789927190232
 10
1028.498343371706
 20
254.5867604487521
 42
-0.3575107650276563
 10
1026.537182020316
 20
252.9789927190232
 10
1009.816397631193
 20
252.9789927190232
 42
-0.3575107650277063
 10
1007.855236279815
 20
254.5867604487521
 10
1005.176789825749
 20
267.9789927190232
  0
LINE
  5
3699
330
1F
100
AcDbEntity
  8
kijun
100
AcDbLine
 10
1018.176789825755
 20
251.7989927190192
 30
0.0
 11
1018.176789825755
 21
269.9589927190227
 31
0.0
  0
DIMENSION
  5
369A
330
1F
100
AcDbEntity
  8
sunpo
100
AcDbDimension
  2
*D11
 10
230.6757735716819
 20
707.4105505324754
 30
0.0
 11
225.6757735716819
 21
700.0337714382534
 31
0.0
 70
   160
  1
<>
 71
     5
 42
15.0
  3
dim2
100
AcDbAlignedDimension
 13
230.6757735716819
 23
692.4105505324754
 33
0.0
 14
230.6757735716819
 24
707.4105505324754
 34
0.0
 50
90.0
100
AcDbRotatedDimension
  0
DIMENSION
  5
369B
330
1F
100
AcDbEntity
  8
sunpo
100
AcDbDimension
  2
*D12
 10
230.6757735716819
 20
632.4105505324808
 30
0.0
 11
226.4757735716818
 21
642.4105505324781
 31
0.0
 70
    32
  1
<>
 71
     5
 42
19.99999999999454
  3
dim2
100
AcDbAlignedDimension
 13
230.6757735716819
 23
652.4105505324754
 33
0.0
 14
230.6757735716819
 24
632.4105505324808
 34
0.0
 50
90.0
100
AcDbRotatedDimension
  0
LINE
  5
369C
330
1F
100
AcDbEntity
  8
saisen
100
AcDbLine
 10
214.6757735716847
 20
659.8105505324841
 30
0.0
 11
214.6757735716847
 21
685.0105505324812
 31
0.0
  0
DIMENSION
  5
369D
330
1F
100
AcDbEntity
  8
sunpo
100
AcDbDimension
  2
*D13
 10
246.6757735716819
 20
655.4105505324809
 30
0.0
 11
242.4757735716818
 21
672.4105505324809
 31
0.0
 70
    32
  1
<>
 71
     5
 42
34.0
  3
dim2
100
AcDbAlignedDimension
 13
246.6757735716819
 23
689.4105505324809
 33
0.0
 14
246.6757735716819
 24
655.4105505324809
 34
0.0
 50
90.0
100
AcDbRotatedDimension
  0
DIMENSION
  5
369E
330
1F
100
AcDbEntity
  8
sunpo
100
AcDbDimension
  2
*D14
 10
230.6757735716819
 20
575.4105505324754
 30
0.0
 11
216.0757735716818
 21
577.9105505324754
 31
0.0
 70
    32
  1
<>
 71
     5
 42
5.0
 53
90.0
  3
dim2
100
AcDbAlignedDimension
 13
230.6757735716819
 23
580.4105505324754
 33
0.0
 14
230.6757735716819
 24
575.4105505324754
 34
0.0
 50
90.0
100
AcDbRotatedDimension
  0
DIMENSION
  5
369F
330
1F
100
AcDbEntity
  8
sunpo
100
AcDbDimension
  2
*D15
 10
278.6757735716817
 20
491.4105505324808
 30
0.0
 11
274.4757735716817
 21
533.4105505324783
 31
0.0
 70
    32
  1
<>
 71
     5
 42
83.9999999999946
  3
dim2
100
AcDbAlignedDimension
 13
278.6757735716817
 23
575.4105505324754
 33
0.0
 14
278.6757735716817
 24
491.4105505324808
 34
0.0
 50
90.0
100
AcDbRotatedDimension
  0
LINE
  5
36A0
330
1F
100
AcDbEntity
  8
saisen
100
AcDbLine
 10
214.6757735716847
 20
599.8105505324769
 30
0.0
 11
214.6757735716847
 21
625.0105505324739
 31
0.0
  0
DIMENSION
  5
36A1
330
1F
100
AcDbEntity
  8
sunpo
100
AcDbDimension
  2
*D16
 10
246.6757735716819
 20
595.4105505324754
 30
0.0
 11
242.4757735716818
 21
612.4105505324754
 31
0.0
 70
    32
  1
<>
 71
     5
 42
34.0
  3
dim2
100
AcDbAlignedDimension
 13
246.6757735716819
 23
629.4105505324754
 33
0.0
 14
246.6757735716819
 24
595.4105505324754
 34
0.0
 50
90.0
100
AcDbRotatedDimension
  0
DIMENSION
  5
36A2
330
1F
100
AcDbEntity
  8
sunpo
100
AcDbDimension
  2
*D17
 10
278.6757735716817
 20
575.4105505324754
 30
0.0
 11
274.4757735716817
 21
641.4105505324755
 31
0.0
 70
    32
  1
<>
 71
     5
 42
132.0
  3
dim2
100
AcDbAlignedDimension
 13
278.6757735716817
 23
707.4105505324754
 33
0.0
 14
278.6757735716817
 24
575.4105505324754
 34
0.0
 50
90.0
100
AcDbRotatedDimension
  0
LINE
  5
36A3
330
1F
100
AcDbEntity
  8
kijun
100
AcDbLine
 10
169.6757735716846
 20
682.9105505324827
 30
0.0
 11
155.6757735716846
 21
682.9105505324827
 31
0.0
  0
LINE
  5
36A4
330
1F
100
AcDbEntity
  8
kijun
100
AcDbLine
 10
165.3757735716817
 20
676.0105505324812
 30
0.0
 11
165.3757735716817
 21
668.8105505324768
 31
0.0
  0
TEXT
  5
36A5
330
1F
100
AcDbEntity
  8
moji
100
AcDbText
 10
128.2771841344829
 20
614.407352295154
 30
0.0
 40
6.0
  1
アルミ立枠
 50
90.0
  7
Std
 72
     4
 11
125.2771841344829
 21
631.6073522951541
 31
0.0
100
AcDbText
  0
LINE
  5
36A6
330
1F
100
AcDbEntity
  8
kijun
100
AcDbLine
 10
169.6757735716846
 20
622.9105505324754
 30
0.0
 11
155.6757735716846
 21
622.9105505324754
 31
0.0
  0
LINE
  5
36A7
330
1F
100
AcDbEntity
  8
kijun
100
AcDbLine
 10
169.6757735716846
 20
661.9105505324754
 30
0.0
 11
155.6757735716846
 21
661.9105505324754
 31
0.0
  0
LINE
  5
36A8
330
1F
100
AcDbEntity
  8
0
100
AcDbLine
 10
163.1757735716846
 20
580.4105505324754
 30
0.0
 11
140.6757735716846
 21
580.4105505324754
 31
0.0
  0
LINE
  5
36A9
330
1F
100
AcDbEntity
  8
kijun
100
AcDbLine
 10
169.6757735716846
 20
601.9105505324754
 30
0.0
 11
155.6757735716846
 21
601.9105505324754
 31
0.0
  0
DIMENSION
  5
36AA
330
1F
100
AcDbEntity
  8
sunpo
100
AcDbDimension
  2
*D18
 10
164.6757735716819
 20
545.4105505324754
 30
0.0
 11
152.6757735716819
 21
549.6105505324755
 31
0.0
 70
    32
 71
     5
 42
24.0
  3
dim2
100
AcDbAlignedDimension
 13
140.6757735716819
 23
558.4105505324754
 33
0.0
 14
164.6757735716819
 24
580.4105505324754
 34
0.0
100
AcDbRotatedDimension
  0
LINE
  5
36AB
330
1F
100
AcDbEntity
  8
kijun
100
AcDbLine
 10
108.9697625665458
 20
584.9105505324827
 30
0.0
 11
118.7197625665458
 21
584.9105505324827
 31
0.0
  0
LINE
  5
36AC
330
1F
100
AcDbEntity
  8
kijun
100
AcDbLine
 10
113.6757735716846
 20
579.5105505324812
 30
0.0
 11
113.6757735716846
 21
590.3105505324768
 31
0.0
  0
LINE
  5
36AD
330
1F
100
AcDbEntity
  8
kijun
100
AcDbLine
 10
165.3757735716817
 20
608.8105505324769
 30
0.0
 11
165.3757735716817
 21
616.0105505324812
 31
0.0
  0
LINE
  5
36AE
330
1F
100
AcDbEntity
  8
0
100
AcDbLine
 10
322.5257735716905
 20
491.4105505324827
 30
0.0
 11
144.6757735716846
 21
491.4105505324827
 31
0.0
  0
LINE
  5
36AF
330
1F
100
AcDbEntity
  8
0
100
AcDbLine
 10
164.6757735716846
 20
629.4105505324754
 30
0.0
 11
322.5257735716905
 21
629.4105505324754
 31
0.0
  0
LINE
  5
36B0
330
1F
100
AcDbEntity
  8
0
100
AcDbLine
 10
322.5257735716905
 20
595.4105505324754
 30
0.0
 11
164.6757735716846
 21
595.4105505324754
 31
0.0
  0
LINE
  5
36B1
330
1F
100
AcDbEntity
  8
0
100
AcDbLine
 10
322.5257735716905
 20
595.8105505324696
 30
0.0
 11
164.6757735716846
 21
595.8105505324769
 31
0.0
  0
LINE
  5
36B2
330
1F
100
AcDbEntity
  8
saisen
100
AcDbLine
 10
322.5257735716905
 20
599.8105505324696
 30
0.0
 11
164.6757735716846
 21
599.8105505324769
 31
0.0
  0
LINE
  5
36B3
330
1F
100
AcDbEntity
  8
0
100
AcDbLine
 10
164.6757735716846
 20
629.0105505324739
 30
0.0
 11
322.5257735716905
 21
629.0105505324739
 31
0.0
  0
LINE
  5
36B4
330
1F
100
AcDbEntity
  8
saisen
100
AcDbLine
 10
164.6757735716846
 20
625.0105505324739
 30
0.0
 11
322.5257735716905
 21
625.0105505324739
 31
0.0
  0
LINE
  5
36B5
330
1F
100
AcDbEntity
  8
saisen
100
AcDbLine
 10
164.6757735716846
 20
659.8105505324841
 30
0.0
 11
322.5257735716905
 21
659.8105505324769
 31
0.0
  0
LINE
  5
36B6
330
1F
100
AcDbEntity
  8
0
100
AcDbLine
 10
164.6757735716846
 20
655.8105505324841
 30
0.0
 11
322.5257735716905
 21
655.8105505324768
 31
0.0
  0
LINE
  5
36B7
330
1F
100
AcDbEntity
  8
saisen
100
AcDbLine
 10
322.5257735716905
 20
685.0105505324812
 30
0.0
 11
164.6757735716846
 21
685.0105505324812
 31
0.0
  0
LINE
  5
36B8
330
1F
100
AcDbEntity
  8
0
100
AcDbLine
 10
322.5257735716905
 20
689.0105505324812
 30
0.0
 11
164.6757735716846
 21
689.0105505324812
 31
0.0
  0
LINE
  5
36B9
330
1F
100
AcDbEntity
  8
0
100
AcDbLine
 10
322.5257735716905
 20
689.4105505324827
 30
0.0
 11
164.6757735716846
 21
689.4105505324827
 31
0.0
  0
LINE
  5
36BA
330
1F
100
AcDbEntity
  8
0
100
AcDbLine
 10
164.6757735716846
 20
655.4105505324827
 30
0.0
 11
322.5257735716905
 21
655.4105505324827
 31
0.0
  0
DIMENSION
  5
36BB
330
1F
100
AcDbEntity
  8
sunpo
100
AcDbDimension
  2
*D19
 10
230.6757735716819
 20
692.4105505324754
 30
0.0
 11
226.4757735716818
 21
672.4105505324754
 31
0.0
 70
    32
  1
<>
 71
     5
 42
40.0
  3
dim2
100
AcDbAlignedDimension
 13
190.6757735716819
 23
652.4105505324754
 33
0.0
 14
190.6757735716819
 24
692.4105505324754
 34
0.0
 50
90.0
100
AcDbRotatedDimension
  0
LINE
  5
36BC
330
1F
100
AcDbEntity
  8
saisen
100
AcDbLine
 10
164.6757735716846
 20
625.0105505324739
 30
0.0
 11
214.6757735716847
 21
599.8105505324769
 31
0.0
  0
LINE
  5
36BD
330
1F
100
AcDbEntity
  8
saisen
100
AcDbLine
 10
164.6757735716846
 20
685.0105505324812
 30
0.0
 11
214.6757735716847
 21
659.8105505324841
 31
0.0
  0
DIMENSION
  5
36BE
330
1F
100
AcDbEntity
  8
sunpo
100
AcDbDimension
  2
*D20
 10
230.6757735716819
 20
592.4105505324754
 30
0.0
 11
226.4757735716818
 21
612.4105505324754
 31
0.0
 70
    32
  1
<>
 71
     5
 42
40.0
  3
dim2
100
AcDbAlignedDimension
 13
190.6757735716819
 23
632.4105505324754
 33
0.0
 14
230.6757735716819
 24
592.4105505324754
 34
0.0
 50
90.0
100
AcDbRotatedDimension
  0
DIMENSION
  5
36BF
330
1F
100
AcDbEntity
  8
sunpo
100
AcDbDimension
  2
*D21
 10
230.6757735716819
 20
580.4105505324754
 30
0.0
 11
227.5757735716818
 21
586.4305787778379
 31
0.0
 70
   160
  1
<>
 71
     5
 42
12.0
  3
dim2
100
AcDbAlignedDimension
 13
190.6757735716819
 23
592.4105505324754
 33
0.0
 14
190.6757735716819
 24
580.4105505324754
 34
0.0
 50
90.0
100
AcDbRotatedDimension
  0
LINE
  5
36C0
330
1F
100
AcDbEntity
  8
0
100
AcDbLine
 10
322.5257735716905
 20
501.4105505324827
 30
0.0
 11
144.6757735716846
 21
501.4105505324827
 31
0.0
  0
LINE
  5
36C1
330
1F
100
AcDbEntity
  8
0
100
AcDbLine
 10
322.5257735716905
 20
575.4105505324754
 30
0.0
 11
138.7197625665458
 21
575.4105505324754
 31
0.0
  0
LINE
  5
36C2
330
1F
100
AcDbEntity
  8
0
100
AcDbLine
 10
322.5257735716905
 20
571.4105505324754
 30
0.0
 11
144.6757735716846
 21
571.4105505324754
 31
0.0
  0
LINE
  5
36C3
330
1F
100
AcDbEntity
  8
0
100
AcDbLine
 10
322.5257735716905
 20
569.1228657096856
 30
0.0
 11
144.6757735716846
 21
569.1228657096856
 31
0.0
  0
LINE
  5
36C4
330
1F
100
AcDbEntity
  8
0
100
AcDbLine
 10
322.5257735716905
 20
570.1533654376383
 30
0.0
 11
144.6757735716846
 21
570.1533654376383
 31
0.0
  0
LINE
  5
36C5
330
1F
100
AcDbEntity
  8
0
100
AcDbLine
 10
322.5257735716905
 20
502.6677356273197
 30
0.0
 11
144.6757735716846
 21
502.6677356273197
 31
0.0
  0
LINE
  5
36C6
330
1F
100
AcDbEntity
  8
0
100
AcDbLine
 10
322.5257735716905
 20
503.6982353552724
 30
0.0
 11
144.6757735716846
 21
503.6982353552724
 31
0.0
  0
LWPOLYLINE
  5
36C7
330
1F
100
AcDbEntity
  8
0
100
AcDbPolyline
 90
       28
 70
     1
 43
0.0
 10
109.7197625665517
 20
577.4105505324809
 10
138.6757735716819
 20
577.4105505324754
 10
138.6757735716819
 20
580.4105505324754
 10
134.6757735716819
 20
580.4105505324754
 10
134.6757735716819
 20
582.4105505324754
 10
138.6757735716819
 20
582.4105505324754
 10
138.6757735716819
 20
597.4105505324809
 10
140.6757735716819
 20
597.4105505324809
 10
140.6757735716819
 20
675.4105505324754
 10
109.6757735716819
 20
675.4105505324754
 10
109.6757735716819
 20
621.4105505324809
 10
114.1757735716819
 20
621.4105505324809
 10
114.1757735716819
 20
616.4105505324808
 42
-0.9999999999999998
 10
112.1757735716819
 20
616.4105505324808
 10
112.1757735716819
 20
619.4105505324809
 10
109.6757735716819
 20
619.4105505324809
 10
109.6757735716819
 20
589.4105505324809
 10
112.1757735716819
 20
589.4105505324809
 10
112.1757735716819
 20
592.4105505324809
 42
-0.9999999999999998
 10
114.1757735716819
 20
592.4105505324809
 10
114.1757735716819
 20
589.3826864874776
 42
-0.2160739501950755
 10
117.3687067016085
 20
587.4819791039138
 42
-1.000000000000127
 10
115.7274030883038
 20
586.3391219610497
 42
3.186140661633896
 10
115.7274030883038
 20
583.4819791039138
 42
-1.000000000000127
 10
117.3687067016085
 20
582.3391219610497
 42
-0.2453926839565818
 10
113.6757735716819
 20
580.4105505324809
 10
109.6757735716819
 20
580.4105505324809
 10
109.6757735716819
 20
577.4105505324809
  0
LWPOLYLINE
  5
36C8
330
1F
100
AcDbEntity
  8
0
100
AcDbPolyline
 90
       38
 70
     1
 43
0.0
 10
140.6757735716819
 20
707.4105505324754
 10
140.6757735716819
 20
681.9105505324754
 10
137.6757735716819
 20
681.9105505324754
 42
0.9999999999999998
 10
137.6757735716819
 20
679.9105505324754
 10
140.6757735716819
 20
679.9105505324754
 10
140.6757735716819
 20
677.4105505324754
 10
109.6757735716819
 20
677.4105505324754
 10
109.6757735716819
 20
679.9105505324754
 10
112.6757735716819
 20
679.9105505324754
 42
0.9999999999999998
 10
112.6757735716819
 20
681.9105505324754
 10
109.6757735716819
 20
681.9105505324754
 10
109.6757735716819
 20
700.4105505324754
 10
114.6757735716819
 20
700.4105505324754
 10
114.6757735716819
 20
707.4105505324754
 10
112.6757735716819
 20
707.4105505324754
 10
112.6757735716819
 20
702.4105505324754
 10
107.6757735716819
 20
702.4105505324754
 10
107.6757735716819
 20
577.4545395273456
 10
109.7197625665517
 20
575.4105505324808
 10
117.2197625665517
 20
575.4105505324808
 10
117.2197625665517
 20
575.710550532482
 10
120.2197625665517
 20
575.710550532482
 10
120.2197625665517
 20
575.4105505324808
 10
128.2197625665517
 20
575.4105505324754
 10
128.2197625665517
 20
575.710550532482
 10
131.2197625665517
 20
575.710550532482
 10
131.2197625665517
 20
575.4105505324754
 10
138.7197625665517
 20
575.4105505324754
 10
140.6757735716819
 20
577.3665615376106
 10
140.6757735716819
 20
595.4105505324808
 10
142.6757735716819
 20
595.4105505324808
 10
142.6757735716819
 20
650.9105505324809
 10
142.3757735716817
 20
650.9105505324809
 10
142.3757735716817
 20
652.4105505324754
 10
142.6757735716819
 20
652.4105505324754
 10
142.6757735716819
 20
705.4105505324754
 10
160.6757735716933
 20
705.4105505324754
 10
160.6757735716933
 20
707.4105505324754
  0
LWPOLYLINE
  5
36C9
330
1F
100
AcDbEntity
  8
0
100
AcDbPolyline
 90
        6
 70
     1
 43
0.0
 10
144.6757735716819
 20
573.4105505324754
 10
105.6757735716819
 20
573.4105505324754
 10
105.6757735716819
 20
610.4105505324754
 10
107.6757735716819
 20
610.4105505324754
 10
107.6757735716819
 20
575.4105505324808
 10
144.6757735716819
 20
575.4105505324808
  0
LWPOLYLINE
  5
36CA
330
1F
100
AcDbEntity
  8
0
100
AcDbPolyline
 90
        8
 70
     1
 43
0.0
 10
163.1757735716819
 20
707.4105505324754
 10
163.1757735716819
 20
693.9105505324754
 10
142.6757735716819
 20
693.9105505324754
 10
142.6757735716819
 20
652.4105505324754
 10
144.1757735716819
 20
652.4105505324754
 10
144.1757735716819
 20
692.4105505324754
 10
164.6757735716819
 20
692.4105505324754
 10
164.6757735716819
 20
707.4105505324754
  0
LWPOLYLINE
  5
36CB
330
1F
100
AcDbEntity
  8
0
100
AcDbPolyline
 90
       16
 70
     1
 43
0.0
 10
140.6757735716819
 20
581.9105505324754
 10
163.1757735716819
 20
581.9105505324754
 10
163.1757735716819
 20
590.9105505324754
 10
142.6757735716819
 20
590.9105505324754
 10
142.6757735716819
 20
633.9105505324754
 10
163.1757735716819
 20
633.9105505324754
 10
163.1757735716819
 20
650.9105505324754
 10
142.3757735716817
 20
650.9105505324809
 10
142.3757735716817
 20
652.4105505324754
 10
164.6757735716819
 20
652.4105505324754
 10
164.6757735716819
 20
632.4105505324754
 10
144.1757735716819
 20
632.4105505324754
 10
144.1757735716819
 20
592.4105505324754
 10
164.6757735716819
 20
592.4105505324754
 10
164.6757735716819
 20
580.4105505324754
 10
140.6757735716819
 20
580.4105505324754
  0
LWPOLYLINE
  5
36CC
330
1F
100
AcDbEntity
  8
0
100
AcDbPolyline
 90
        4
 70
     1
 43
0.0
 10
155.6757735716819
 20
610.9105505324754
 10
155.6757735716819
 20
592.9105505324754
 10
161.6757735716819
 20
592.9105505324754
 10
161.6757735716819
 20
610.9105505324754
  0
LWPOLYLINE
  5
36CD
330
1F
100
AcDbEntity
  8
0
100
AcDbPolyline
 90
        4
 70
     1
 43
0.0
 10
161.6757735716819
 20
631.9105505324809
 10
161.6757735716819
 20
613.9105505324754
 10
155.6757735716819
 20
613.9105505324754
 10
155.6757735716819
 20
631.9105505324809
  0
LWPOLYLINE
  5
36CE
330
1F
100
AcDbEntity
  8
0
100
AcDbPolyline
 90
        4
 70
     1
 43
0.0
 10
162.3757735716817
 20
594.4105505324754
 10
162.3757735716817
 20
630.4105505324754
 10
164.6757735716819
 20
630.4105505324754
 10
164.6757735716819
 20
594.4105505324754
  0
LWPOLYLINE
  5
36CF
330
1F
100
AcDbEntity
  8
0
100
AcDbPolyline
 90
        4
 70
     0
 43
0.0
 10
155.6757735716819
 20
609.4105505324754
 10
145.3757735716817
 20
609.4105505324754
 10
145.3757735716817
 20
615.4105505324754
 10
155.6757735716819
 20
615.4105505324754
  0
LWPOLYLINE
  5
36D0
330
1F
100
AcDbEntity
  8
hasen
100
AcDbPolyline
 90
        4
 70
     0
 43
0.0
 10
155.6757735716819
 20
609.4105505324754
 10
185.3757735716817
 20
609.4105505324754
 10
185.3757735716817
 20
615.4105505324754
 10
155.6757735716819
 20
615.4105505324754
  0
LWPOLYLINE
  5
36D1
330
1F
100
AcDbEntity
  8
hasen
100
AcDbPolyline
 90
        4
 70
     0
 43
0.0
 10
155.6757735716819
 20
675.4105505324754
 10
185.3757735716817
 20
675.4105505324754
 10
185.3757735716817
 20
669.4105505324754
 10
155.6757735716819
 20
669.4105505324754
  0
LWPOLYLINE
  5
36D2
330
1F
100
AcDbEntity
  8
0
100
AcDbPolyline
 90
        4
 70
     0
 43
0.0
 10
155.6757735716819
 20
675.4105505324754
 10
145.3757735716817
 20
675.4105505324754
 10
145.3757735716817
 20
669.4105505324754
 10
155.6757735716819
 20
669.4105505324754
  0
LWPOLYLINE
  5
36D3
330
1F
100
AcDbEntity
  8
0
100
AcDbPolyline
 90
        4
 70
     1
 43
0.0
 10
161.6757735716819
 20
652.9105505324754
 10
161.6757735716819
 20
670.9105505324754
 10
155.6757735716819
 20
670.9105505324754
 10
155.6757735716819
 20
652.9105505324754
  0
LWPOLYLINE
  5
36D4
330
1F
100
AcDbEntity
  8
0
100
AcDbPolyline
 90
        4
 70
     1
 43
0.0
 10
155.6757735716819
 20
691.9105505324808
 10
155.6757735716819
 20
673.9105505324809
 10
161.6757735716819
 20
673.9105505324809
 10
161.6757735716819
 20
691.9105505324808
  0
LWPOLYLINE
  5
36D5
330
1F
100
AcDbEntity
  8
0
100
AcDbPolyline
 90
        4
 70
     1
 43
0.0
 10
164.6757735716819
 20
654.4105505324808
 10
164.6757735716819
 20
690.4105505324809
 10
162.3757735716817
 20
690.4105505324809
 10
162.3757735716817
 20
654.4105505324808
  0
LWPOLYLINE
  5
36D6
330
1F
100
AcDbEntity
  8
0
100
AcDbPolyline
 90
        3
 70
     0
 43
0.0
 10
111.7455409580434
 20
573.4105505324754
 10
122.4514233109949
 20
503.4105505324754
 10
144.6757735716819
 20
503.4105505324754
  0
LWPOLYLINE
  5
36D7
330
1F
100
AcDbEntity
  8
0
100
AcDbPolyline
 90
        5
 70
     0
 43
0.0
 10
105.6757735716819
 20
573.4105505324754
 10
117.896859362238
 20
493.503451132707
 42
0.3704296647521275
 10
123.8278938992355
 20
488.4105505324809
 10
144.6757735716819
 20
488.4105505324809
 10
144.6757735716819
 20
575.4105505324808
  0
DIMENSION
  5
36D8
330
1F
100
AcDbEntity
  8
sunpo
100
AcDbDimension
  2
*D22
 10
655.8455023824644
 20
411.4105505324827
 30
0.0
 11
603.1913175128111
 21
416.3053021613008
 31
0.0
 70
   160
  1
W
 71
     5
 42
513.1697288107825
  3
dim2
100
AcDbAlignedDimension
 13
142.6757735716819
 23
481.4105505324809
 33
0.0
 14
655.8455023824644
 24
481.4105505324809
 34
0.0
100
AcDbRotatedDimension
1001
ACAD
1000
DSTYLE
1002
{
1070
    76
1070
     1
1070
   344
1005
2D20
1070
   342
1005
0
1070
   173
1070
     1
1070
   343
1005
46
1002
}
  0
LINE
  5
36DA
330
1F
100
AcDbEntity
  8
kijun
100
AcDbLine
 10
1048.676789825755
 20
691.637522798801
 30
0.0
 11
1073.176789825755
 21
691.637522798801
 31
0.0
  0
ARC
  5
36DB
330
1F
100
AcDbEntity
  8
hasen
100
AcDbCircle
 10
1015.923979784844
 20
648.5438542211832
 30
0.0
 40
0.7000000000000001
100
AcDbArc
 50
298.060397951648
 51
113.3681734764152
  0
CIRCLE
  5
36DC
330
1F
100
AcDbEntity
  8
hasen
100
AcDbCircle
 10
1011.631734299795
 20
653.8862058494251
 30
0.0
 40
1.7
  0
ARC
  5
36DD
330
1F
100
AcDbEntity
  8
hasen
100
AcDbCircle
 10
1025.921999568005
 20
653.3586467870973
 30
0.0
 40
10.0
100
AcDbArc
 50
177.8857504492655
 51
233.5428209796829
  0
ARC
  5
36DE
330
1F
100
AcDbEntity
  8
hasen
100
AcDbCircle
 10
1021.428389009657
 20
638.2178404496644
 30
0.0
 40
11.00149910583928
100
AcDbArc
 50
118.0603979516481
 51
157.6609449109766
  0
LINE
  5
36DF
330
1F
100
AcDbEntity
  8
0
100
AcDbLine
 10
1017.976789825758
 20
672.981511793665
 30
0.0
 11
1017.976789825758
 21
654.0102796768751
 31
0.0
  0
ARC
  5
36E0
330
1F
100
AcDbEntity
  8
hasen
100
AcDbCircle
 10
1011.631734299795
 20
653.8862058494251
 30
0.0
 40
5.3
100
AcDbArc
 50
328.8897619301033
 51
91.95710998939757
  0
ARC
  5
36E1
330
1F
100
AcDbEntity
  8
hasen
100
AcDbCircle
 10
1007.378441054841
 20
659.2596208525629
 30
0.0
 40
0.7000000000000001
100
AcDbArc
 50
323.7746836660761
 51
139.0824591911572
  0
CIRCLE
  5
36E2
330
1F
100
AcDbEntity
  8
hasen
100
AcDbCircle
 10
1001.176789825755
 20
662.1762899491059
 30
0.0
 40
1.7
  0
ARC
  5
36E3
330
1F
100
AcDbEntity
  8
hasen
100
AcDbCircle
 10
995.0297798061237
 20
665.2064226861966
 30
0.0
 40
0.7000000000000001
100
AcDbArc
 50
349.4889693805507
 51
164.796744905327
  0
CIRCLE
  5
36E4
330
1F
100
AcDbEntity
  8
hasen
100
AcDbCircle
 10
988.1767898257548
 20
665.1815117936621
 30
0.0
 40
1.7
  0
ARC
  5
36E5
330
1F
100
AcDbEntity
  8
hasen
100
AcDbCircle
 10
983.7378144771083
 20
668.2750706510687
 30
0.0
 40
11.00149910583928
100
AcDbArc
 50
305.1961979462325
 51
344.796744905327
  0
ARC
  5
36E6
330
1F
100
AcDbEntity
  8
hasen
100
AcDbCircle
 10
997.525603615797
 20
676.0023103186886
 30
0.0
 40
10.0
100
AcDbArc
 50
229.1740642133724
 51
284.7930041912501
  0
ARC
  5
36E7
330
1F
100
AcDbEntity
  8
hasen
100
AcDbCircle
 10
991.8279760357272
 20
651.3554914240794
 30
0.0
 40
10.0
100
AcDbArc
 50
49.17406421337233
 51
104.7930041912501
  0
ARC
  5
36E8
330
1F
100
AcDbEntity
  8
hasen
100
AcDbCircle
 10
1001.176789825755
 20
662.1762899491059
 30
0.0
 40
5.3
100
AcDbArc
 50
11.21867874909292
 51
133.7889927098107
  0
ARC
  5
36E9
330
1F
100
AcDbEntity
  8
hasen
100
AcDbCircle
 10
1001.528548948061
 20
651.8822982296678
 30
0.0
 40
5.0
100
AcDbArc
 50
11.21867874909292
 51
91.95710998939757
  0
ARC
  5
36EA
330
1F
100
AcDbEntity
  8
hasen
100
AcDbCircle
 10
1009.129891988794
 20
651.8910531832134
 30
0.0
 40
3.3
100
AcDbArc
 50
183.3752306254743
 51
253.7676265176351
  0
ARC
  5
36EB
330
1F
100
AcDbEntity
  8
hasen
100
AcDbCircle
 10
999.8048842635926
 20
659.3274986951855
 30
0.0
 40
3.3
100
AcDbArc
 50
209.0895163395487
 51
279.4819122313488
  0
ARC
  5
36EC
330
1F
100
AcDbEntity
  8
hasen
100
AcDbCircle
 10
1001.176789825755
 20
662.1762899491059
 30
0.0
 40
4.299999999999999
100
AcDbArc
 50
229.1740642133724
 51
104.7930041912501
  0
ARC
  5
36ED
330
1F
100
AcDbEntity
  8
hasen
100
AcDbCircle
 10
1001.176789825755
 20
662.1762899491059
 30
0.0
 40
5.3
100
AcDbArc
 50
200.1780756945763
 51
271.9571099893975
  0
ARC
  5
36EE
330
1F
100
AcDbEntity
  8
hasen
100
AcDbCircle
 10
1016.818031867968
 20
652.3444775709922
 30
0.0
 40
11.00149910583928
100
AcDbArc
 50
143.774683666076
 51
183.3752306254743
  0
ARC
  5
36EF
330
1F
100
AcDbEntity
  8
hasen
100
AcDbCircle
 10
1006.534925478032
 20
663.0717788301608
 30
0.0
 40
11.00149910583928
100
AcDbArc
 50
169.4889693805508
 51
209.0895163395487
  0
ARC
  5
36F0
330
1F
100
AcDbEntity
  8
hasen
100
AcDbCircle
 10
998.5361682889942
 20
666.9237772744
 30
0.0
 40
11.00149910583928
100
AcDbArc
 50
279.4819122313488
 51
319.0824591911572
  0
ARC
  5
36F1
330
1F
100
AcDbEntity
  8
hasen
100
AcDbCircle
 10
1011.631734299795
 20
653.8862058494251
 30
0.0
 40
5.3
100
AcDbArc
 50
174.7824358615503
 51
262.5388094982633
  0
ARC
  5
36F2
330
1F
100
AcDbEntity
  8
hasen
100
AcDbCircle
 10
1011.279975177489
 20
664.1801975688631
 30
0.0
 40
5.0
100
AcDbArc
 50
191.2186787490929
 51
271.9571099893975
  0
ARC
  5
36F3
330
1F
100
AcDbEntity
  8
hasen
100
AcDbCircle
 10
1011.631734299795
 20
653.8862058494251
 30
0.0
 40
4.299999999999999
100
AcDbArc
 50
357.8857504492654
 51
233.5428209796829
  0
ARC
  5
36F4
330
1F
100
AcDbEntity
  8
hasen
100
AcDbCircle
 10
1003.134361923004
 20
642.3846988746791
 30
0.0
 40
10.0
100
AcDbArc
 50
357.8857504492654
 51
53.54282097968289
  0
ARC
  5
36F5
330
1F
100
AcDbEntity
  8
hasen
100
AcDbCircle
 10
1011.282720146804
 20
659.2855389259402
 30
0.0
 40
11.00149910583928
100
AcDbArc
 50
253.7676265176351
 51
293.3681734764152
  0
ARC
  5
36F6
330
1F
100
AcDbEntity
  8
0
100
AcDbCircle
 10
1015.976789825758
 20
672.981511793665
 30
0.0
 40
2.0
100
AcDbArc
 50
0.0
 51
90.0
  0
ARC
  5
36F7
330
1F
100
AcDbEntity
  8
0
  6
HIDS
 62
     4
100
AcDbCircle
 10
1018.176789825755
 20
628.5270877064231
 30
0.0
 40
5.3
100
AcDbArc
 50
21.44642987499881
 51
43.62950096715921
  0
ARC
  5
36F8
330
1F
100
AcDbEntity
  8
hasen
100
AcDbCircle
 10
1018.973847246483
 20
635.1815117936621
 30
0.0
 40
0.7000000000000001
100
AcDbArc
 50
272.3461122376823
 51
87.6538877623177
  0
CIRCLE
  5
36F9
330
1F
100
AcDbEntity
  8
hasen
100
AcDbCircle
 10
1018.176789825755
 20
628.5270877064231
 30
0.0
 40
1.7
  0
ARC
  5
36FA
330
1F
100
AcDbEntity
  8
hasen
100
AcDbCircle
 10
1009.969315305499
 20
634.7502189117931
 30
0.0
 40
5.0
100
AcDbArc
 50
322.8296026800273
 51
43.62950096715921
  0
ARC
  5
36FB
330
1F
100
AcDbEntity
  8
hasen
100
AcDbCircle
 10
1019.452859128885
 20
623.4898211998934
 30
0.0
 40
11.00149910583928
100
AcDbArc
 50
92.34611223768231
 51
131.9466591968022
  0
ARC
  5
36FC
330
1F
100
AcDbEntity
  8
hasen
100
AcDbCircle
 10
1014.304880857673
 20
629.2179455173591
 30
0.0
 40
3.3
100
AcDbArc
 50
131.9466591968022
 51
202.3390550890233
  0
ARC
  5
36FD
330
1F
100
AcDbEntity
  8
hasen
100
AcDbCircle
 10
1019.452859128885
 20
646.8732023874308
 30
0.0
 40
11.00149910583928
100
AcDbArc
 50
228.0533408031978
 51
267.6538877623177
  0
ARC
  5
36FE
330
1F
100
AcDbEntity
  8
hasen
100
AcDbCircle
 10
1025.63210171147
 20
635.634008606974
 30
0.0
 40
5.0
100
AcDbArc
 50
142.8296026800273
 51
223.6295009671592
  0
ARC
  5
36FF
330
1F
100
AcDbEntity
  8
hasen
100
AcDbCircle
 10
1018.176789825755
 20
615.1758316690448
 30
0.0
 40
4.299999999999999
100
AcDbArc
 50
152.1714647349497
 51
222.0864490723307
  0
ARC
  5
3700
330
1F
100
AcDbEntity
  8
0
100
AcDbCircle
 10
1018.176789825755
 20
615.1758316690448
 30
0.0
 40
1.7
100
AcDbArc
 50
206.7036414971246
 51
85.90120412554318
  0
ARC
  5
3701
330
1F
100
AcDbEntity
  8
hasen
100
AcDbCircle
 10
1018.176789825755
 20
615.1758316690448
 30
0.0
 40
5.3
100
AcDbArc
 50
123.1754762158206
 51
220.3999491438328
  0
ARC
  5
3702
330
1F
100
AcDbEntity
  8
hasen
100
AcDbCircle
 10
1018.176789825755
 20
615.1758316690448
 30
0.0
 40
1.7
100
AcDbArc
 50
85.90120412554318
 51
206.7036414971246
  0
ARC
  5
3703
330
1F
100
AcDbEntity
  8
hasen
100
AcDbCircle
 10
1015.923979784844
 20
621.8191693661411
 30
0.0
 40
0.7000000000000001
100
AcDbArc
 50
246.6318265235848
 51
61.93960204835192
  0
ARC
  5
3704
330
1F
100
AcDbEntity
  8
hasen
100
AcDbCircle
 10
1018.176789825755
 20
628.5270877064231
 30
0.0
 40
5.3
100
AcDbArc
 50
303.1754762158207
 51
313.5405211424907
  0
ARC
  5
3705
330
1F
100
AcDbEntity
  8
0
100
AcDbCircle
 10
1018.176789825755
 20
615.1758316690448
 30
0.0
 40
5.3
100
AcDbArc
 50
319.6000508561671
 51
56.82452378417934
  0
ARC
  5
3706
330
1F
100
AcDbEntity
  8
0
100
AcDbCircle
 10
1030.822974647906
 20
621.8514596877339
 30
0.0
 40
10.0
100
AcDbArc
 50
179.8052680745566
 51
207.8285352650503
  0
ARC
  5
3707
330
1F
100
AcDbEntity
  8
0
100
AcDbCircle
 10
1018.176789825755
 20
615.1758316690448
 30
0.0
 40
4.299999999999999
100
AcDbArc
 50
222.0864490723307
 51
27.82853526505026
  0
ARC
  5
3708
330
1F
100
AcDbEntity
  8
hasen
100
AcDbCircle
 10
1018.176789825755
 20
628.5270877064231
 30
0.0
 40
5.3
100
AcDbArc
 50
142.8296026800273
 51
236.8245237841794
  0
ARC
  5
3709
330
1F
100
AcDbEntity
  8
hasen
100
AcDbCircle
 10
1005.530605003603
 20
621.8514596877339
 30
0.0
 40
10.0
100
AcDbArc
 50
332.1714647349497
 51
27.82853526505026
  0
ARC
  5
370A
330
1F
100
AcDbEntity
  8
hasen
100
AcDbCircle
 10
1018.176789825755
 20
628.5270877064231
 30
0.0
 40
4.299999999999999
100
AcDbArc
 50
332.1714647349497
 51
207.8285352650503
  0
ARC
  5
370B
330
1F
100
AcDbEntity
  8
hasen
100
AcDbCircle
 10
1030.822974647906
 20
621.8514596877339
 30
0.0
 40
10.0
100
AcDbArc
 50
152.1714647349497
 51
179.8052680745566
  0
ARC
  5
370C
330
1F
100
AcDbEntity
  8
0
100
AcDbCircle
 10
1018.176789825755
 20
628.5270877064231
 30
0.0
 40
5.3
100
AcDbArc
 50
313.5405211424907
 51
21.44642987499881
  0
ARC
  5
370D
330
1F
100
AcDbEntity
  8
hasen
100
AcDbCircle
 10
1021.428389009657
 20
632.1451831376598
 30
0.0
 40
11.00149910583928
100
AcDbArc
 50
202.3390550890233
 51
241.9396020483519
  0
LINE
  5
370E
330
1F
100
AcDbEntity
  8
0
100
AcDbLine
 10
987.4608807348431
 20
637.9019663391136
 30
0.0
 11
987.4608807348431
 21
638.3315117936636
 31
0.0
  0
LINE
  5
370F
330
1F
100
AcDbEntity
  8
0
100
AcDbLine
 10
987.4608807348431
 20
638.3315117936636
 30
0.0
 11
988.1767898257548
 21
638.3315117936636
 31
0.0
  0
LINE
  5
3710
330
1F
100
AcDbEntity
  8
0
100
AcDbLine
 10
987.4608807348431
 20
632.0315117936607
 30
0.0
 11
987.4608807348431
 21
632.4610572482106
 31
0.0
  0
LINE
  5
3711
330
1F
100
AcDbEntity
  8
0
100
AcDbLine
 10
988.1767898257548
 20
632.0315117936607
 30
0.0
 11
987.4608807348431
 21
632.0315117936607
 31
0.0
  0
ARC
  5
3712
330
1F
100
AcDbEntity
  8
0
100
AcDbCircle
 10
990.8972443712137
 20
632.4610572482106
 30
0.0
 40
2.004545454545432
100
AcDbArc
 50
90.0
 51
180.0
  0
LINE
  5
3713
330
1F
100
AcDbEntity
  8
0
100
AcDbLine
 10
988.8926989166666
 20
632.0315117936607
 30
0.0
 11
988.1767898257548
 21
632.0315117936607
 31
0.0
  0
LINE
  5
3714
330
1F
100
AcDbEntity
  8
0
100
AcDbLine
 10
988.8926989166666
 20
632.4610572482106
 30
0.0
 11
988.8926989166666
 21
632.0315117936607
 31
0.0
  0
LINE
  5
3715
330
1F
100
AcDbEntity
  8
0
100
AcDbLine
 10
991.3267898257636
 20
634.4656027027504
 30
0.0
 11
990.8972443712137
 21
634.4656027027504
 31
0.0
  0
LINE
  5
3716
330
1F
100
AcDbEntity
  8
0
100
AcDbLine
 10
991.3267898257636
 20
635.1815117936621
 30
0.0
 11
991.3267898257636
 21
634.4656027027504
 31
0.0
  0
ARC
  5
3717
330
1F
100
AcDbEntity
  8
0
100
AcDbCircle
 10
990.8972443712137
 20
637.9019663391136
 30
0.0
 40
2.004545454545432
100
AcDbArc
 50
180.0
 51
270.0
  0
LINE
  5
3718
330
1F
100
AcDbEntity
  8
0
100
AcDbLine
 10
991.3267898257636
 20
635.8974208845738
 30
0.0
 11
991.3267898257636
 21
635.1815117936621
 31
0.0
  0
LINE
  5
3719
330
1F
100
AcDbEntity
  8
0
100
AcDbLine
 10
990.8972443712137
 20
635.8974208845738
 30
0.0
 11
991.3267898257636
 21
635.8974208845738
 31
0.0
  0
LINE
  5
371A
330
1F
100
AcDbEntity
  8
0
100
AcDbLine
 10
988.8926989166666
 20
638.3315117936636
 30
0.0
 11
988.8926989166666
 21
637.9019663391136
 31
0.0
  0
LINE
  5
371B
330
1F
100
AcDbEntity
  8
0
100
AcDbLine
 10
988.1767898257548
 20
638.3315117936636
 30
0.0
 11
988.8926989166666
 21
638.3315117936636
 31
0.0
  0
ARC
  5
371C
330
1F
100
AcDbEntity
  8
hasen
100
AcDbCircle
 10
998.5361682889942
 20
603.4392463129242
 30
0.0
 40
11.00149910583928
100
AcDbArc
 50
40.91754080884276
 51
80.51808776865119
  0
ARC
  5
371D
330
1F
100
AcDbEntity
  8
hasen
100
AcDbCircle
 10
1009.129891988794
 20
618.4719704041108
 30
0.0
 40
3.3
100
AcDbArc
 50
106.2323734823649
 51
176.6247693745256
  0
ARC
  5
371E
330
1F
100
AcDbEntity
  8
hasen
100
AcDbCircle
 10
1016.818031867968
 20
618.018546016332
 30
0.0
 40
11.00149910583928
100
AcDbArc
 50
176.6247693745256
 51
216.2253163339239
  0
ARC
  5
371F
330
1F
100
AcDbEntity
  8
hasen
100
AcDbCircle
 10
1007.378441054841
 20
611.1034027347614
 30
0.0
 40
0.7000000000000001
100
AcDbArc
 50
220.9175408088427
 51
36.22531633392393
  0
ARC
  5
3720
330
1F
100
AcDbEntity
  8
hasen
100
AcDbCircle
 10
999.8048842635926
 20
611.0355248921386
 30
0.0
 40
3.3
100
AcDbArc
 50
80.51808776865119
 51
150.9104836604513
  0
ARC
  5
3721
330
1F
100
AcDbEntity
  8
hasen
100
AcDbCircle
 10
1011.282720146804
 20
611.0774846613913
 30
0.0
 40
11.00149910583928
100
AcDbArc
 50
66.63182652358475
 51
106.2323734823649
  0
ARC
  5
3722
330
1F
100
AcDbEntity
  8
hasen
100
AcDbCircle
 10
1015.976789825758
 20
597.3815117936592
 30
0.0
 40
2.0
100
AcDbArc
 50
270.0
 51
0.0
  0
LINE
  5
3723
330
1F
100
AcDbEntity
  8
hasen
100
AcDbLine
 10
1015.527900332936
 20
595.3815117936592
 30
0.0
 11
1015.976789825758
 21
595.3815117936592
 31
0.0
  0
ARC
  5
3724
330
1F
100
AcDbEntity
  8
0
100
AcDbCircle
 10
1018.176789825755
 20
601.8245756316591
 30
0.0
 40
5.3
100
AcDbArc
 50
139.6000508561671
 51
236.8245237841794
  0
CIRCLE
  5
3725
330
1F
100
AcDbEntity
  8
0
100
AcDbCircle
 10
1018.176789825755
 20
601.8245756316591
 30
0.0
 40
1.7
  0
ARC
  5
3726
330
1F
100
AcDbEntity
  8
0
100
AcDbCircle
 10
1018.176789825755
 20
601.8245756316591
 30
0.0
 40
5.3
100
AcDbArc
 50
303.1754762158207
 51
40.39994914383287
  0
ARC
  5
3727
330
1F
100
AcDbEntity
  8
0
100
AcDbCircle
 10
1018.176789825755
 20
601.8245756316591
 30
0.0
 40
4.299999999999999
100
AcDbArc
 50
332.1714647349497
 51
207.8285352650503
  0
CIRCLE
  5
3728
330
1F
100
AcDbEntity
  8
0
100
AcDbCircle
 10
1018.176789825755
 20
588.4733195942808
 30
0.0
 40
1.7
  0
ARC
  5
3729
330
1F
100
AcDbEntity
  8
0
100
AcDbCircle
 10
1010.332939332789
 20
581.7976915755917
 30
0.0
 40
5.0
100
AcDbArc
 50
319.6000508561671
 51
40.39994914383287
  0
ARC
  5
372A
330
1F
100
AcDbEntity
  8
0
100
AcDbCircle
 10
1026.020640318735
 20
581.7976915755917
 30
0.0
 40
5.0
100
AcDbArc
 50
139.6000508561671
 51
220.3999491438328
  0
ARC
  5
372B
330
1F
100
AcDbEntity
  8
0
100
AcDbCircle
 10
1030.822974647906
 20
595.14894761297
 30
0.0
 40
10.0
100
AcDbArc
 50
152.1714647349497
 51
207.8285352650503
  0
ARC
  5
372C
330
1F
100
AcDbEntity
  8
0
100
AcDbCircle
 10
1018.176789825755
 20
588.4733195942808
 30
0.0
 40
5.3
100
AcDbArc
 50
319.6000508561671
 51
56.82452378417934
  0
ARC
  5
372D
330
1F
100
AcDbEntity
  8
0
100
AcDbCircle
 10
1018.176789825755
 20
588.4733195942808
 30
0.0
 40
5.3
100
AcDbArc
 50
123.1754762158206
 51
220.3999491438328
  0
ARC
  5
372E
330
1F
100
AcDbEntity
  8
0
100
AcDbCircle
 10
1018.176789825755
 20
588.4733195942808
 30
0.0
 40
4.299999999999999
100
AcDbArc
 50
152.1714647349497
 51
27.82853526505026
  0
ARC
  5
372F
330
1F
100
AcDbEntity
  8
0
100
AcDbCircle
 10
1005.530605003603
 20
595.14894761297
 30
0.0
 40
10.0
100
AcDbArc
 50
332.1714647349497
 51
27.82853526505026
  0
ARC
  5
3730
330
1F
100
AcDbEntity
  8
hasen
100
AcDbCircle
 10
995.0297798061237
 20
605.1566009011276
 30
0.0
 40
0.7000000000000001
100
AcDbArc
 50
195.203255094673
 51
10.51103061944924
  0
ARC
  5
3731
330
1F
100
AcDbEntity
  8
0
100
AcDbCircle
 10
1010.332939332789
 20
608.5002036503483
 30
0.0
 40
5.0
100
AcDbArc
 50
319.6000508561671
 51
40.39994914383287
  0
ARC
  5
3732
330
1F
100
AcDbEntity
  8
0
100
AcDbCircle
 10
1026.020640318735
 20
608.5002036503483
 30
0.0
 40
5.0
100
AcDbArc
 50
139.6000508561671
 51
220.3999491438328
  0
ARC
  5
3733
330
1F
100
AcDbEntity
  8
hasen
100
AcDbCircle
 10
983.7378144771083
 20
602.0879529362628
 30
0.0
 40
11.00149910583928
100
AcDbArc
 50
15.20325509467299
 51
54.80380205376751
  0
ARC
  5
3734
330
1F
100
AcDbEntity
  8
hasen
100
AcDbCircle
 10
1006.534925478032
 20
607.2912447571707
 30
0.0
 40
11.00149910583928
100
AcDbArc
 50
150.9104836604513
 51
190.5110306194492
  0
DIMENSION
  5
3735
330
1F
100
AcDbEntity
  8
sunpo
100
AcDbDimension
  2
*D23
 10
1053.176789825749
 20
538.2336948678821
 30
0.0
 11
1045.676789825749
 21
542.4336948678821
 31
0.0
 70
    32
 71
     5
 42
15.0
  3
dim2
100
AcDbAlignedDimension
 13
1038.176789825749
 23
564.2336948678821
 33
0.0
 14
1053.176789825749
 24
564.2336948678821
 34
0.0
100
AcDbRotatedDimension
  0
CIRCLE
  5
3736
330
1F
100
AcDbEntity
  8
0
100
AcDbCircle
 10
1018.176789825755
 20
561.7708075195241
 30
0.0
 40
1.7
  0
ARC
  5
3737
330
1F
100
AcDbEntity
  8
0
100
AcDbCircle
 10
1005.530605003603
 20
568.4464355382133
 30
0.0
 40
10.0
100
AcDbArc
 50
332.1714647349497
 51
27.82853526505026
  0
ARC
  5
3738
330
1F
100
AcDbEntity
  8
0
100
AcDbCircle
 10
1030.822974647906
 20
568.4464355382133
 30
0.0
 40
10.0
100
AcDbArc
 50
152.1714647349497
 51
207.8285352650503
  0
CIRCLE
  5
3739
330
1F
100
AcDbEntity
  8
0
100
AcDbCircle
 10
1018.176789825755
 20
548.4195514821458
 30
0.0
 40
1.7
  0
ARC
  5
373A
330
1F
100
AcDbEntity
  8
0
100
AcDbCircle
 10
1018.176789825755
 20
548.4195514821458
 30
0.0
 40
5.3
100
AcDbArc
 50
139.6000508561671
 51
236.8245237841794
  0
ARC
  5
373B
330
1F
100
AcDbEntity
  8
0
100
AcDbCircle
 10
1010.332939332789
 20
555.095179500835
 30
0.0
 40
5.0
100
AcDbArc
 50
319.6000508561671
 51
40.39994914383287
  0
ARC
  5
373C
330
1F
100
AcDbEntity
  8
0
100
AcDbCircle
 10
1018.176789825755
 20
548.4195514821458
 30
0.0
 40
5.3
100
AcDbArc
 50
303.1754762158207
 51
40.39994914383287
  0
ARC
  5
373D
330
1F
100
AcDbEntity
  8
0
100
AcDbCircle
 10
1026.020640318735
 20
555.095179500835
 30
0.0
 40
5.0
100
AcDbArc
 50
139.6000508561671
 51
220.3999491438328
  0
ARC
  5
373E
330
1F
100
AcDbEntity
  8
0
100
AcDbCircle
 10
1018.176789825755
 20
548.4195514821458
 30
0.0
 40
4.299999999999999
100
AcDbArc
 50
332.1714647349497
 51
207.8285352650503
  0
ARC
  5
373F
330
1F
100
AcDbEntity
  8
0
100
AcDbCircle
 10
1018.176789825755
 20
561.7708075195241
 30
0.0
 40
4.299999999999999
100
AcDbArc
 50
152.1714647349497
 51
27.82853526505026
  0
ARC
  5
3740
330
1F
100
AcDbEntity
  8
0
100
AcDbCircle
 10
1018.176789825755
 20
561.7708075195241
 30
0.0
 40
5.3
100
AcDbArc
 50
123.1754762158206
 51
220.3999491438328
  0
ARC
  5
3741
330
1F
100
AcDbEntity
  8
0
100
AcDbCircle
 10
1018.176789825755
 20
561.7708075195241
 30
0.0
 40
5.3
100
AcDbArc
 50
319.6000508561671
 51
56.82452378417934
  0
CIRCLE
  5
3742
330
1F
100
AcDbEntity
  8
0
100
AcDbCircle
 10
1018.176789825755
 20
535.0682954447675
 30
0.0
 40
1.7
  0
ARC
  5
3743
330
1F
100
AcDbEntity
  8
0
100
AcDbCircle
 10
1018.176789825755
 20
535.0682954447675
 30
0.0
 40
5.3
100
AcDbArc
 50
123.1754762158206
 51
220.3999491438328
  0
ARC
  5
3744
330
1F
100
AcDbEntity
  8
0
100
AcDbCircle
 10
1018.176789825755
 20
535.0682954447675
 30
0.0
 40
4.299999999999999
100
AcDbArc
 50
152.1714647349497
 51
27.82853526505026
  0
ARC
  5
3745
330
1F
100
AcDbEntity
  8
0
100
AcDbCircle
 10
1018.176789825755
 20
535.0682954447675
 30
0.0
 40
5.3
100
AcDbArc
 50
319.6000508561671
 51
56.82452378417934
  0
CIRCLE
  5
3746
330
1F
100
AcDbEntity
  8
0
100
AcDbCircle
 10
1018.176789825755
 20
521.7170394073892
 30
0.0
 40
1.7
  0
ARC
  5
3747
330
1F
100
AcDbEntity
  8
0
100
AcDbCircle
 10
1018.176789825755
 20
521.7170394073892
 30
0.0
 40
5.3
100
AcDbArc
 50
139.6000508561671
 51
236.8245237841794
  0
ARC
  5
3748
330
1F
100
AcDbEntity
  8
0
100
AcDbCircle
 10
1018.176789825755
 20
521.7170394073892
 30
0.0
 40
5.3
100
AcDbArc
 50
303.1754762158207
 51
40.39994914383287
  0
ARC
  5
3749
330
1F
100
AcDbEntity
  8
0
100
AcDbCircle
 10
1018.176789825755
 20
521.7170394073892
 30
0.0
 40
4.299999999999999
100
AcDbArc
 50
332.1714647349497
 51
207.8285352650503
  0
ARC
  5
374A
330
1F
100
AcDbEntity
  8
0
100
AcDbCircle
 10
1010.332939332789
 20
528.3926674260783
 30
0.0
 40
5.0
100
AcDbArc
 50
319.6000508561671
 51
40.39994914383287
  0
ARC
  5
374B
330
1F
100
AcDbEntity
  8
0
100
AcDbCircle
 10
1026.020640318735
 20
528.3926674260783
 30
0.0
 40
5.0
100
AcDbArc
 50
139.6000508561671
 51
220.3999491438328
  0
ARC
  5
374C
330
1F
100
AcDbEntity
  8
0
100
AcDbCircle
 10
1030.822974647906
 20
541.7439234634566
 30
0.0
 40
10.0
100
AcDbArc
 50
152.1714647349497
 51
207.8285352650503
  0
ARC
  5
374D
330
1F
100
AcDbEntity
  8
0
100
AcDbCircle
 10
1005.530605003603
 20
541.7439234634566
 30
0.0
 40
10.0
100
AcDbArc
 50
332.1714647349497
 51
27.82853526505026
  0
DIMENSION
  5
374E
330
1F
100
AcDbEntity
  8
sunpo
100
AcDbDimension
  2
*D24
 10
998.1767898257489
 20
538.2336948678821
 30
0.0
 11
1018.176789825749
 21
542.4336948678821
 31
0.0
 70
    32
 71
     5
 42
40.0
  3
dim2
100
AcDbAlignedDimension
 13
1038.176789825749
 23
564.2336948678821
 33
0.0
 14
998.1767898257489
 24
564.2336948678821
 34
0.0
 50
180.0
100
AcDbRotatedDimension
  0
ARC
  5
374F
330
1F
100
AcDbEntity
  8
0
100
AcDbCircle
 10
1018.176789825755
 20
575.1220635569024
 30
0.0
 40
4.299999999999999
100
AcDbArc
 50
332.1714647349497
 51
207.8285352650503
  0
ARC
  5
3750
330
1F
100
AcDbEntity
  8
0
100
AcDbCircle
 10
1018.176789825755
 20
575.1220635569024
 30
0.0
 40
5.3
100
AcDbArc
 50
303.1754762158207
 51
40.39994914383287
  0
ARC
  5
3751
330
1F
100
AcDbEntity
  8
0
100
AcDbCircle
 10
1018.176789825755
 20
575.1220635569024
 30
0.0
 40
5.3
100
AcDbArc
 50
139.6000508561671
 51
236.8245237841794
  0
CIRCLE
  5
3752
330
1F
100
AcDbEntity
  8
0
100
AcDbCircle
 10
1018.176789825755
 20
575.1220635569024
 30
0.0
 40
1.7
  0
CIRCLE
  5
3753
330
1F
100
AcDbEntity
  8
0
100
AcDbCircle
 10
1018.176789825755
 20
508.3657833700108
 30
0.0
 40
1.7
  0
ARC
  5
3754
330
1F
100
AcDbEntity
  8
0
100
AcDbCircle
 10
1010.332939332789
 20
501.6901553513216
 30
0.0
 40
5.0
100
AcDbArc
 50
319.6000508561671
 51
40.39994914383287
  0
ARC
  5
3755
330
1F
100
AcDbEntity
  8
0
100
AcDbCircle
 10
1026.020640318735
 20
501.6901553513216
 30
0.0
 40
5.0
100
AcDbArc
 50
139.6000508561671
 51
220.3999491438328
  0
ARC
  5
3756
330
1F
100
AcDbEntity
  8
0
100
AcDbCircle
 10
1005.530605003603
 20
488.3388993139432
 30
0.0
 40
10.0
100
AcDbArc
 50
332.1714647349497
 51
27.82853526505026
  0
CIRCLE
  5
3757
330
1F
100
AcDbEntity
  8
0
100
AcDbCircle
 10
1018.176789825755
 20
481.6632712952541
 30
0.0
 40
1.7
  0
ARC
  5
3758
330
1F
100
AcDbEntity
  8
0
100
AcDbCircle
 10
1018.176789825755
 20
481.6632712952541
 30
0.0
 40
5.3
100
AcDbArc
 50
123.1754762158206
 51
220.3999491438328
  0
ARC
  5
3759
330
1F
100
AcDbEntity
  8
0
100
AcDbCircle
 10
1030.822974647906
 20
488.3388993139432
 30
0.0
 40
10.0
100
AcDbArc
 50
152.1714647349497
 51
207.8285352650503
  0
ARC
  5
375A
330
1F
100
AcDbEntity
  8
0
100
AcDbCircle
 10
1018.176789825755
 20
481.6632712952541
 30
0.0
 40
5.3
100
AcDbArc
 50
319.6000508561671
 51
56.82452378417934
  0
ARC
  5
375B
330
1F
100
AcDbEntity
  8
0
100
AcDbCircle
 10
1018.176789825755
 20
495.0145273326325
 30
0.0
 40
5.3
100
AcDbArc
 50
139.6000508561671
 51
236.8245237841794
  0
ARC
  5
375C
330
1F
100
AcDbEntity
  8
0
100
AcDbCircle
 10
1018.176789825755
 20
495.0145273326325
 30
0.0
 40
5.3
100
AcDbArc
 50
303.1754762158207
 51
40.39994914383287
  0
ARC
  5
375D
330
1F
100
AcDbEntity
  8
0
100
AcDbCircle
 10
1018.176789825755
 20
495.0145273326325
 30
0.0
 40
4.299999999999999
100
AcDbArc
 50
332.1714647349497
 51
207.8285352650503
  0
CIRCLE
  5
375E
330
1F
100
AcDbEntity
  8
0
100
AcDbCircle
 10
1018.176789825755
 20
495.0145273326325
 30
0.0
 40
1.7
  0
CIRCLE
  5
375F
330
1F
100
AcDbEntity
  8
0
100
AcDbCircle
 10
1018.176789825755
 20
468.3120152578758
 30
0.0
 40
1.7
  0
ARC
  5
3760
330
1F
100
AcDbEntity
  8
0
100
AcDbCircle
 10
1018.176789825755
 20
468.3120152578758
 30
0.0
 40
5.3
100
AcDbArc
 50
139.6000508561671
 51
236.8245237841794
  0
ARC
  5
3761
330
1F
100
AcDbEntity
  8
0
100
AcDbCircle
 10
1018.176789825755
 20
468.3120152578758
 30
0.0
 40
4.299999999999999
100
AcDbArc
 50
332.1714647349497
 51
207.8285352650503
  0
ARC
  5
3762
330
1F
100
AcDbEntity
  8
0
100
AcDbCircle
 10
1018.176789825755
 20
468.3120152578758
 30
0.0
 40
5.3
100
AcDbArc
 50
303.1754762158207
 51
40.39994914383287
  0
ARC
  5
3763
330
1F
100
AcDbEntity
  8
0
100
AcDbCircle
 10
1010.332939332789
 20
448.285131201801
 30
0.0
 40
5.0
100
AcDbArc
 50
17.02133878675333
 51
40.39994914383287
  0
ARC
  5
3764
330
1F
100
AcDbEntity
  8
0
100
AcDbCircle
 10
1018.176789825755
 20
454.9607592204901
 30
0.0
 40
5.3
100
AcDbArc
 50
123.1754762158206
 51
220.3999491438328
  0
CIRCLE
  5
3765
330
1F
100
AcDbEntity
  8
0
100
AcDbCircle
 10
1018.176789825755
 20
454.9607592204901
 30
0.0
 40
1.7
  0
ARC
  5
3766
330
1F
100
AcDbEntity
  8
0
100
AcDbCircle
 10
1026.020640318735
 20
448.285131201801
 30
0.0
 40
5.0
100
AcDbArc
 50
139.6000508561671
 51
162.9786612132466
  0
ARC
  5
3767
330
1F
100
AcDbEntity
  8
0
100
AcDbCircle
 10
1018.176789825755
 20
454.9607592204901
 30
0.0
 40
5.3
100
AcDbArc
 50
319.6000508561671
 51
56.82452378417934
  0
ARC
  5
3768
330
1F
100
AcDbEntity
  8
0
100
AcDbCircle
 10
1018.176789825755
 20
454.9607592204901
 30
0.0
 40
4.299999999999999
100
AcDbArc
 50
152.1714647349497
 51
27.82853526505026
  0
ARC
  5
3769
330
1F
100
AcDbEntity
  8
0
100
AcDbCircle
 10
1005.530605003603
 20
461.6363872391866
 30
0.0
 40
10.0
100
AcDbArc
 50
332.1714647349497
 51
27.82853526505026
  0
ARC
  5
376A
330
1F
100
AcDbEntity
  8
0
100
AcDbCircle
 10
1030.822974647906
 20
461.6363872391866
 30
0.0
 40
10.0
100
AcDbArc
 50
152.1714647349497
 51
207.8285352650503
  0
ARC
  5
376B
330
1F
100
AcDbEntity
  8
0
100
AcDbCircle
 10
1018.176789825755
 20
481.6632712952541
 30
0.0
 40
4.299999999999999
100
AcDbArc
 50
152.1714647349497
 51
27.82853526505026
  0
ARC
  5
376C
330
1F
100
AcDbEntity
  8
0
100
AcDbCircle
 10
1026.020640318735
 20
474.987643276565
 30
0.0
 40
5.0
100
AcDbArc
 50
139.6000508561671
 51
220.3999491438328
  0
ARC
  5
376D
330
1F
100
AcDbEntity
  8
0
100
AcDbCircle
 10
1010.332939332789
 20
474.987643276565
 30
0.0
 40
5.0
100
AcDbArc
 50
319.6000508561671
 51
40.39994914383287
  0
LINE
  5
376E
330
1F
100
AcDbEntity
  8
saisen
100
AcDbLine
 10
1013.227042357454
 20
434.7990229485567
 30
0.0
 11
1018.176789825755
 21
439.7487704168652
 31
0.0
  0
LINE
  5
376F
330
1F
100
AcDbEntity
  8
saisen
100
AcDbLine
 10
1013.227042357454
 20
434.7990229485567
 30
0.0
 11
1015.676789825755
 21
434.7990229485567
 31
0.0
  0
LINE
  5
3770
330
1F
100
AcDbEntity
  8
saisen
100
AcDbLine
 10
1015.676789825755
 20
431.7990229485567
 30
0.0
 11
1015.676789825755
 21
434.7990229485567
 31
0.0
  0
LINE
  5
3771
330
1F
100
AcDbEntity
  8
saisen
100
AcDbLine
 10
1020.676789825755
 20
434.7990229485567
 30
0.0
 11
1020.676789825755
 21
431.7990229485567
 31
0.0
  0
LINE
  5
3772
330
1F
100
AcDbEntity
  8
saisen
100
AcDbLine
 10
1020.676789825755
 20
431.7990229485567
 30
0.0
 11
1015.676789825755
 21
431.7990229485567
 31
0.0
  0
LINE
  5
3773
330
1F
100
AcDbEntity
  8
saisen
100
AcDbLine
 10
1018.176789825755
 20
439.7487704168652
 30
0.0
 11
1023.126537294056
 21
434.7990229485567
 31
0.0
  0
LINE
  5
3774
330
1F
100
AcDbEntity
  8
saisen
100
AcDbLine
 10
1020.676789825755
 20
434.7990229485567
 30
0.0
 11
1023.12653729407
 21
434.7990229485567
 31
0.0
  0
LINE
  5
3775
330
1F
100
AcDbEntity
  8
0
100
AcDbLine
 10
998.1767898257549
 20
595.3815117936592
 30
0.0
 11
998.1767898257549
 21
449.7487704168652
 31
0.0
  0
ARC
  5
3776
330
1F
100
AcDbEntity
  8
0
100
AcDbCircle
 10
1018.176789825755
 20
508.3657833700108
 30
0.0
 40
5.3
100
AcDbArc
 50
319.6000508561671
 51
56.82452378417934
  0
ARC
  5
3777
330
1F
100
AcDbEntity
  8
0
100
AcDbCircle
 10
1018.176789825755
 20
508.3657833700108
 30
0.0
 40
5.3
100
AcDbArc
 50
123.1754762158206
 51
220.3999491438328
  0
ARC
  5
3778
330
1F
100
AcDbEntity
  8
0
100
AcDbCircle
 10
1018.176789825755
 20
508.3657833700108
 30
0.0
 40
4.299999999999999
100
AcDbArc
 50
152.1714647349497
 51
27.82853526505026
  0
ARC
  5
3779
330
1F
100
AcDbEntity
  8
0
100
AcDbCircle
 10
1005.530605003603
 20
515.0414113886999
 30
0.0
 40
10.0
100
AcDbArc
 50
332.1714647349497
 51
27.82853526505026
  0
ARC
  5
377A
330
1F
100
AcDbEntity
  8
0
100
AcDbCircle
 10
1030.822974647906
 20
515.0414113886999
 30
0.0
 40
10.0
100
AcDbArc
 50
152.1714647349497
 51
207.8285352650503
  0
LINE
  5
377B
330
1F
100
AcDbEntity
  8
kijun
100
AcDbLine
 10
988.1767898257548
 20
587.4215117936601
 30
0.0
 11
988.1767898257548
 21
682.9415117936641
 31
0.0
  0
LINE
  5
377C
330
1F
100
AcDbEntity
  8
0
100
AcDbLine
 10
1038.176789825755
 20
674.981511793665
 30
0.0
 11
1038.176789825755
 21
449.7487704168652
 31
0.0
  0
LINE
  5
377D
330
1F
100
AcDbEntity
  8
hasen
100
AcDbLine
 10
1017.976789825758
 20
654.0102796768751
 30
0.0
 11
1017.976789825758
 21
597.3815117936592
 31
0.0
  0
CIRCLE
  5
377E
330
1F
100
AcDbEntity
  8
hasen
100
AcDbCircle
 10
1017.424627191214
 20
641.8571398123512
 30
0.0
 40
1.7
  0
ARC
  5
377F
330
1F
100
AcDbEntity
  8
hasen
100
AcDbCircle
 10
1017.424627191214
 20
641.8571398123512
 30
0.0
 40
4.299999999999999
100
AcDbArc
 50
177.8857504492655
 51
53.54282097968289
  0
ARC
  5
3780
330
1F
100
AcDbEntity
  8
hasen
100
AcDbCircle
 10
1017.424627191214
 20
641.8571398123512
 30
0.0
 40
5.3
100
AcDbArc
 50
322.8296026800273
 51
82.53880949826337
  0
ARC
  5
3781
330
1F
100
AcDbEntity
  8
hasen
100
AcDbCircle
 10
1017.424627191214
 20
641.8571398123512
 30
0.0
 40
5.3
100
AcDbArc
 50
148.8897619301033
 51
223.6295009671592
  0
ARC
  5
3782
330
1F
100
AcDbEntity
  8
hasen
100
AcDbCircle
 10
1014.304880857673
 20
641.1450780699651
 30
0.0
 40
3.3
100
AcDbArc
 50
157.6609449109766
 51
228.0533408031978
  0
LINE
  5
3783
330
1F
100
AcDbEntity
  8
0
100
AcDbLine
 10
1053.176789825755
 20
450.9182807670786
 30
0.0
 11
1053.176789825755
 21
752.481511793665
 31
0.0
  0
ARC
  5
3784
330
1F
100
AcDbEntity
  8
hasen
100
AcDbCircle
 10
981.323799845386
 20
665.2064226861966
 30
0.0
 40
0.7000000000000001
100
AcDbArc
 50
15.20325509467299
 51
190.5110306194492
  0
ARC
  5
3785
330
1F
100
AcDbEntity
  8
hasen
100
AcDbCircle
 10
979.9093047937658
 20
671.3246942950846
 30
0.0
 40
5.0
100
AcDbArc
 50
242.6472501777205
 51
323.3856814174796
  0
ARC
  5
3786
330
1F
100
AcDbEntity
  8
hasen
100
AcDbCircle
 10
983.4442748577439
 20
656.0331074476835
 30
0.0
 40
5.0
100
AcDbArc
 50
62.64725017772055
 51
143.3856814174796
  0
ARC
  5
3787
330
1F
100
AcDbEntity
  8
hasen
100
AcDbCircle
 10
992.6157651744015
 20
668.2750706510687
 30
0.0
 40
11.00149910583928
100
AcDbArc
 50
195.203255094673
 51
234.8038020537675
  0
ARC
  5
3788
330
1F
100
AcDbEntity
  8
hasen
100
AcDbCircle
 10
968.9751385966683
 20
659.2596208525629
 30
0.0
 40
0.7000000000000001
100
AcDbArc
 50
40.91754080884276
 51
216.2253163339239
  0
CIRCLE
  5
3789
330
1F
100
AcDbEntity
  8
hasen
100
AcDbCircle
 10
975.1767898257549
 20
662.1762899491059
 30
0.0
 40
1.7
  0
ARC
  5
378A
330
1F
100
AcDbEntity
  8
hasen
100
AcDbCircle
 10
975.1767898257549
 20
662.1762899491059
 30
0.0
 40
5.3
100
AcDbArc
 50
62.64725017772055
 51
185.2175641384497
  0
ARC
  5
378B
330
1F
100
AcDbEntity
  8
hasen
100
AcDbCircle
 10
976.5486953879317
 20
659.3274986951855
 30
0.0
 40
3.3
100
AcDbArc
 50
260.5180877686512
 51
330.9104836604513
  0
ARC
  5
378C
330
1F
100
AcDbEntity
  8
hasen
100
AcDbCircle
 10
964.7218453517144
 20
653.8862058494251
 30
0.0
 40
5.3
100
AcDbArc
 50
293.8857651417288
 51
5.217564138449684
  0
ARC
  5
378D
330
1F
100
AcDbEntity
  8
hasen
100
AcDbCircle
 10
967.2236876627303
 20
651.8910531832134
 30
0.0
 40
3.3
100
AcDbArc
 50
286.2323734823649
 51
356.6247693745256
  0
ARC
  5
378E
330
1F
100
AcDbEntity
  8
hasen
100
AcDbCircle
 10
975.1767898257549
 20
662.1762899491059
 30
0.0
 40
4.299999999999999
100
AcDbArc
 50
280.6026356418851
 51
156.2215756195165
  0
ARC
  5
378F
330
1F
100
AcDbEntity
  8
hasen
100
AcDbCircle
 10
975.1767898257549
 20
662.1762899491059
 30
0.0
 40
5.3
100
AcDbArc
 50
251.6066471230517
 51
323.3856814174796
  0
ARC
  5
3790
330
1F
100
AcDbEntity
  8
hasen
100
AcDbCircle
 10
962.0906944569743
 20
667.942060322528
 30
0.0
 40
10.0
100
AcDbArc
 50
280.6026356418851
 51
336.2215756195165
  0
ARC
  5
3791
330
1F
100
AcDbEntity
  8
hasen
100
AcDbCircle
 10
977.807940720495
 20
648.120435476003
 30
0.0
 40
10.0
100
AcDbArc
 50
100.602635641885
 51
156.2215756195165
  0
ARC
  5
3792
330
1F
100
AcDbEntity
  8
hasen
100
AcDbCircle
 10
977.8174113625155
 20
666.9237772744
 30
0.0
 40
11.00149910583928
100
AcDbArc
 50
220.9175408088427
 51
260.5180877686512
  0
ARC
  5
3793
330
1F
100
AcDbEntity
  8
hasen
100
AcDbCircle
 10
969.8186541734775
 20
663.0717788301608
 30
0.0
 40
11.00149910583928
100
AcDbArc
 50
330.9104836604513
 51
10.51103061944924
  0
ARC
  5
3794
330
1F
100
AcDbEntity
  8
hasen
100
AcDbCircle
 10
959.5355477835418
 20
652.3444775709922
 30
0.0
 40
11.00149910583928
100
AcDbArc
 50
356.6247693745256
 51
36.22531633392393
  0
LINE
  5
3795
330
1F
100
AcDbEntity
  8
0
100
AcDbLine
 10
958.3767898257519
 20
664.981511793665
 30
0.0
 11
958.3767898257519
 21
672.981511793665
 31
0.0
  0
ARC
  5
3796
330
1F
100
AcDbEntity
  8
hasen
100
AcDbCircle
 10
960.4295998666803
 20
648.5438542211832
 30
0.0
 40
0.7000000000000001
100
AcDbArc
 50
66.63182652358475
 51
241.9396020483519
  0
ARC
  5
3797
330
1F
100
AcDbEntity
  8
hasen
100
AcDbCircle
 10
954.7583338073618
 20
651.2749920118567
 30
0.0
 40
5.0
100
AcDbArc
 50
293.8857651417288
 51
14.68566342949511
  0
LINE
  5
3798
330
1F
100
AcDbEntity
  8
0
100
AcDbLine
 10
941.1767898257549
 20
656.981511793665
 30
0.0
 11
940.376789825752
 21
656.981511793665
 31
0.0
  0
LINE
  5
3799
330
1F
100
AcDbEntity
  8
0
100
AcDbLine
 10
940.376789825752
 20
656.981511793665
 30
0.0
 11
940.376789825752
 21
664.981511793665
 31
0.0
  0
LINE
  5
379A
330
1F
100
AcDbEntity
  8
0
100
AcDbLine
 10
975.1767898257549
 20
664.981511793665
 30
0.0
 11
940.376789825752
 21
664.981511793665
 31
0.0
  0
LINE
  5
379B
330
1F
100
AcDbEntity
  8
0
100
AcDbLine
 10
941.1767898257549
 20
664.1815117936621
 30
0.0
 11
975.1767898257549
 21
664.1815117936621
 31
0.0
  0
CIRCLE
  5
379C
330
1F
100
AcDbEntity
  8
hasen
100
AcDbCircle
 10
964.7218453517144
 20
653.8862058494251
 30
0.0
 40
1.7
  0
ARC
  5
379D
330
1F
100
AcDbEntity
  8
hasen
100
AcDbCircle
 10
964.7218453517144
 20
653.8862058494251
 30
0.0
 40
4.299999999999999
100
AcDbArc
 50
100.602635641885
 51
336.2215756195165
  0
ARC
  5
379E
330
1F
100
AcDbEntity
  8
hasen
100
AcDbCircle
 10
968.8924640046625
 20
644.4683536499196
 30
0.0
 40
5.0
100
AcDbArc
 50
113.8857651417288
 51
194.6856634294951
  0
ARC
  5
379F
330
1F
100
AcDbEntity
  8
hasen
100
AcDbCircle
 10
964.7218453517144
 20
653.8862058494251
 30
0.0
 40
5.3
100
AcDbArc
 50
71.6066471230517
 51
194.6856634294951
  0
ARC
  5
37A0
330
1F
100
AcDbEntity
  8
hasen
100
AcDbCircle
 10
965.0708595047198
 20
659.2855389259402
 30
0.0
 40
11.00149910583928
100
AcDbArc
 50
246.6318265235848
 51
286.2323734823649
  0
ARC
  5
37A1
330
1F
100
AcDbEntity
  8
hasen
100
AcDbCircle
 10
954.9251906418522
 20
638.2178404496644
 30
0.0
 40
11.00149910583928
100
AcDbArc
 50
22.33905508902337
 51
61.93960204835192
  0
ARC
  5
37A2
330
1F
100
AcDbEntity
  8
0
100
AcDbCircle
 10
960.3767898257519
 20
672.981511793665
 30
0.0
 40
2.0
100
AcDbArc
 50
90.0
 51
180.0
  0
LINE
  5
37A3
330
1F
100
AcDbEntity
  8
kijun
100
AcDbLine
 10
925.2767898257607
 20
703.981511793665
 30
0.0
 11
936.0767898257636
 21
703.981511793665
 31
0.0
  0
LINE
  5
37A4
330
1F
100
AcDbEntity
  8
kijun
100
AcDbLine
 10
930.6767898257549
 20
708.6875227987966
 30
0.0
 11
930.6767898257549
 21
698.9375227987966
 31
0.0
  0
DIMENSION
  5
37A5
330
1F
100
AcDbEntity
  8
sunpo
100
AcDbDimension
  2
*D25
 10
746.7598279566463
 20
675.0909635336102
 30
0.0
 11
742.5598279566462
 21
692.5909635336104
 31
0.0
 70
    32
 71
     5
 42
35.0
  3
dim2
100
AcDbAlignedDimension
 13
921.1767898257489
 23
710.0909635336101
 33
0.0
 14
921.1767898257489
 24
675.0909635336101
 34
0.0
 50
90.0
100
AcDbRotatedDimension
  0
DIMENSION
  5
37A6
330
1F
100
AcDbEntity
  8
sunpo
100
AcDbDimension
  2
*D26
 10
857.818160255325
 20
710.0909635336101
 30
0.0
 11
853.6181602553249
 21
693.5909635336104
 31
0.0
 70
    32
 71
     5
 42
33.0
  3
dim2
100
AcDbAlignedDimension
 13
921.1767898257489
 23
677.0909635336102
 33
0.0
 14
921.1767898257489
 24
710.0909635336101
 34
0.0
 50
90.0
100
AcDbRotatedDimension
  0
DIMENSION
  5
37A7
330
1F
100
AcDbEntity
  8
sunpo
100
AcDbDimension
  2
*D27
 10
857.818160255325
 20
675.0909635336101
 30
0.0
 11
854.7181602553363
 21
671.0909635336101
 31
0.0
 70
   160
 71
     5
 42
2.0
 53
90.0
  3
dim2
100
AcDbAlignedDimension
 13
921.1767898257489
 23
677.0909635336102
 33
0.0
 14
921.1767898257489
 24
675.0909635336101
 34
0.0
 50
90.0
100
AcDbRotatedDimension
  0
LINE
  5
37A8
330
1F
100
AcDbEntity
  8
0
100
AcDbLine
 10
985.0267898257607
 20
635.1815117936621
 30
0.0
 11
985.0267898257607
 21
635.8974208845738
 31
0.0
  0
LINE
  5
37A9
330
1F
100
AcDbEntity
  8
0
100
AcDbLine
 10
985.0267898257607
 20
635.8974208845738
 30
0.0
 11
985.456335280296
 21
635.8974208845738
 31
0.0
  0
LINE
  5
37AA
330
1F
100
AcDbEntity
  8
0
100
AcDbLine
 10
985.0267898257607
 20
634.4656027027504
 30
0.0
 11
985.0267898257607
 21
635.1815117936621
 31
0.0
  0
LINE
  5
37AB
330
1F
100
AcDbEntity
  8
0
100
AcDbLine
 10
985.456335280296
 20
634.4656027027504
 30
0.0
 11
985.0267898257607
 21
634.4656027027504
 31
0.0
  0
ARC
  5
37AC
330
1F
100
AcDbEntity
  8
hasen
100
AcDbCircle
 10
962.0486987938511
 20
629.2179455173591
 30
0.0
 40
3.3
100
AcDbArc
 50
337.6609449109766
 51
48.05334080319777
  0
ARC
  5
37AD
330
1F
100
AcDbEntity
  8
hasen
100
AcDbCircle
 10
976.5486953879317
 20
611.0355248921386
 30
0.0
 40
3.3
100
AcDbArc
 50
29.08951633954868
 51
99.48191223134884
  0
ARC
  5
37AE
330
1F
100
AcDbEntity
  8
hasen
100
AcDbCircle
 10
959.5355477835418
 20
618.018546016332
 30
0.0
 40
11.00149910583928
100
AcDbArc
 50
323.7746836660761
 51
3.375230625474389
  0
ARC
  5
37AF
330
1F
100
AcDbEntity
  8
hasen
100
AcDbCircle
 10
967.2236876627303
 20
618.4719704041108
 30
0.0
 40
3.3
100
AcDbArc
 50
3.375230625474389
 51
73.76762651763506
  0
ARC
  5
37B0
330
1F
100
AcDbEntity
  8
hasen
100
AcDbCircle
 10
968.9751385966683
 20
611.1034027347614
 30
0.0
 40
0.7000000000000001
100
AcDbArc
 50
143.774683666076
 51
319.0824591911572
  0
ARC
  5
37B1
330
1F
100
AcDbEntity
  8
hasen
100
AcDbCircle
 10
977.8174113625155
 20
603.4392463129242
 30
0.0
 40
11.00149910583928
100
AcDbArc
 50
99.48191223134884
 51
139.0824591911572
  0
ARC
  5
37B2
330
1F
100
AcDbEntity
  8
hasen
100
AcDbCircle
 10
957.3797324050264
 20
635.1815117936621
 30
0.0
 40
0.7000000000000001
100
AcDbArc
 50
92.34611223768231
 51
267.6538877623177
  0
CIRCLE
  5
37B3
330
1F
100
AcDbEntity
  8
hasen
100
AcDbCircle
 10
958.1767898257549
 20
628.5270877064231
 30
0.0
 40
1.7
  0
ARC
  5
37B4
330
1F
100
AcDbEntity
  8
hasen
100
AcDbCircle
 10
945.9267704863904
 20
635.9045551706058
 30
0.0
 40
10.0
100
AcDbArc
 50
328.9419129110764
 51
24.59898344160232
  0
ARC
  5
37B5
330
1F
100
AcDbEntity
  8
hasen
100
AcDbCircle
 10
971.1789717996744
 20
634.4796723481685
 30
0.0
 40
10.0
100
AcDbArc
 50
148.9419129110764
 51
204.5989834416023
  0
CIRCLE
  5
37B6
330
1F
100
AcDbEntity
  8
hasen
100
AcDbCircle
 10
958.1767898257549
 20
615.1758316690448
 30
0.0
 40
1.7
  0
ARC
  5
37B7
330
1F
100
AcDbEntity
  8
hasen
100
AcDbCircle
 10
958.1767898257549
 20
615.1758316690448
 30
0.0
 40
4.299999999999999
100
AcDbArc
 50
332.1714647349497
 51
207.8285352650503
  0
ARC
  5
37B8
330
1F
100
AcDbEntity
  8
hasen
100
AcDbCircle
 10
958.1767898257549
 20
615.1758316690448
 30
0.0
 40
5.3
100
AcDbArc
 50
139.6000508561671
 51
236.8245237841794
  0
ARC
  5
37B9
330
1F
100
AcDbEntity
  8
hasen
100
AcDbCircle
 10
950.3329393327895
 20
621.8514596877339
 30
0.0
 40
5.0
100
AcDbArc
 50
319.6000508561671
 51
40.39994914383287
  0
ARC
  5
37BA
330
1F
100
AcDbEntity
  8
hasen
100
AcDbCircle
 10
966.0206403187348
 20
621.8514596877339
 30
0.0
 40
5.0
100
AcDbArc
 50
139.6000508561671
 51
220.3999491438328
  0
ARC
  5
37BB
330
1F
100
AcDbEntity
  8
hasen
100
AcDbCircle
 10
960.4295998666803
 20
621.8191693661411
 30
0.0
 40
0.7000000000000001
100
AcDbArc
 50
118.0603979516481
 51
293.3681734764152
  0
ARC
  5
37BC
330
1F
100
AcDbEntity
  8
hasen
100
AcDbCircle
 10
958.1767898257549
 20
628.5270877064231
 30
0.0
 40
4.299999999999999
100
AcDbArc
 50
148.9419129110764
 51
24.59898344160232
  0
ARC
  5
37BD
330
1F
100
AcDbEntity
  8
hasen
100
AcDbCircle
 10
958.1767898257549
 20
628.5270877064231
 30
0.0
 40
5.3
100
AcDbArc
 50
119.9459243919563
 51
220.3999491438328
  0
LINE
  5
37BE
330
1F
100
AcDbEntity
  8
saisen
100
AcDbLine
 10
945.5767898257491
 20
614.1815117936621
 30
0.0
 11
970.7767898257607
 21
614.1815117936621
 31
0.0
  0
ARC
  5
37BF
330
1F
100
AcDbEntity
  8
hasen
100
AcDbCircle
 10
958.1767898257549
 20
628.5270877064231
 30
0.0
 40
5.3
100
AcDbArc
 50
319.6000508561671
 51
53.5949719608111
  0
ARC
  5
37C0
330
1F
100
AcDbEntity
  8
hasen
100
AcDbCircle
 10
958.1767898257549
 20
615.1758316690448
 30
0.0
 40
5.3
100
AcDbArc
 50
303.1754762158207
 51
40.39994914383287
  0
ARC
  5
37C1
330
1F
100
AcDbEntity
  8
hasen
100
AcDbCircle
 10
956.9007205226389
 20
646.8732023874308
 30
0.0
 40
11.00149910583928
100
AcDbArc
 50
272.3461122376823
 51
311.9466591968022
  0
ARC
  5
37C2
330
1F
100
AcDbEntity
  8
hasen
100
AcDbCircle
 10
954.9251906418522
 20
632.1451831376598
 30
0.0
 40
11.00149910583928
100
AcDbArc
 50
298.060397951648
 51
337.6609449109766
  0
ARC
  5
37C3
330
1F
100
AcDbEntity
  8
hasen
100
AcDbCircle
 10
956.9007205226389
 20
623.4898211998934
 30
0.0
 40
11.00149910583928
100
AcDbArc
 50
48.05334080319777
 51
87.6538877623177
  0
ARC
  5
37C4
330
1F
100
AcDbEntity
  8
hasen
100
AcDbCircle
 10
965.0708595047198
 20
611.0774846613913
 30
0.0
 40
11.00149910583928
100
AcDbArc
 50
73.76762651763506
 51
113.3681734764152
  0
ARC
  5
37C5
330
1F
100
AcDbEntity
  8
hasen
100
AcDbCircle
 10
981.323799845386
 20
605.1566009011276
 30
0.0
 40
0.7000000000000001
100
AcDbArc
 50
169.4889693805508
 51
344.796744905327
  0
ARC
  5
37C6
330
1F
100
AcDbEntity
  8
hasen
100
AcDbCircle
 10
960.3767898257519
 20
597.3815117936592
 30
0.0
 40
2.0
100
AcDbArc
 50
180.0
 51
270.0
  0
ARC
  5
37C7
330
1F
100
AcDbEntity
  8
hasen
100
AcDbCircle
 10
958.1767898257549
 20
601.8245756316591
 30
0.0
 40
4.299999999999999
100
AcDbArc
 50
152.1714647349497
 51
27.82853526505026
  0
CIRCLE
  5
37C8
330
1F
100
AcDbEntity
  8
hasen
100
AcDbCircle
 10
958.1767898257549
 20
601.8245756316591
 30
0.0
 40
1.7
  0
ARC
  5
37C9
330
1F
100
AcDbEntity
  8
hasen
100
AcDbCircle
 10
958.1767898257549
 20
601.8245756316591
 30
0.0
 40
5.3
100
AcDbArc
 50
123.1754762158206
 51
220.3999491438328
  0
CIRCLE
  5
37CA
330
1F
100
AcDbEntity
  8
hasen
100
AcDbCircle
 10
958.1767898257549
 20
588.4733195942808
 30
0.0
 40
1.7
  0
ARC
  5
37CB
330
1F
100
AcDbEntity
  8
hasen
100
AcDbCircle
 10
958.1767898257549
 20
588.4733195942808
 30
0.0
 40
5.3
100
AcDbArc
 50
139.6000508561671
 51
236.8245237841794
  0
ARC
  5
37CC
330
1F
100
AcDbEntity
  8
hasen
100
AcDbCircle
 10
945.5306050036034
 20
581.7976915755917
 30
0.0
 40
10.0
100
AcDbArc
 50
332.1714647349497
 51
27.82853526505026
  0
ARC
  5
37CD
330
1F
100
AcDbEntity
  8
hasen
100
AcDbCircle
 10
970.8229746479064
 20
581.7976915755917
 30
0.0
 40
10.0
100
AcDbArc
 50
152.1714647349497
 51
207.8285352650503
  0
ARC
  5
37CE
330
1F
100
AcDbEntity
  8
hasen
100
AcDbCircle
 10
950.3329393327895
 20
595.14894761297
 30
0.0
 40
5.0
100
AcDbArc
 50
319.6000508561671
 51
40.39994914383287
  0
ARC
  5
37CF
330
1F
100
AcDbEntity
  8
hasen
100
AcDbCircle
 10
966.0206403187348
 20
595.14894761297
 30
0.0
 40
5.0
100
AcDbArc
 50
139.6000508561671
 51
220.3999491438328
  0
ARC
  5
37D0
330
1F
100
AcDbEntity
  8
hasen
100
AcDbCircle
 10
958.1767898257549
 20
588.4733195942808
 30
0.0
 40
4.299999999999999
100
AcDbArc
 50
332.1714647349497
 51
207.8285352650503
  0
LINE
  5
37D1
330
1F
100
AcDbEntity
  8
hasen
100
AcDbLine
 10
975.1767898257549
 20
595.3815117936592
 30
0.0
 11
960.3767898257519
 21
595.3815117936592
 31
0.0
  0
ARC
  5
37D2
330
1F
100
AcDbEntity
  8
hasen
100
AcDbCircle
 10
958.1767898257549
 20
601.8245756316591
 30
0.0
 40
5.3
100
AcDbArc
 50
319.6000508561671
 51
56.82452378417934
  0
ARC
  5
37D3
330
1F
100
AcDbEntity
  8
hasen
100
AcDbCircle
 10
958.1767898257549
 20
588.4733195942808
 30
0.0
 40
5.3
100
AcDbArc
 50
303.1754762158207
 51
40.39994914383287
  0
ARC
  5
37D4
330
1F
100
AcDbEntity
  8
hasen
100
AcDbCircle
 10
945.5306050036034
 20
608.5002036503483
 30
0.0
 40
10.0
100
AcDbArc
 50
332.1714647349497
 51
27.82853526505026
  0
ARC
  5
37D5
330
1F
100
AcDbEntity
  8
hasen
100
AcDbCircle
 10
970.8229746479064
 20
608.5002036503483
 30
0.0
 40
10.0
100
AcDbArc
 50
152.1714647349497
 51
207.8285352650503
  0
ARC
  5
37D6
330
1F
100
AcDbEntity
  8
hasen
100
AcDbCircle
 10
969.8186541734775
 20
607.2912447571707
 30
0.0
 40
11.00149910583928
100
AcDbArc
 50
349.4889693805507
 51
29.08951633954868
  0
ARC
  5
37D7
330
1F
100
AcDbEntity
  8
hasen
100
AcDbCircle
 10
992.6157651744015
 20
602.0879529362628
 30
0.0
 40
11.00149910583928
100
AcDbArc
 50
125.1961979462325
 51
164.796744905327
  0
DIMENSION
  5
37D8
330
1F
100
AcDbEntity
  8
sunpo
100
AcDbDimension
  2
*D28
 10
941.176789825749
 20
554.2336948678821
 30
0.0
 11
958.176789825749
 21
558.4336948678822
 31
0.0
 70
    32
 71
     5
 42
34.0
  3
dim2
100
AcDbAlignedDimension
 13
975.176789825749
 23
564.2336948678821
 33
0.0
 14
941.176789825749
 24
564.2336948678821
 34
0.0
100
AcDbRotatedDimension
  0
DIMENSION
  5
37DA
330
1F
100
AcDbEntity
  8
sunpo
100
AcDbDimension
  2
*D29
 10
926.176789825749
 20
538.2336948678821
 30
0.0
 11
931.941909623622
 21
526.9596325082074
 31
0.0
 70
   160
 71
     5
 42
12.0
  3
dim2
100
AcDbAlignedDimension
 13
938.1767898257489
 23
564.2336948678821
 33
0.0
 14
926.176789825749
 24
564.2336948678821
 34
0.0
100
AcDbRotatedDimension
  0
DIMENSION
  5
37DB
330
1F
100
AcDbEntity
  8
sunpo
100
AcDbDimension
  2
*D30
 10
921.1767898257489
 20
538.2336948678821
 30
0.0
 11
922.6169231519092
 21
531.0579082517051
 31
0.0
 70
   160
 71
     5
 42
5.0
  3
dim2
100
AcDbAlignedDimension
 13
926.176789825749
 23
564.2336948678821
 33
0.0
 14
921.1767898257489
 24
564.3431466078309
 34
0.0
100
AcDbRotatedDimension
  0
DIMENSION
  5
37DD
330
1F
100
AcDbEntity
  8
sunpo
100
AcDbDimension
  2
*D31
 10
978.176789825749
 20
538.2336948678821
 30
0.0
 11
958.176789825749
 21
542.4336948678821
 31
0.0
 70
    32
 71
     5
 42
40.0
  3
dim2
100
AcDbAlignedDimension
 13
938.1767898257489
 23
564.2336948678821
 33
0.0
 14
978.176789825749
 24
564.2336948678821
 34
0.0
100
AcDbRotatedDimension
  0
LINE
  5
37E0
330
1F
100
AcDbEntity
  8
saisen
100
AcDbLine
 10
960.6767898257549
 20
447.6985178851736
 30
0.0
 11
955.6767898257549
 21
447.6985178851736
 31
0.0
  0
LINE
  5
37E1
330
1F
100
AcDbEntity
  8
saisen
100
AcDbLine
 10
960.6767898257549
 20
444.6985178851737
 30
0.0
 11
963.1265372940561
 21
444.6985178851737
 31
0.0
  0
LINE
  5
37E2
330
1F
100
AcDbEntity
  8
saisen
100
AcDbLine
 10
953.2270423574537
 20
444.6985178851737
 30
0.0
 11
955.6767898257549
 21
444.6985178851737
 31
0.0
  0
LINE
  5
37E3
330
1F
100
AcDbEntity
  8
saisen
100
AcDbLine
 10
958.1767898257549
 20
439.7487704168652
 30
0.0
 11
963.1265372940561
 21
444.6985178851737
 31
0.0
  0
LINE
  5
37E4
330
1F
100
AcDbEntity
  8
saisen
100
AcDbLine
 10
953.2270423574537
 20
444.6985178851737
 30
0.0
 11
958.1767898257549
 21
439.7487704168652
 31
0.0
  0
LINE
  5
37E5
330
1F
100
AcDbEntity
  8
saisen
100
AcDbLine
 10
960.6767898257549
 20
444.6985178851737
 30
0.0
 11
960.6767898257549
 21
447.6985178851736
 31
0.0
  0
LINE
  5
37E6
330
1F
100
AcDbEntity
  8
saisen
100
AcDbLine
 10
955.6767898257549
 20
447.6985178851736
 30
0.0
 11
955.6767898257549
 21
444.6985178851737
 31
0.0
  0
LINE
  5
37EC
330
1F
100
AcDbEntity
  8
0
100
AcDbLine
 10
978.1767898257548
 20
595.3815117936592
 30
0.0
 11
978.1767898257548
 21
449.7487704168652
 31
0.0
  0
LINE
  5
37F5
330
1F
100
AcDbEntity
  8
saisen
100
AcDbLine
 10
921.1767898257548
 20
449.7487704168652
 30
0.0
 11
921.1767898257548
 21
678.9375227987966
 31
0.0
  0
LINE
  5
37F6
330
1F
100
AcDbEntity
  8
0
100
AcDbLine
 10
941.1767898257549
 20
449.7487704168652
 30
0.0
 11
941.1767898257549
 21
664.1815117936621
 31
0.0
  0
LINE
  5
37F7
330
1F
100
AcDbEntity
  8
saisen
100
AcDbLine
 10
945.5767898257491
 20
449.7487704168652
 30
0.0
 11
945.5767898257491
 21
664.1815117936621
 31
0.0
  0
LINE
  5
37F8
330
1F
100
AcDbEntity
  8
0
100
AcDbLine
 10
941.576789825749
 20
449.7487704168652
 30
0.0
 11
941.576789825749
 21
664.1815117936621
 31
0.0
  0
LINE
  5
37F9
330
1F
100
AcDbEntity
  8
hasen
100
AcDbLine
 10
958.3767898257519
 20
597.3815117936592
 30
0.0
 11
958.3767898257519
 21
664.981511793665
 31
0.0
  0
LINE
  5
37FA
330
1F
100
AcDbEntity
  8
saisen
100
AcDbLine
 10
970.7767898257607
 20
664.1815117936621
 30
0.0
 11
970.7767898257607
 21
449.7487704168652
 31
0.0
  0
LINE
  5
37FB
330
1F
100
AcDbEntity
  8
0
100
AcDbLine
 10
975.1767898257549
 20
664.981511793665
 30
0.0
 11
975.1767898257549
 21
449.7487704168652
 31
0.0
  0
LINE
  5
37FC
330
1F
100
AcDbEntity
  8
0
100
AcDbLine
 10
974.7767898257606
 20
664.1815117936621
 30
0.0
 11
974.7767898257606
 21
449.7487704168652
 31
0.0
  0
ARC
  5
37FD
330
1F
100
AcDbEntity
  8
hasen
100
AcDbCircle
 10
988.1767898257548
 20
635.1815117936621
 30
0.0
 40
35.25
100
AcDbArc
 50
122.2862471379524
 51
248.3587205359874
  0
CIRCLE
  5
37FE
330
1F
100
AcDbEntity
  8
hasen
100
AcDbCircle
 10
958.9289524602955
 20
641.8571398123512
 30
0.0
 40
1.7
  0
ARC
  5
37FF
330
1F
100
AcDbEntity
  8
hasen
100
AcDbCircle
 10
958.9289524602955
 20
641.8571398123512
 30
0.0
 40
4.299999999999999
100
AcDbArc
 50
328.9419129110764
 51
204.5989834416023
  0
ARC
  5
3800
330
1F
100
AcDbEntity
  8
hasen
100
AcDbCircle
 10
958.9289524602955
 20
641.8571398123512
 30
0.0
 40
5.3
100
AcDbArc
 50
299.9459243919563
 51
14.68566342949511
  0
ARC
  5
3801
330
1F
100
AcDbEntity
  8
hasen
100
AcDbCircle
 10
958.9289524602955
 20
641.8571398123512
 30
0.0
 40
5.3
100
AcDbArc
 50
113.8857651417288
 51
233.5949719608111
  0
ARC
  5
3802
330
1F
100
AcDbEntity
  8
hasen
100
AcDbCircle
 10
962.0486987938511
 20
641.1450780699651
 30
0.0
 40
3.3
100
AcDbArc
 50
311.9466591968022
 51
22.33905508902337
  0
LINE
  5
3803
330
1F
100
AcDbEntity
  8
saisen
100
AcDbLine
 10
970.7767898257607
 20
614.1815117936621
 30
0.0
 11
945.5767898257491
 21
664.1815117936621
 31
0.0
  0
LINE
  5
3804
330
1F
100
AcDbEntity
  8
0
100
AcDbLine
 10
938.1767898257548
 20
449.7487704168652
 30
0.0
 11
938.1767898257548
 21
676.9815117936651
 31
0.0
  0
LINE
  5
3805
330
1F
100
AcDbEntity
  8
0
100
AcDbLine
 10
926.1767898257549
 20
449.7487704168652
 30
0.0
 11
926.1767898257549
 21
676.9815117936651
 31
0.0
  0
LINE
  5
3806
330
1F
100
AcDbEntity
  8
saisen
100
AcDbLine
 10
655.8455023824672
 20
481.4105505324826
 30
0.0
 11
655.8455023824672
 21
717.4105505324754
 31
0.0
  0
TEXT
  5
3809
330
1F
100
AcDbEntity
  8
moji
100
AcDbText
 10
971.3919111835378
 20
689.1231696097001
 30
0.0
 40
6.0
  1
アルミ枠
  7
Std
 72
     1
 11
984.9919111835379
 21
689.1231696097001
 31
0.0
100
AcDbText
  0
LINE
  5
380A
330
1F
100
AcDbEntity
  8
saisen
100
AcDbLine
 10
911.1767898257548
 20
449.7487704168652
 30
0.0
 11
1063.176789825755
 21
449.7487704168652
 31
0.0
  0
LINE
  5
380B
330
1F
100
AcDbEntity
  8
kijun
100
AcDbLine
 10
952.4167898257601
 20
635.1815117936621
 30
0.0
 11
1023.936789825764
 21
635.1815117936621
 31
0.0
  0
CIRCLE
  5
380C
330
1F
100
AcDbEntity
  8
0
100
AcDbCircle
 10
988.1767898257548
 20
635.1815117936621
 30
0.0
 40
5.25000000000243
  0
ARC
  5
380D
330
1F
100
AcDbEntity
  8
0
100
AcDbCircle
 10
985.456335280296
 20
637.9019663391136
 30
0.0
 40
2.004545454545432
100
AcDbArc
 50
270.0
 51
0.0
  0
ARC
  5
380E
330
1F
100
AcDbEntity
  8
0
100
AcDbCircle
 10
985.456335280296
 20
632.4610572482106
 30
0.0
 40
2.004545454545432
100
AcDbArc
 50
0.0
 51
90.0
  0
CIRCLE
  5
380F
330
1F
100
AcDbEntity
  8
0
100
AcDbCircle
 10
988.1767898257548
 20
635.1815117936621
 30
0.0
 40
6.0
  0
ARC
  5
3810
330
1F
100
AcDbEntity
  8
0
100
AcDbCircle
 10
988.1767898257548
 20
635.1815117936621
 30
0.0
 40
35.25
100
AcDbArc
 50
248.3587205359874
 51
122.2862471379524
  0
LINE
  5
3811
330
1F
100
AcDbEntity
  8
saisen
100
AcDbLine
 10
911.1767898257548
 20
429.7487704168652
 30
0.0
 11
1063.176789825755
 21
429.7487704168652
 31
0.0
  0
CIRCLE
  5
3812
330
1F
100
AcDbEntity
  8
hasen
100
AcDbCircle
 10
988.1767898257548
 20
635.1815117936621
 30
0.0
 40
21.40000000000005
  0
CIRCLE
  5
3813
330
1F
100
AcDbEntity
  8
hasen
100
AcDbCircle
 10
988.1767898257548
 20
635.1815117936621
 30
0.0
 40
18.24999999999999
  0
CIRCLE
  5
3814
330
1F
100
AcDbEntity
  8
hasen
100
AcDbCircle
 10
988.1767898257548
 20
635.1815117936621
 30
0.0
 40
15.50000000000001
  0
ARC
  5
3815
330
1F
100
AcDbEntity
  8
hasen
100
AcDbCircle
 10
988.1767898257548
 20
665.1815117936621
 30
0.0
 40
4.299999999999999
100
AcDbArc
 50
49.17406421337233
 51
284.7930041912501
  0
ARC
  5
3816
330
1F
100
AcDbEntity
  8
hasen
100
AcDbCircle
 10
988.1767898257548
 20
665.1815117936621
 30
0.0
 40
5.3
100
AcDbArc
 50
242.6472501777205
 51
313.7889927098108
  0
ARC
  5
3817
330
1F
100
AcDbEntity
  8
hasen
100
AcDbCircle
 10
988.1767898257548
 20
665.1815117936621
 30
0.0
 40
5.3
100
AcDbArc
 50
20.17807569457627
 51
143.3856814174796
  0
LINE
  5
3818
330
1F
100
AcDbEntity
  8
0
100
AcDbLine
 10
1015.527900332936
 20
595.3815117936592
 30
0.0
 11
975.1767898257549
 21
595.3815117936592
 31
0.0
  0
ARC
  5
3819
330
1F
100
AcDbEntity
  8
hasen
100
AcDbCircle
 10
988.1767898257548
 20
661.9815353702124
 30
0.0
 40
3.3
100
AcDbArc
 50
234.8038020537675
 51
305.1961979462325
  0
ARC
  5
381A
330
1F
100
AcDbEntity
  8
hasen
100
AcDbCircle
 10
988.1767898257548
 20
608.3814882171118
 30
0.0
 40
3.3
100
AcDbArc
 50
54.80380205376751
 51
125.1961979462325
  0
CIRCLE
  5
381B
330
1F
100
AcDbEntity
  8
kijun
100
AcDbCircle
 10
988.1767898257548
 20
635.1815117936621
 30
0.0
 40
29.99999999999999
  0
DIMENSION
  5
381C
330
1F
100
AcDbEntity
  8
sunpo
100
AcDbDimension
  2
*D32
 10
998.1767898257489
 20
538.2336948678821
 30
0.0
 11
988.1767898257489
 21
542.4336948678821
 31
0.0
 70
    32
 71
     5
 42
20.0
  3
dim2
100
AcDbAlignedDimension
 13
978.176789825749
 23
564.2336948678821
 33
0.0
 14
998.1767898257489
 24
564.2336948678821
 34
0.0
100
AcDbRotatedDimension
  0
LINE
  5
381D
330
1F
100
AcDbEntity
  8
saisen
100
AcDbLine
 10
1005.576789825749
 20
318.7789927190224
 30
0.0
 11
1030.77678982576
 21
318.7789927190224
 31
0.0
  0
DIMENSION
  5
381E
330
1F
100
AcDbEntity
  8
sunpo
100
AcDbDimension
  2
*D33
 10
1035.176789825749
 20
358.1616178012428
 30
0.0
 11
1018.176789825749
 21
362.3616178012428
 31
0.0
 70
    32
 71
     5
 42
34.0
  3
dim2
100
AcDbAlignedDimension
 13
1001.176789825749
 23
368.1616178012427
 33
0.0
 14
1035.176789825749
 24
368.1616178012427
 34
0.0
100
AcDbRotatedDimension
  0
LINE
  5
381F
330
1F
100
AcDbEntity
  8
0
100
AcDbLine
 10
1000.376789825752
 20
275.9789927190195
 30
0.0
 11
1001.176789825755
 21
275.9789927190195
 31
0.0
  0
LINE
  5
3820
330
1F
100
AcDbEntity
  8
0
100
AcDbLine
 10
1000.376789825752
 20
267.9789927190195
 30
0.0
 11
1000.376789825752
 21
275.9789927190195
 31
0.0
  0
LINE
  5
3821
330
1F
100
AcDbEntity
  8
0
100
AcDbLine
 10
1035.176789825755
 20
267.9789927190195
 30
0.0
 11
1000.376789825752
 21
267.9789927190195
 31
0.0
  0
LINE
  5
3822
330
1F
100
AcDbEntity
  8
0
100
AcDbLine
 10
1035.176789825755
 20
268.7789927190224
 30
0.0
 11
1001.176789825755
 21
268.7789927190224
 31
0.0
  0
LINE
  5
3823
330
1F
100
AcDbEntity
  8
saisen
100
AcDbLine
 10
1005.576789825749
 20
318.7789927190224
 30
0.0
 11
1030.77678982576
 21
268.7789927190224
 31
0.0
  0
TEXT
  5
3824
330
1F
100
AcDbEntity
  8
moji
100
AcDbText
 10
958.1309538682038
 20
231.8398919590454
 30
0.0
 40
6.0
  1
アルミ枠
  7
Std
 72
     1
 11
971.7309538682039
 21
231.8398919590454
 31
0.0
100
AcDbText
  0
LINE
  5
3825
330
1F
100
AcDbEntity
  8
saisen
100
AcDbLine
 10
849.1767898257549
 20
240.9729828065956
 30
0.0
 11
915.1767898257549
 21
240.9729828065956
 31
0.0
  0
LINE
  5
3826
330
1F
100
AcDbEntity
  8
0
100
AcDbLine
 10
926.1767898257549
 20
252.9789927190195
 30
0.0
 11
926.1767898257549
 21
391.8372554511716
 31
0.0
  0
LINE
  5
3827
330
1F
100
AcDbEntity
  8
0
100
AcDbLine
 10
938.1767898257548
 20
252.9789927190195
 30
0.0
 11
938.1767898257548
 21
391.8372554511716
 31
0.0
  0
LINE
  5
3828
330
1F
100
AcDbEntity
  8
0
100
AcDbLine
 10
978.1767898257548
 20
391.8372554511716
 30
0.0
 11
978.1767898257548
 21
252.9789927190195
 31
0.0
  0
DIMENSION
  5
3829
330
1F
100
AcDbEntity
  8
sunpo
100
AcDbDimension
  2
*D34
 10
921.1767898257489
 20
342.1616178012428
 30
0.0
 11
879.1767898257489
 21
346.3616178012427
 31
0.0
 70
    32
 71
     5
 42
84.0
  3
dim2
100
AcDbAlignedDimension
 13
837.1767898257489
 23
276.197225038095
 33
0.0
 14
921.1767898257489
 24
331.6705196104649
 34
0.0
100
AcDbRotatedDimension
  0
LWPOLYLINE
  5
382A
330
1F
100
AcDbEntity
  8
sunpo
 62
     3
370
     9
100
AcDbPolyline
 90
        3
 70
     0
 43
0.0
 10
655.8455023824758
 20
411.4105505324827
 10
647.8455023824758
 20
413.4105505324827
 10
646.8455023824758
 20
411.0105505324813
  0
TEXT
  5
382B
330
1F
100
AcDbEntity
  8
moji
100
AcDbText
 10
605.9905681414586
 20
437.57048176401
 30
0.0
 40
6.0
  1
Ｃ
  7
kanji
 72
     4
 11
608.7905681414586
 21
440.77048176401
 31
0.0
100
AcDbText
  0
TEXT
  5
382C
330
1F
100
AcDbEntity
  8
moji
100
AcDbText
 10
607.8520170613394
 20
434.5929306439385
 30
0.0
 40
6.0
  1
Ｌ
  7
kanji
 72
     4
 11
610.6520170613394
 21
437.7929306439385
 31
0.0
100
AcDbText
  0
DIMENSION
  5
382D
330
1F
100
AcDbEntity
  8
sunpo
100
AcDbDimension
  2
*D35
 10
746.7598279566463
 20
218.0884444589701
 30
0.0
 11
742.5598279566462
 21
235.5884444589702
 31
0.0
 70
    32
 71
     5
 42
35.0
  3
dim2
100
AcDbAlignedDimension
 13
790.1184575270702
 23
253.0884444589701
 33
0.0
 14
790.1184575270702
 24
218.0884444589701
 34
0.0
 50
90.0
100
AcDbRotatedDimension
  0
DIMENSION
  5
382E
330
1F
100
AcDbEntity
  8
sunpo
100
AcDbDimension
  2
*D36
 10
797.818160255325
 20
215.9729828065956
 30
0.0
 11
793.6181602553249
 21
228.4729828065958
 31
0.0
 70
    32
 71
     5
 42
25.0
  3
dim2
100
AcDbAlignedDimension
 13
833.176789825749
 23
240.9729828065956
 33
0.0
 14
833.176789825749
 24
215.9729828065956
 34
0.0
 50
90.0
100
AcDbRotatedDimension
  0
DIMENSION
  5
3835
330
1F
100
AcDbEntity
  8
sunpo
100
AcDbDimension
  2
*D37
 10
1053.176789825749
 20
342.1616178012428
 30
0.0
 11
987.1767898257489
 21
346.3616178012427
 31
0.0
 70
    32
 71
     5
 42
132.0
  3
dim2
100
AcDbAlignedDimension
 13
921.1767898257489
 23
351.1616178012427
 33
0.0
 14
1053.176789825749
 24
368.1616178012427
 34
0.0
100
AcDbRotatedDimension
  0
LINE
  5
3837
330
1F
100
AcDbEntity
  8
saisen
100
AcDbLine
 10
1005.576789825749
 20
268.7789927190224
 30
0.0
 11
1005.576789825749
 21
429.7487704168652
 31
0.0
  0
LINE
  5
3838
330
1F
100
AcDbEntity
  8
0
100
AcDbLine
 10
1001.576789825749
 20
268.7789927190224
 30
0.0
 11
1001.576789825749
 21
429.7487704168652
 31
0.0
  0
LINE
  5
3839
330
1F
100
AcDbEntity
  8
0
100
AcDbLine
 10
1001.176789825755
 20
268.7789927190224
 30
0.0
 11
1001.176789825755
 21
429.7487704168652
 31
0.0
  0
LINE
  5
383A
330
1F
100
AcDbEntity
  8
0
100
AcDbLine
 10
978.1767898257548
 20
429.7487704168652
 30
0.0
 11
978.1767898257548
 21
252.9789927190195
 31
0.0
  0
LINE
  5
383B
330
1F
100
AcDbEntity
  8
0
100
AcDbLine
 10
938.1767898257548
 20
252.9789927190195
 30
0.0
 11
938.1767898257548
 21
429.7487704168652
 31
0.0
  0
LINE
  5
383C
330
1F
100
AcDbEntity
  8
0
100
AcDbLine
 10
926.1767898257549
 20
252.9789927190195
 30
0.0
 11
926.1767898257549
 21
429.7487704168652
 31
0.0
  0
LINE
  5
383D
330
1F
100
AcDbEntity
  8
kijun
100
AcDbLine
 10
608.7905681414586
 20
731.4105505324826
 30
0.0
 11
608.7905681414586
 21
445.77048176401
 31
0.0
  0
LINE
  5
383E
330
1F
100
AcDbEntity
  8
saisen
100
AcDbLine
 10
921.1767898257548
 20
252.9789927190195
 30
0.0
 11
921.1767898257548
 21
429.7487704168652
 31
0.0
  0
LINE
  5
383F
330
1F
100
AcDbEntity
  8
0
100
AcDbLine
 10
998.1767898257549
 20
429.7487704168652
 30
0.0
 11
998.1767898257549
 21
252.9789927190195
 31
0.0
  0
LINE
  5
3840
330
1F
100
AcDbEntity
  8
0
100
AcDbLine
 10
1053.176789825755
 20
478.3927152842607
 30
0.0
 11
1053.176789825755
 21
124.7081596190964
 31
0.0
  0
LINE
  5
3841
330
1F
100
AcDbEntity
  8
0
100
AcDbLine
 10
1038.176789825755
 20
429.7487704168652
 30
0.0
 11
1038.176789825755
 21
252.9789927190195
 31
0.0
  0
LINE
  5
3842
330
1F
100
AcDbEntity
  8
saisen
100
AcDbLine
 10
1030.77678982576
 20
429.7487704168652
 30
0.0
 11
1030.77678982576
 21
268.7789927190224
 31
0.0
  0
LINE
  5
3843
330
1F
100
AcDbEntity
  8
0
100
AcDbLine
 10
1035.176789825755
 20
429.7487704168652
 30
0.0
 11
1035.176789825755
 21
267.9789927190195
 31
0.0
  0
LINE
  5
3844
330
1F
100
AcDbEntity
  8
0
100
AcDbLine
 10
1034.776789825761
 20
429.7487704168652
 30
0.0
 11
1034.776789825761
 21
268.7789927190224
 31
0.0
  0
LINE
  5
3845
330
1F
100
AcDbEntity
  8
0
100
AcDbLine
 10
998.1767898257549
 20
429.7487704168652
 30
0.0
 11
998.1767898257549
 21
252.9789927190195
 31
0.0
  0
LINE
  5
3846
330
1F
100
AcDbEntity
  8
0
100
AcDbLine
 10
998.1767898257549
 20
429.7487704168652
 30
0.0
 11
998.1767898257549
 21
378.4182807670786
 31
0.0
  0
DIMENSION
  5
3848
330
1F
100
AcDbEntity
  8
sunpo
100
AcDbDimension
  2
*D38
 10
746.7598279566463
 20
675.0909635336102
 30
0.0
 11
742.5598279566462
 21
464.0897039962903
 31
0.0
 70
    32
  1
H
 71
     5
 42
422.00251907464
  3
dim2
100
AcDbAlignedDimension
 13
901.176789825749
 23
253.0884444589701
 33
0.0
 14
921.1767898257489
 24
675.0909635336101
 34
0.0
 50
90.0
100
AcDbRotatedDimension
  0
TEXT
  5
3849
330
1F
100
AcDbEntity
  8
moji
100
AcDbText
 10
502.8084851165795
 20
609.7139261827163
 30
0.0
 40
6.0
  1
上下黒板
  7
Std
100
AcDbText
  0
TEXT
  5
384A
330
1F
100
AcDbEntity
  8
moji
100
AcDbText
 10
502.8084851165795
 20
669.7139261827163
 30
0.0
 40
6.0
  1
上下黒板
  7
Std
100
AcDbText
  0
CIRCLE
  5
384B
330
1F
100
AcDbEntity
  8
0
100
AcDbCircle
 10
543.7905681414585
 20
536.4105505324827
 30
0.0
 40
12.50000000000001
  0
LINE
  5
384C
330
1F
100
AcDbEntity
  8
kijun
100
AcDbLine
 10
527.1239014748016
 20
536.4105505324827
 30
0.0
 11
560.4572348081301
 21
536.4105505324827
 31
0.0
  0
DIMENSION
  5
384D
330
1F
100
AcDbEntity
  8
sunpo
100
AcDbDimension
  2
*D39
 10
554.6190011640379
 20
542.6551512623832
 30
0.0
 11
539.554767758201
 21
541.8862472885945
 31
0.0
 70
   163
 71
     5
 42
25.00000000002945
  3
dim2
100
AcDbDiametricDimension
 15
532.9621351188827
 25
530.1659498025749
 35
0.0
 40
0.0
  0
LINE
  5
384E
330
1F
100
AcDbEntity
  8
kijun
100
AcDbLine
 10
543.7905681414585
 20
554.3189440653862
 30
0.0
 11
543.7905681414585
 21
453.77048176401
 31
0.0
  0
TEXT
  5
384F
330
1F
100
AcDbEntity
  8
moji
100
AcDbText
 10
549.4937089896584
 20
514.2488571608176
 30
0.0
 40
6.0
  1
粉落穴
  7
kanji
100
AcDbText
  0
TEXT
  5
3850
330
1F
100
AcDbEntity
  8
moji
100
AcDbText
 10
383.1212348453
 20
530.8399599872558
 30
0.0
 40
6.0
  1
（アルミ チョーク受）
  7
kanji
 72
     4
 11
420.1212348453
 21
533.8399599872558
 31
0.0
100
AcDbText
  0
LINE
  5
3851
330
1F
100
AcDbEntity
  8
saisen
100
AcDbLine
 10
342.5257735716905
 20
481.4105505324826
 30
0.0
 11
342.5257735716905
 21
717.4105505324754
 31
0.0
  0
LINE
  5
3852
330
1F
100
AcDbEntity
  8
saisen
100
AcDbLine
 10
322.5257735716905
 20
481.4105505324826
 30
0.0
 11
322.5257735716905
 21
717.4105505324754
 31
0.0
  0
LINE
  5
3854
330
1F
100
AcDbEntity
  8
0
100
AcDbLine
 10
322.5257735716905
 20
707.4105505324754
 30
0.0
 11
58.76574958047695
 21
707.4105505324754
 31
0.0
  0
INSERT
  5
3855
330
1F
100
AcDbEntity
  8
sunpo
100
AcDbBlockReference
  2
_DotSmall
 10
142.6757735716846
 20
411.4105505324827
 30
0.0
 41
5.0
 42
5.0
 43
5.0
 50
180.0
  0
LINE
  5
3856
330
1F
100
AcDbEntity
  8
sunpo
100
AcDbLine
 10
142.6757735716846
 20
475.4105505324827
 30
0.0
 11
142.6757735716846
 21
409.4105505324827
 31
0.0
  0
DIMENSION
  5
3857
330
1F
100
AcDbEntity
  8
sunpo
100
AcDbDimension
  2
*D40
 10
142.6757735716819
 20
411.4105505324827
 30
0.0
 11
125.1757735716819
 21
415.6105505324827
 31
0.0
 70
    32
 71
     5
 42
35.0
  3
dim2
100
AcDbAlignedDimension
 13
107.6757735716819
 23
481.4105505324809
 33
0.0
 14
142.6757735716819
 24
481.4105505324809
 34
0.0
100
AcDbRotatedDimension
  0
DIMENSION
  5
3858
330
1F
100
AcDbEntity
  8
sunpo
100
AcDbDimension
  2
*D41
 10
142.6757735716933
 20
429.9105505324809
 30
0.0
 11
146.6757735716819
 21
433.0105505324812
 31
0.0
 70
   160
  1
2
 71
     5
 42
2.000000000011368
  3
dim2
100
AcDbAlignedDimension
 13
140.6757735716819
 23
558.4105505324754
 33
0.0
 14
142.6757735716933
 24
429.9105505324809
 34
0.0
100
AcDbRotatedDimension
  0
LINE
  5
3859
330
1F
100
AcDbEntity
  8
0
100
AcDbLine
 10
655.8455023824672
 20
491.4105505324827
 30
0.0
 11
342.5257735716905
 21
491.4105505324827
 31
0.0
  0
LINE
  5
385A
330
1F
100
AcDbEntity
  8
0
100
AcDbLine
 10
655.8455023824672
 20
655.4105505324827
 30
0.0
 11
342.5257735716905
 21
655.4105505324827
 31
0.0
  0
LINE
  5
385B
330
1F
100
AcDbEntity
  8
0
100
AcDbLine
 10
655.8455023824672
 20
655.8105505324841
 30
0.0
 11
342.5257735716905
 21
655.8105505324841
 31
0.0
  0
LINE
  5
385C
330
1F
100
AcDbEntity
  8
0
100
AcDbLine
 10
655.8455023824672
 20
629.0105505324812
 30
0.0
 11
342.5257735716905
 21
629.0105505324812
 31
0.0
  0
LINE
  5
385D
330
1F
100
AcDbEntity
  8
0
100
AcDbLine
 10
655.8455023824672
 20
629.4105505324754
 30
0.0
 11
342.5257735716905
 21
629.4105505324754
 31
0.0
  0
LINE
  5
385E
330
1F
100
AcDbEntity
  8
0
100
AcDbLine
 10
342.5257735716905
 20
595.4105505324754
 30
0.0
 11
655.8455023824672
 21
595.4105505324754
 31
0.0
  0
LINE
  5
385F
330
1F
100
AcDbEntity
  8
0
100
AcDbLine
 10
342.5257735716905
 20
595.8105505324769
 30
0.0
 11
655.8455023824672
 21
595.8105505324769
 31
0.0
  0
LINE
  5
3860
330
1F
100
AcDbEntity
  8
0
100
AcDbLine
 10
342.5257735716905
 20
689.4105505324827
 30
0.0
 11
655.8455023824672
 21
689.4105505324827
 31
0.0
  0
LINE
  5
3861
330
1F
100
AcDbEntity
  8
0
100
AcDbLine
 10
342.5257735716905
 20
689.0105505324812
 30
0.0
 11
655.8455023824672
 21
689.0105505324885
 31
0.0
  0
LINE
  5
3862
330
1F
100
AcDbEntity
  8
0
100
AcDbLine
 10
655.8455023824672
 20
575.4105505324754
 30
0.0
 11
342.5257735716905
 21
575.4105505324754
 31
0.0
  0
LINE
  5
3863
330
1F
100
AcDbEntity
  8
0
100
AcDbLine
 10
342.5257735716905
 20
707.4105505324754
 30
0.0
 11
655.8455023824672
 21
707.4105505324754
 31
0.0
  0
LINE
  5
3864
330
1F
100
AcDbEntity
  8
saisen
100
AcDbLine
 10
655.8455023824672
 20
599.8105505324769
 30
0.0
 11
342.5257735716905
 21
599.8105505324769
 31
0.0
  0
LINE
  5
3865
330
1F
100
AcDbEntity
  8
saisen
100
AcDbLine
 10
655.8455023824672
 20
685.0105505324812
 30
0.0
 11
342.5257735716905
 21
685.0105505324812
 31
0.0
  0
LINE
  5
3866
330
1F
100
AcDbEntity
  8
0
100
AcDbLine
 10
655.8455023824672
 20
571.4105505324754
 30
0.0
 11
342.5257735716905
 21
571.4105505324754
 31
0.0
  0
LINE
  5
3867
330
1F
100
AcDbEntity
  8
0
100
AcDbLine
 10
655.8455023824672
 20
501.4105505324827
 30
0.0
 11
342.5257735716905
 21
501.4105505324827
 31
0.0
  0
LINE
  5
3868
330
1F
100
AcDbEntity
  8
0
100
AcDbLine
 10
655.8455023824672
 20
502.6677356273197
 30
0.0
 11
342.5257735716905
 21
502.6677356273197
 31
0.0
  0
LINE
  5
3869
330
1F
100
AcDbEntity
  8
0
100
AcDbLine
 10
655.8455023824672
 20
570.1533654376383
 30
0.0
 11
342.5257735716905
 21
570.1533654376383
 31
0.0
  0
LINE
  5
386A
330
1F
100
AcDbEntity
  8
0
100
AcDbLine
 10
655.8455023824672
 20
569.1228657096856
 30
0.0
 11
342.5257735716905
 21
569.1228657096856
 31
0.0
  0
LINE
  5
386B
330
1F
100
AcDbEntity
  8
0
100
AcDbLine
 10
655.8455023824672
 20
503.6982353552724
 30
0.0
 11
342.5257735716905
 21
503.6982353552724
 31
0.0
  0
LINE
  5
386C
330
1F
100
AcDbEntity
  8
saisen
100
AcDbLine
 10
342.5257735716905
 20
625.0105505324739
 30
0.0
 11
655.8455023824672
 21
625.0105505324739
 31
0.0
  0
LINE
  5
386D
330
1F
100
AcDbEntity
  8
saisen
100
AcDbLine
 10
342.5257735716905
 20
659.8105505324769
 30
0.0
 11
655.8455023824672
 21
659.8105505324769
 31
0.0
  0
DIMENSION
  5
3870
330
1F
100
AcDbEntity
  8
sunpo
100
AcDbDimension
  2
*D42
 10
608.7905681414586
 20
455.7704817640099
 30
0.0
 11
576.2905681414586
 21
459.97048176401
 31
0.0
 70
    32
 71
     5
 42
65.0
  3
dim2
100
AcDbAlignedDimension
 13
543.7905681414585
 23
461.77048176401
 33
0.0
 14
608.7905681414586
 24
461.77048176401
 34
0.0
100
AcDbRotatedDimension
  0
LWPOLYLINE
  5
4BAE
330
1F
100
AcDbEntity
  8
saisen
100
AcDbPolyline
 90
        4
 70
     1
 43
0.0
 10
796.0856633023399
 20
512.2263760578699
 10
824.2685108383962
 20
512.2263760578699
 10
824.2685108383962
 20
505.2263760578699
 10
796.0856633023399
 20
505.2263760578699
  0
TEXT
  5
4BB0
330
1F
100
AcDbEntity
  8
sunpo
 62
     2
100
AcDbText
 10
798.5856633023399
 20
506.22637605787
 30
0.0
 40
5.000000000000001
  1
上下黒板
  7
Std
100
AcDbText
  0
TEXT
  5
4BB1
330
1F
100
AcDbEntity
  8
sunpo
 62
     2
100
AcDbText
 10
798.5856633023399
 20
496.2263760578699
 30
0.0
 40
5.000000000000001
  1
耐水ラワン合板 ァ4mm(裏 ァ4mm)
  7
Std
100
AcDbText
  0
LINE
  5
4BB2
330
1F
100
AcDbEntity
  8
sunpo
 62
     3
370
     9
100
AcDbLine
 10
908.4092377926994
 20
494.7263760578699
 30
0.0
 11
796.0856633023399
 21
494.7263760578699
 31
0.0
  0
LINE
  5
4BB3
330
1F
100
AcDbEntity
  8
sunpo
 62
     3
370
     9
100
AcDbLine
 10
908.4092377926994
 20
485.72637605787
 30
0.0
 11
796.0856633023399
 21
485.72637605787
 31
0.0
  0
TEXT
  5
4BB4
330
1F
100
AcDbEntity
  8
sunpo
 62
     2
100
AcDbText
 10
798.5856633023399
 20
487.2263760578699
 30
0.0
 40
5.000000000000001
  1
ハニカム芯材入 フラッシュ下地
  7
Std
100
AcDbText
  0
TEXT
  5
4BB5
330
1F
100
AcDbEntity
  8
sunpo
 62
     2
100
AcDbText
 10
798.5856633023399
 20
469.22637605787
 30
0.0
 40
5.000000000000001
  1
規格塗板仕上
  7
Std
100
AcDbText
  0
LINE
  5
4BB6
330
1F
100
AcDbEntity
  8
sunpo
 62
     3
370
     9
100
AcDbLine
 10
908.4092377926994
 20
476.7263760578699
 30
0.0
 11
796.0856633023399
 21
476.7263760578699
 31
0.0
  0
LINE
  5
4BB7
330
1F
100
AcDbEntity
  8
sunpo
 62
     3
370
     9
100
AcDbLine
 10
908.4092377926994
 20
467.7263760578699
 30
0.0
 11
796.0856633023399
 21
467.7263760578699
 31
0.0
  0
TEXT
  5
4BB8
330
1F
100
AcDbEntity
  8
sunpo
 62
     2
100
AcDbText
 10
798.5856633023399
 20
478.2263760578699
 30
0.0
 40
5.000000000000001
  1
鉄板厚 t0.4鋼板　両面貼
  7
Std
100
AcDbText
  0
LEADER
  5
4BB9
330
1F
100
AcDbEntity
  8
sunpo
100
AcDbLeader
  3
STD2$7
 76
     3
 10
938.1767898257553
 20
503.7263760578699
 30
0.0
 10
908.4092377926994
 20
503.7263760578699
 30
0.0
 10
796.0856633023399
 20
503.7263760578699
 30
0.0
  0
MTEXT
  5
4C29
102
{ACAD_REACTORS
330
4C2A
102
}
330
1F
100
AcDbEntity
  8
sunpo
 62
     2
100
AcDbMText
 10
1075.999154560669
 20
646.219213914622
 30
0.0
 40
5.0
 41
0.0
 71
     1
 72
     1
  1
ブラケット　@900以内\P FB-t2.0x98 L-20x20
  7
Std
 73
     1
 44
1.0
  0
LEADER
  5
4C2A
330
1F
100
AcDbEntity
  8
sunpo
100
AcDbLeader
  3
Std2
 73
     0
 74
     0
 75
     1
 40
13.33333333333333
 41
65.18095238095236
 76
     3
 10
1053.05818725047
 20
676.7760861073881
 30
0.0
 10
1074.382690693725
 20
639.7043338725106
 30
0.0
 10
1078.982690693725
 20
639.7043338725106
 30
0.0
340
4C29
213
4.983536133055622
223
8.81845329122197
233
0.0
1001
ACAD
1000
DSTYLE
1002
{
1070
   147
1040
1.0
1070
    77
1070
     3
1002
}
  0
LINE
  5
4C2C
330
1F
100
AcDbEntity
  8
sunpo
 62
     3
370
     9
100
AcDbLine
 10
1075.301849999074
 20
631.7043338725106
 30
0.0
 11
1146.560944771618
 21
631.7043338725106
 31
0.0
  0
MTEXT
  5
4C2E
102
{ACAD_REACTORS
330
4C2F
102
}
330
1F
100
AcDbEntity
  8
sunpo
 62
     2
100
AcDbMText
 10
1043.698700070991
 20
764.8780541194484
 30
0.0
 40
5.0
 41
0.0
 71
     1
 72
     1
  1
ブラケット　@900以内\P FB-t4.5x100 L-31x94
  7
Std
 73
     1
 44
1.0
  0
LEADER
  5
4C2F
330
1F
100
AcDbEntity
  8
sunpo
100
AcDbLeader
  3
Std2
 73
     0
 74
     0
 75
     1
 40
13.33333333333333
 41
69.18095238095237
 76
     3
 10
1016.03444275962
 20
713.2470724065302
 30
0.0
 10
1042.082236204046
 20
758.363174077337
 30
0.0
 10
1046.682236204046
 20
758.363174077337
 30
0.0
340
4C2E
213
4.983536133055622
223
8.81845329122197
233
0.0
1001
ACAD
1000
DSTYLE
1002
{
1070
   147
1040
1.0
1070
    77
1070
     3
1002
}
  0
LINE
  5
4C31
330
1F
100
AcDbEntity
  8
sunpo
 62
     3
370
     9
100
AcDbLine
 10
1043.001395509396
 20
750.363174077337
 30
0.0
 11
1114.26049028194
 21
750.363174077337
 31
0.0
  0
LINE
  5
4C32
330
1F
100
AcDbEntity
  8
sunpo
 62
     3
370
     9
100
AcDbLine
 10
971.0168601275968
 20
164.3631122938326
 30
0.0
 11
1042.275954900141
 21
164.3631122938326
 31
0.0
  0
LEADER
  5
4C33
330
1F
100
AcDbEntity
  8
sunpo
100
AcDbLeader
  3
Std2
 73
     0
 74
     0
 75
     1
 40
13.33333333333333
 41
69.18095238095237
 76
     3
 10
986.9977322616547
 20
215.8973299077243
 30
0.0
 10
970.0977008222475
 20
172.3631122938326
 30
0.0
 10
974.6977008222474
 20
172.3631122938326
 30
0.0
340
4C34
213
4.983536133055622
223
8.81845329122197
233
0.0
1001
ACAD
1000
DSTYLE
1002
{
1070
   147
1040
1.0
1070
    77
1070
     3
1002
}
  0
MTEXT
  5
4C34
102
{ACAD_REACTORS
330
4C33
102
}
330
1F
100
AcDbEntity
  8
sunpo
 62
     2
100
AcDbMText
 10
971.7141646891919
 20
178.877992335944
 30
0.0
 40
5.0
 41
0.0
 71
     1
 72
     1
  1
ブラケット　@900以内\P FB-t4.5x100 L-31x94
  7
Std
 73
     1
 44
1.0
  0
TEXT
  5
4C36
330
1F
100
AcDbEntity
  8
sunpo
 62
     2
100
AcDbText
 10
991.5575249083545
 20
141.012679968379
 30
0.0
 40
5.0
  1
壁仕上面
 41
0.9
  7
Std
100
AcDbText
  0
LEADER
  5
4C3C
330
1F
100
AcDbEntity
  8
sunpo
100
AcDbLeader
  3
Std2
 76
     3
 10
1053.217313175169
 20
139.1738293847301
 30
0.0
 10
1032.872164458291
 20
139.1738293847301
 30
0.0
 10
990.0425926661341
 20
139.1738293847301
 30
0.0
1001
ACAD
1000
DSTYLE
1002
{
1070
   147
1040
1.0
1070
    77
1070
     0
1002
}
  0
MTEXT
  5
4C3D
102
{ACAD_REACTORS
330
4C3E
102
}
330
1F
100
AcDbEntity
  8
sunpo
 62
     2
100
AcDbMText
 10
805.8600685835726
 20
159.5052050415689
 30
0.0
 40
5.0
 41
0.0
 71
     1
 72
     1
  1
（アルミ製）\P チョークボックス　W型
  7
Std
 73
     1
 44
1.0
  0
LEADER
  5
4C3E
330
1F
100
AcDbEntity
  8
sunpo
100
AcDbLeader
  3
Std2
 73
     0
 75
     1
 40
13.33333333333333
 41
54.13333333333334
 76
     3
 10
892.1906278973851
 20
189.5340299529715
 30
0.0
 10
866.2098657838503
 20
144.5340299529688
 30
0.0
 10
861.6098657838504
 20
144.5340299529688
 30
0.0
340
4C3D
210
0.0
220
0.0
230
-1.0
213
-0.3835361330555997
223
-3.637841755266805
233
0.0
1001
ACAD
1000
DSTYLE
1002
{
1070
   147
1040
1.0
1070
    77
1070
     3
1002
}
  0
TEXT
  5
4C65
330
1F
100
AcDbEntity
  8
moji
100
AcDbText
 10
819.0209770201178
 20
434.3594080211715
 30
0.0
 40
6.0
  1
縦 断 面 図
  7
Std
 72
     4
 11
837.8209770201179
 21
437.3594080211715
 31
0.0
100
AcDbText
  0
LWPOLYLINE
  5
4C66
330
1F
100
AcDbEntity
  8
saisen
100
AcDbPolyline
 90
        4
 70
     1
 43
0.0
 10
810.9346019192349
 20
431.2889180121501
 10
810.9346019192349
 20
443.9357757904927
 10
866.7318847455431
 20
443.9357757904927
 10
866.7318847455431
 20
431.2889180121501
  0
LWPOLYLINE
  5
4C67
330
1F
100
AcDbEntity
  8
saisen
100
AcDbPolyline
 90
        4
 70
     1
 43
0.0
 10
810.4346019192348
 20
430.7889180121501
 10
810.4346019192348
 20
444.4357757904927
 10
867.231884745543
 20
444.4357757904927
 10
867.231884745543
 20
430.7889180121501
  0
MTEXT
  5
4C69
102
{ACAD_REACTORS
330
4C6A
102
}
330
1F
100
AcDbEntity
  8
sunpo
 62
     2
100
AcDbMText
 10
893.8116006339765
 20
631.9540704260912
 30
0.0
 40
5.0
 41
0.0
 71
     9
 72
     1
  1
 フリーホイル 14T 及びチェーン（カバー付き）
  7
Std
 73
     1
 44
1.0
  0
LEADER
  5
4C6A
330
1F
100
AcDbEntity
  8
sunpo
100
AcDbLeader
  3
Std2
 73
     0
 40
5.0
 41
108.2285714285715
 76
     3
 10
979.0683313123517
 20
630.9814758295524
 30
0.0
 10
922.520577884175
 20
630.9814758295524
 30
0.0
 10
895.8260849291214
 20
630.9814758295524
 30
0.0
340
4C69
213
0.0144842951449391
223
1.027405403461216
233
0.0
1001
ACAD
1000
DSTYLE
1002
{
1070
   147
1040
1.0
1070
    77
1070
     3
1002
}
  0
LEADER
  5
4C6B
330
1F
100
AcDbEntity
  8
sunpo
100
AcDbLeader
  3
Std2
 73
     0
 75
     1
 40
13.33333333333333
 41
47.16190476190479
 76
     3
 10
891.8572029500747
 20
240.9109598323242
 30
0.0
 10
891.8572029500746
 20
297.0012271826416
 30
0.0
 10
887.2572029500744
 20
297.0012271826416
 30
0.0
340
4C6C
210
0.0
220
0.0
230
-1.0
213
-0.3835361330555997
223
4.85943918030361
233
0.0
1001
ACAD
1000
DSTYLE
1002
{
1070
   147
1040
1.0
1070
    77
1070
     3
1002
}
  0
MTEXT
  5
4C6C
102
{ACAD_REACTORS
330
4C6B
102
}
330
1F
100
AcDbEntity
  8
sunpo
 62
     2
100
AcDbMText
 10
838.4788343212253
 20
303.4751213356714
 30
0.0
 40
5.0
 41
0.0
 71
     1
 72
     1
  1
サイドキャップパーツ\P 　　（樹脂製）
  7
Std
 73
     1
 44
1.0
  0
LEADER
  5
4C6D
330
1F
100
AcDbEntity
  8
sunpo
100
AcDbLeader
  3
Std2
 73
     0
 75
     1
 40
5.0
 41
33.06666666666668
 76
     3
 10
1009.76538890734
 20
258.2802582493365
 30
0.0
 10
983.9263092623665
 20
276.8343487726288
 30
0.0
 10
979.3263092623666
 20
276.8343487726288
 30
0.0
340
4C6E
210
0.0
220
0.0
230
-1.0
213
-1.871925857049973
223
-3.375802949275367
233
0.0
1001
ACAD
1000
DSTYLE
1002
{
1070
   147
1040
1.0
1070
    77
1070
     3
1002
}
  0
MTEXT
  5
4C6E
102
{ACAD_REACTORS
330
4C6D
102
}
330
1F
100
AcDbEntity
  8
sunpo
 62
     2
100
AcDbMText
 10
946.1315684527498
 20
283.2101517219042
 30
0.0
 40
5.0
 41
0.0
 71
     1
 72
     1
  1
ゴムクッション
  7
Std
 73
     1
 44
1.0
  0
LEADER
  5
4C6F
330
1F
100
AcDbEntity
  8
sunpo
100
AcDbLeader
  3
Std2
 73
     0
 75
     1
 40
5.0
 41
47.61904761904762
 76
     3
 10
1000.376789825756
 20
275.9789927190195
 30
0.0
 10
989.0900911331637
 20
294.5330832423118
 30
0.0
 10
984.4900911331636
 20
294.5330832423118
 30
0.0
340
4C70
210
0.0
220
0.0
230
-1.0
213
-1.871925857049973
223
-3.375802949275367
233
0.0
1001
ACAD
1000
DSTYLE
1002
{
1070
   147
1040
1.0
1070
    77
1070
     3
1002
}
  0
MTEXT
  5
4C70
102
{ACAD_REACTORS
330
4C6F
102
}
330
1F
100
AcDbEntity
  8
sunpo
 62
     2
100
AcDbMText
 10
936.742969371166
 20
300.9088861915872
 30
0.0
 40
5.0
 41
0.0
 71
     1
 72
     1
  1
アルミコーナーエッジ
  7
Std
 73
     1
 44
1.0
  0
TEXT
  5
4CF2
330
1F
100
AcDbEntity
  8
moji
100
AcDbText
 10
375.0586095046301
 20
177.1398437149519
 30
0.0
 40
6.0
  1
WxH
 41
0.9
  7
Std
 72
     4
 11
382.9014666474872
 21
180.1398437149519
 31
0.0
100
AcDbText
  0
TEXT
  5
4D48
330
1F
100
AcDbEntity
  8
moji
100
AcDbText
 10
369.3014666474872
 20
199.5912652987172
 30
0.0
 40
6.0
  1
アルミ枠
  7
Std
 72
     1
 11
382.9014666474872
 21
199.5912652987172
 31
0.0
100
AcDbText
  0
TEXT
  5
4D49
330
1F
100
AcDbEntity
  8
moji
100
AcDbText
 10
369.3014666474872
 20
190.5554368159236
 30
0.0
 40
6.0
  1
上下黒板
  7
Std
 72
     1
 11
382.9014666474872
 21
190.5554368159236
 31
0.0
100
AcDbText
  0
CIRCLE
  5
4D4B
330
1F
100
AcDbEntity
  8
saisen
100
AcDbCircle
 10
382.9014666474872
 20
192.4900011419144
 30
0.0
 40
24.0
  0
LEADER
  5
4E44
330
1F
100
AcDbEntity
  8
sunpo
100
AcDbLeader
  3
Std2
 73
     0
 75
     1
 40
5.0
 41
54.13333333333334
 76
     3
 10
370.4014666477704
 20
142.9829579363853
 30
0.0
 10
359.9399257104015
 20
127.256283616053
 30
0.0
 10
355.3399257104015
 20
127.256283616053
 30
0.0
340
4E45
210
0.0
220
0.0
230
-1.0
213
-0.3835361330555997
223
-3.637841755266805
233
0.0
1001
ACAD
1000
DSTYLE
1002
{
1070
   147
1040
1.0
1070
    77
1070
     3
1002
}
  0
MTEXT
  5
4E45
102
{ACAD_REACTORS
330
4E44
102
}
330
1F
100
AcDbEntity
  8
sunpo
 62
     2
100
AcDbMText
 10
299.5901285101238
 20
133.8941253713198
 30
0.0
 40
5.0
 41
0.0
 71
     1
 72
     1
  1
 チョークボックス　W型
  7
Std
 73
     1
 44
1.0
  0
LEADER
  5
4E47
330
1F
100
AcDbEntity
  8
sunpo
100
AcDbLeader
  3
dim2_20
 73
     0
 74
     0
 75
     1
 40
5.0
 41
19.19999999999999
 76
     3
 10
427.9014666450252
 20
241.9835589267445
 30
0.0
 10
436.5732960224959
 20
224.8513174654676
 30
0.0
 10
442.5732960224959
 20
224.8513174654676
 30
0.0
340
4E48
213
0.0
223
-2.5
233
0.0
1001
ACAD
1000
DSTYLE
1002
{
1070
   147
1040
0.5
1070
    77
1070
     0
1002
}
  0
MTEXT
  5
4E48
102
{ACAD_REACTORS
330
4E47
102
}
330
1F
100
AcDbEntity
  8
sunpo
 62
     2
100
AcDbMText
 10
443.5732960224959
 20
227.3513174654676
 30
0.0
 40
5.0
 41
0.0
 71
     1
 72
     1
  1
舟底引手
  7
Std
 73
     1
 44
1.0
  0
LEADER
  5
4EE4
330
1F
100
AcDbEntity
  8
sunpo
100
AcDbLeader
  3
dim2
 73
     0
 74
     0
 75
     1
 40
6.0
 41
56.59428571428574
 76
     3
 10
132.2421762333197
 20
525.063206404206
 30
0.0
 10
151.815036976177
 20
482.6985683848546
 30
0.0
 10
158.815036976177
 20
482.6985683848546
 30
0.0
340
4EE5
213
0.0
223
-3.0
233
0.0
1001
ACAD
1000
DSTYLE
1002
{
1070
   147
1040
0.6
1070
    77
1070
     0
1002
}
  0
MTEXT
  5
4EE5
102
{ACAD_REACTORS
330
4EE4
102
}
330
1F
100
AcDbEntity
  8
sunpo
 62
     2
100
AcDbMText
 10
160.015036976177
 20
485.6985683848546
 30
0.0
 40
6.0
 41
0.0
 71
     1
 72
     1
  1
サイドキャップパーツ
  7
Std
 73
     1
 44
1.0
  0
LEADER
  5
4EE6
330
1F
100
AcDbEntity
  8
sunpo
100
AcDbLeader
  3
dim2
 73
     0
 75
     1
 40
6.000000000000001
 41
39.31428571428572
 76
     3
 10
158.096854473546
 20
598.3037582658111
 30
0.0
 10
138.8233405802656
 20
557.6273503308952
 30
0.0
 10
131.8233405802656
 20
557.6273503308952
 30
0.0
340
4EE7
213
0.0
223
3.0
233
0.0
1001
ACAD
1000
DSTYLE
1002
{
1070
   147
1040
0.6
1070
    77
1070
     0
1002
}
  0
MTEXT
  5
4EE7
102
{ACAD_REACTORS
330
4EE6
102
}
330
1F
100
AcDbEntity
  8
sunpo
 62
     2
100
AcDbMText
 10
130.6233405802657
 20
554.6273503308952
 30
0.0
 40
6.0
 41
0.0
 71
     9
 72
     1
  1
ガイドローラー
  7
Std
 73
     1
 44
1.0
  0
LINE
  5
523F
330
1F
100
AcDbEntity
  8
sunpo
 62
     3
370
     9
100
AcDbLine
 10
1114.26049028194
 20
742.363174077337
 30
0.0
 11
1043.001395509396
 21
742.363174077337
 31
0.0
  0
TEXT
  5
5240
330
1F
100
AcDbEntity
  8
sunpo
 62
     2
100
AcDbText
 10
1035.197376922822
 20
743.863174077337
 30
0.0
 40
5.0
  1
　　　　　　ユニクロメッキ
  7
kanji
100
AcDbText
  0
TEXT
  5
5246
330
1F
100
AcDbEntity
  8
sunpo
 62
     2
100
AcDbText
 10
1066.436886640882
 20
625.2043338725107
 30
0.0
 40
5.0
  1
　　　　　　ユニクロメッキ
  7
kanji
100
AcDbText
  0
LINE
  5
5247
330
1F
100
AcDbEntity
  8
sunpo
 62
     3
370
     9
100
AcDbLine
 10
1145.5
 20
623.7043338725107
 30
0.0
 11
1074.240905227456
 21
623.7043338725107
 31
0.0
  0
LINE
  5
5248
330
1F
100
AcDbEntity
  8
sunpo
 62
     3
370
     9
100
AcDbLine
 10
1042.275954900141
 20
156.3631122938326
 30
0.0
 11
971.0168601275968
 21
156.3631122938326
 31
0.0
  0
TEXT
  5
5249
330
1F
100
AcDbEntity
  8
sunpo
 62
     2
100
AcDbText
 10
963.212841541023
 20
157.8631122938326
 30
0.0
 40
5.0
  1
　　　　　　ユニクロメッキ
  7
kanji
100
AcDbText
  0
MTEXT
  5
524B
330
1F
100
AcDbEntity
  8
wakumoji
100
AcDbMText
 10
509.7500000000004
 20
52.875
 30
0.0
 40
6.0
 41
0.0
 71
     5
 72
     5
  1
 年    月    日
  7
gothic
 73
     1
 44
1.0
  0
DIMENSION
  5
52B7
330
1F
100
AcDbEntity
  8
sunpo
100
AcDbDimension
  2
*D43
 10
185.4014666477217
 20
332.6835589276305
 30
0.0
 11
181.9014666477217
 21
242.6835589276251
 31
0.0
 70
    32
  1
H
 71
     5
 42
1800.000000000109
  3
dim2_20
100
AcDbAlignedDimension
 13
195.4014666477217
 23
152.6835589276196
 33
0.0
 14
199.4014666477217
 24
332.6835589276305
 34
0.0
 50
90.0
100
AcDbRotatedDimension
  0
VIEWPORT
  5
24C
330
1B
100
AcDbEntity
 67
     1
  8
0
100
AcDbViewport
 10
579.0621378589341
 20
383.550019396431
 30
0.0
 40
1411.597673073116
 41
880.2002074220428
 68
     1
 69
     1
 12
579.0621378589341
 22
383.550019396431
 13
0.0
 23
0.0
 14
10.0
 24
10.0
 15
10.0
 25
10.0
 16
0.0
 26
0.0
 36
1.0
 17
0.0
 27
0.0
 37
0.0
 42
50.0
 43
0.0
 44
0.0
 45
880.2002074220428
 50
0.0
 51
0.0
 72
   100
 90
    32800
  1

281
     0
 71
     1
 74
     0
110
0.0
120
0.0
130
0.0
111
1.0
121
0.0
131
0.0
112
0.0
122
1.0
132
0.0
 79
     0
146
0.0
170
     0
  0
VIEWPORT
  5
2C4
330
1B
100
AcDbEntity
 67
     1
  8
0
100
AcDbViewport
 10
579.0698083852025
 20
383.5379149631606
 30
0.0
 40
1209.974379128347
 41
873.1909598778374
 68
     2
 69
     2
 12
594.0
 22
420.0
 13
0.0
 23
0.0
 14
10.0
 24
10.0
 15
10.0
 25
10.0
 16
0.0
 26
0.0
 36
1.0
 17
0.0
 27
0.0
 37
0.0
 42
50.0
 43
0.0
 44
0.0
 45
873.1909598778374
 50
0.0
 51
0.0
 72
   100
 90
    32864
  1

281
     0
 71
     1
 74
     0
110
0.0
120
0.0
130
0.0
111
1.0
121
0.0
131
0.0
112
0.0
122
1.0
132
0.0
 79
     0
146
0.0
170
     0
  0
ENDSEC
  0
SECTION
  2
OBJECTS
  0
DICTIONARY
  5
C
330
0
100
AcDbDictionary
281
     1
  3
ACAD_COLOR
350
2F1
  3
ACAD_GROUP
350
D
  3
ACAD_LAYOUT
350
1A
  3
ACAD_MATERIAL
350
2F0
  3
ACAD_MLINESTYLE
350
17
  3
ACAD_PLOTSETTINGS
350
19
  3
ACAD_PLOTSTYLENAME
350
E
  3
AcadDim
350
4E46
  0
DICTIONARY
  5
307
330
2
100
AcDbDictionary
280
     1
281
     1
  3
ACAD_LAYERFILTERS
360
3AA
  3
ACAD_LAYERSTATES
360
308
  0
DICTIONARY
  5
2F1
102
{ACAD_REACTORS
330
C
102
}
330
C
100
AcDbDictionary
281
     1
  0
DICTIONARY
  5
D
102
{ACAD_REACTORS
330
C
102
}
330
C
100
AcDbDictionary
281
     1
  0
DICTIONARY
  5
1A
102
{ACAD_REACTORS
330
C
102
}
330
C
100
AcDbDictionary
281
     1
  3
Model
350
22
  3
ﾚｲｱｳﾄ1
350
1E
  3
ﾚｲｱｳﾄ2
350
26
  0
DICTIONARY
  5
2F0
102
{ACAD_REACTORS
330
C
102
}
330
C
100
AcDbDictionary
281
     1
  0
DICTIONARY
  5
17
102
{ACAD_REACTORS
330
C
102
}
330
C
100
AcDbDictionary
281
     1
  3
Standard
350
18
  0
DICTIONARY
  5
19
102
{ACAD_REACTORS
330
C
102
}
330
C
100
AcDbDictionary
281
     1
  0
ACDBDICTIONARYWDFLT
  5
E
102
{ACAD_REACTORS
330
C
102
}
330
C
100
AcDbDictionary
281
     1
  3
Normal
350
F
100
AcDbDictionaryWithDefault
340
F
  0
XRECORD
  5
4E46
102
{ACAD_REACTORS
330
C
102
}
330
C
100
AcDbXrecord
280
     1
 90
   990106
  3

 60
     0
 61
     0
 62
     1
 63
     3
 64
     0
 65
     0
 66
     0
 67
     3
 68
     1
 69
     0
 70
     0
 71
     0
 72
     0
 40
0.0
170
     0
340
4EE7
  0
DICTIONARY
  5
3AA
102
{ACAD_REACTORS
330
307
102
}
330
307
100
AcDbDictionary
281
     1
  0
DICTIONARY
  5
308
102
{ACAD_REACTORS
330
307
102
}
330
307
100
AcDbDictionary
281
     1
  0
LAYOUT
  5
22
102
{ACAD_REACTORS
330
1A
102
}
330
1A
100
AcDbPlotSettings
  1

  2
HP DesignJet 800 24 by HP
  4
User1294
  6

 40
4.995333194732666
 41
16.97565841674804
 42
4.99530029296875
 43
16.97567749023437
 44
593.97900390625
 45
419.9466552734374
 46
-75.48
 47
-19.34
 48
0.0
 49
0.0
140
0.0
141
0.0
142
1.0
143
2.0
 70
 11956
 72
     1
 73
     2
 74
     0
  7

 75
    17
147
0.5
 76
     0
 77
     2
 78
   300
148
140.9399608439263
149
4.666800044856984
100
AcDbLayout
  1
Model
 70
     1
 71
     0
 10
0.0
 20
0.0
 11
12.0
 21
9.0
 12
0.0
 22
0.0
 32
0.0
 14
0.0
 24
0.0
 34
0.0
 15
0.0
 25
0.0
 35
0.0
146
0.0
 13
0.0
 23
0.0
 33
0.0
 16
1.0
 26
0.0
 36
0.0
 17
0.0
 27
1.0
 37
0.0
 76
     0
330
1F
  0
LAYOUT
  5
1E
102
{ACAD_REACTORS
330
1A
102
}
330
1A
100
AcDbPlotSettings
  1

  2
HP DesignJet 800 24 by HP
  4
User1294
  6

 40
4.995333194732666
 41
16.97565841674804
 42
4.99530029296875
 43
16.97567749023437
 44
593.97900390625
 45
419.9466552734374
 46
0.0
 47
0.0
 48
0.0
 49
0.0
140
0.0
141
0.0
142
1.0
143
2.0
 70
   688
 72
     1
 73
     2
 74
     5
  7
monochrome.ctb
 75
    17
147
0.5
 76
     1
 77
     2
 78
   300
148
0.0
149
0.0
100
AcDbLayout
  1
ﾚｲｱｳﾄ1
 70
     1
 71
     1
 10
-9.9906005859375
 20
-33.95135498046875
 11
1177.967407226562
 21
805.9419555664062
 12
0.0
 22
0.0
 32
0.0
 14
-25.93123167385193
 24
-53.05770098799053
 34
-0.000000000000013
 15
1184.147841776788
 25
820.157747913802
 35
0.0000000000000023
146
0.0
 13
0.0
 23
0.0
 33
0.0
 16
1.0
 26
0.0
 36
0.0
 17
0.0
 27
1.0
 37
0.0
 76
     0
330
1B
331
24C
  0
LAYOUT
  5
26
102
{ACAD_REACTORS
330
1A
102
}
330
1A
100
AcDbPlotSettings
  1

  2
C:\PROGRAM FILES\AUTOCAD LT 2000I\plotters\DWF Classic.pc3
  4

  6

 40
0.0
 41
0.0
 42
0.0
 43
0.0
 44
0.0
 45
0.0
 46
0.0
 47
0.0
 48
0.0
 49
0.0
140
0.0
141
0.0
142
1.0
143
1.0
 70
   688
 72
     0
 73
     0
 74
     5
  7
monochrome.ctb
 75
    16
147
1.0
 76
     0
 77
     2
 78
   300
148
0.0
149
0.0
100
AcDbLayout
  1
ﾚｲｱｳﾄ2
 70
     1
 71
     2
 10
0.0
 20
0.0
 11
12.0
 21
9.0
 12
0.0
 22
0.0
 32
0.0
 14
0.0
 24
0.0
 34
0.0
 15
0.0
 25
0.0
 35
0.0
146
0.0
 13
0.0
 23
0.0
 33
0.0
 16
1.0
 26
0.0
 36
0.0
 17
0.0
 27
1.0
 37
0.0
 76
     0
330
23
  0
MLINESTYLE
  5
18
102
{ACAD_REACTORS
330
17
102
}
330
17
100
AcDbMlineStyle
  2
STANDARD
 70
     0
  3

 62
   256
 51
90.0
 52
90.0
 71
     2
 49
0.5
 62
   256
  6
BYLAYER
 49
-0.5
 62
   256
  6
BYLAYER
  0
ACDBPLACEHOLDER
  5
F
102
{ACAD_REACTORS
330
E
102
}
330
E
  0
ENDSEC
  0
EOF
